osu file format v14

[General]
AudioFilename: Diamond - Aki Toyosaki.mp3
AudioLeadIn: 2000
PreviewTime: 50014
Countdown: 0
SampleSet: Soft
StackLeniency: 0.4
Mode: 0
LetterboxInBreaks: 0
WidescreenStoryboard: 0

[Editor]
Bookmarks: 13220
DistanceSpacing: 1
BeatDivisor: 4
GridSize: 4
TimelineZoom: 2.4

[Metadata]
Title:Diamond
TitleUnicode:ダイヤモンド
Artist:Oshimizu Nako (CV:Toyosaki Aki)
ArtistUnicode:押水菜子 (CV:豊崎愛生)
Creator:Yamicchi
Version:Hikan's Insane
Source:花咲くいろは
Tags:Hanasaku Iroha op opening character song p.a.works lantis 0109- Akitoshi Asaiga Lasse Hikan
BeatmapID:1392441
BeatmapSetID:450764

[Difficulty]
HPDrainRate:5.8
CircleSize:3.8
OverallDifficulty:8
ApproachRate:9
SliderMultiplier:1.6
SliderTickRate:1

[Events]
//Background and Video events
0,0,"Hikan's Insane.jpg",0,0
//Break Periods
//Storyboard Layer 0 (Background)
//Storyboard Layer 1 (Fail)
//Storyboard Layer 2 (Pass)
//Storyboard Layer 3 (Foreground)
//Storyboard Sound Samples

[TimingPoints]
704,344.8275862069,4,2,1,60,1,0
704,-125,4,2,1,60,0,0
2083,-100,4,2,1,80,0,0
13117,-100,4,2,1,60,0,0
24152,-100,4,2,1,70,0,0
35186,-100,4,2,1,70,0,0
35704,-93.0232558139535,4,2,1,70,0,0
36221,-86.2068965517241,4,2,1,70,0,0
36738,-100,4,2,1,70,0,0
38462,-92.5925925925926,4,2,1,70,0,0
38979,-97.0873786407767,4,2,1,70,0,0
39497,-111.111111111111,4,2,1,70,0,0
40704,-100,4,2,1,70,0,0
44755,-100,4,2,1,5,0,0
44841,-100,4,2,1,70,0,0
45704,-83.3333333333333,4,2,1,70,0,0
45876,-93.0232558139535,4,2,1,70,0,0
46135,-93.0232558139535,4,2,1,5,0,0
46221,-100,4,2,1,70,0,0
50359,-90.90909090909,4,2,1,80,0,1
79841,-90.90909090909,4,2,1,60,0,1
80704,-83.3333333333333,4,2,1,80,0,0
94841,-83.3333333333333,4,2,1,60,0,0

[Colours]
Combo1 : 98,176,255
Combo2 : 248,211,88
Combo3 : 255,190,125
Combo4 : 199,141,141

[HitObjects]
121,209,704,5,2,0:0:0:0:
334,231,1048,2,0,L|225:221,1,96,2|0,0:0|0:0,0:0:0:0:
218,234,1393,5,0,0:0:0:0:
274,109,1566,1,0,0:0:0:0:
354,219,1738,1,0,0:0:0:0:
198,246,1910,1,0,0:0:0:0:
379,132,2083,6,0,P|437:179|422:281,2,160,4|8|0,0:1|0:0|0:0,0:0:0:0:
274,213,2945,1,0,0:0:0:0:
274,213,3117,2,0,L|385:220,1,80,8|0,0:0|0:0,0:0:0:0:
265,356,3462,6,0,P|238:334|212:262,1,80,2|0,0:0|0:0,0:0:0:0:
134,214,3807,5,8,0:0:0:0:
134,214,3979,2,0,P|112:248|105:287,1,80,2|0,0:0|0:0,0:0:0:0:
84,113,4325,5,0,0:0:0:0:
84,113,4497,2,0,P|116:101|191:114,1,80,10|0,0:0|0:0,0:0:0:0:
283,177,4841,6,0,P|366:171|416:108,1,160,2|8,0:0|0:0,0:0:0:0:
329,10,5359,2,0,P|316:67|329:119,2,80,2|0|0,0:0|0:0|0:0,0:0:0:0:
209,128,5876,2,0,P|241:197|224:265,1,120,10|0,0:0|0:0,0:0:0:0:
208,263,6221,6,0,L|111:252,1,80,0|0,0:0|0:0,0:0:0:0:
366,202,6566,2,0,L|445:211,1,80,8|0,0:0|0:0,0:0:0:0:
366,362,6910,5,2,3:2:0:0:
314,282,7083,1,0,3:0:0:0:
374,189,7255,1,0,3:0:0:0:
374,375,7428,1,0,0:0:0:0:
294,137,7600,6,0,P|342:101|455:135,1,160,4|0,0:1|0:0,0:0:0:0:
211,197,8117,2,0,P|259:233|372:199,1,160,8|0,0:0|0:0,0:0:0:0:
435,115,8635,1,8,0:0:0:0:
294,137,8807,6,0,P|342:101|455:135,1,160,8|0,0:0|0:0,0:0:0:0:
476,201,9324,1,8,0:0:0:0:
489,39,9497,1,0,0:0:0:0:
476,201,9669,2,0,L|482:302,1,80,8|0,0:0|0:0,0:0:0:0:
343,348,10014,2,8,L|347:302,1,40,8|0,0:0|0:0,0:0:0:0:
259,219,10186,2,8,L|263:265,1,40,0|0,0:0|0:0,0:0:0:0:
154,346,10359,6,0,L|168:177,1,160,4|0,0:1|0:0,0:0:0:0:
15,298,10876,2,0,L|1:129,1,160,8|0,0:0|0:0,0:0:0:0:
167,186,11393,1,8,0:0:0:0:
154,346,11566,6,0,L|168:177,1,160,8|8,0:0|0:0,0:0:0:0:
96,98,12083,1,8,0:0:0:0:
278,169,12255,1,8,0:0:0:0:
56,203,12428,1,8,0:0:0:0:
208,82,12600,2,0,L|262:85,2,40,0|0|0,0:0|3:0|3:0,0:0:0:0:
65,208,12945,5,0,0:0:0:0:
105,103,13117,1,4,0:1:0:0:
176,191,13290,2,0,P|106:212|82:312,1,160,0|0,0:0|0:0,0:0:0:0:
175,359,13807,5,0,0:0:0:0:
164,279,13979,1,0,0:0:0:0:
21,343,14152,1,8,0:0:0:0:
193,362,14324,6,0,B|281:329|271:392|355:364,1,160
388,279,14841,1,8,0:0:0:0:
468,339,15014,1,0,0:0:0:0:
378,283,15186,5,0,0:0:0:0:
458,343,15359,1,0,0:0:0:0:
470,244,15531,1,8,0:0:0:0:
448,347,15704,1,0,0:0:0:0:
390,187,15876,6,0,L|396:83,1,80,0|0,0:0|0:0,0:0:0:0:
399,197,16221,1,8,0:0:0:0:
471,122,16393,1,0,0:0:0:0:
331,39,16566,2,0,P|365:18|417:19,1,80,0|0,0:0|0:0,0:0:0:0:
221,98,16910,2,0,P|181:95|147:75,1,80,8|0,0:0|0:0,0:0:0:0:
328,164,17255,5,0,0:0:0:0:
328,164,17428,2,0,P|328:203|301:248,1,80,0|0,0:0|0:0,0:0:0:0:
227,275,17772,1,0,0:0:0:0:
96,187,17945,5,0,0:0:0:0:
189,195,18117,1,0,0:0:0:0:
238,288,18290,1,8,0:0:0:0:
331,280,18462,1,8,0:0:0:0:
144,324,18635,5,0,0:0:0:0:
294,367,18807,2,0,P|240:313|151:315,1,160,0|0,0:0|0:0,0:0:0:0:
59,219,19324,2,0,P|99:217|145:191,1,80,0|0,0:0|0:0,0:0:0:0:
70,131,19669,1,8,0:0:0:0:
219,255,19841,6,0,P|232:171|180:108,1,160,0|0,0:0|0:0,0:0:0:0:
134,199,20359,1,8,0:0:0:0:
107,48,20531,6,0,P|156:16|253:35,1,160,0|0,0:0|0:0,0:0:0:0:
314,112,21048,2,0,L|409:108,1,80,8|0,0:0|0:0,0:0:0:0:
463,154,21393,5,0,0:0:0:0:
468,74,21566,1,0,0:0:0:0:
459,235,21738,1,8,0:0:0:0:
393,108,21910,2,0,P|387:71|413:13,2,80,0|0|0,0:0|0:0|0:0,0:0:0:0:
463,154,22428,5,8,0:0:0:0:
459,235,22600,1,0,0:0:0:0:
323,154,22772,5,0,0:0:0:0:
318,74,22945,1,0,0:0:0:0:
327,235,23117,1,8,0:0:0:0:
341,54,23290,5,0,3:0:0:0:
304,255,23462,2,0,P|342:245|382:247,1,80,0|0,3:0|3:0,0:0:0:0:
252,119,23807,2,0,P|199:119|154:102,1,80,0|0,3:0|0:0,0:0:0:0:
52,54,24152,6,0,B|92:17|92:17|81:149,1,160,4|8,0:1|0:0,0:0:0:0:
28,210,24669,1,0,0:0:0:0:
37,299,24841,1,0,0:0:0:0:
126,290,25014,1,0,0:0:0:0:
117,201,25186,1,8,0:0:0:0:
89,359,25359,6,0,B|131:380|174:366|196:326|196:326|221:342|267:343,1,160,0|0,0:0|0:0,0:0:0:0:
343,249,25876,1,8,0:0:0:0:
238,259,26048,1,0,0:0:0:0:
353,235,26221,5,0,0:0:0:0:
310,331,26394,1,0,0:0:0:0:
415,321,26566,1,8,0:0:0:0:
320,317,26738,1,0,0:0:0:0:
407,156,26910,5,0,0:0:0:0:
491,200,27083,2,0,P|432:247|340:224,1,160,0|0,0:0|0:0,0:0:0:0:
314,144,27600,2,0,P|320:105|308:67,1,80,0|0,0:0|0:0,0:0:0:0:
262,223,27945,2,0,P|250:260|256:300,1,80,8|0,0:0|0:0,0:0:0:0:
344,364,28290,5,0,0:0:0:0:
256,300,28462,2,0,P|197:253|105:276,1,160,0|0,0:0|0:0,0:0:0:0:
28,256,28979,1,0,0:0:0:0:
50,155,29152,1,0,0:0:0:0:
22,277,29324,2,0,L|28:359,1,80,8|8,0:0|0:0,0:0:0:0:
56,134,29669,6,0,L|50:52,1,80,0|0,0:0|0:0,0:0:0:0:
201,147,30014,1,8,0:0:0:0:
75,151,30186,1,0,0:0:0:0:
22,231,30359,5,0,0:0:0:0:
130,224,30531,1,0,0:0:0:0:
213,132,30704,1,8,0:0:0:0:
321,139,30876,2,0,P|254:147|208:249,1,160,0|0,0:0|0:0,0:0:0:0:
225,334,31393,6,0,P|171:345|115:328,1,80,8|0,0:0|0:0,0:0:0:0:
304,276,31738,2,0,B|325:252|377:237|408:269|408:269|378:287|350:281,1,160,0|8,0:0|0:0,0:0:0:0:
225,334,32255,1,0,0:0:0:0:
58,252,32428,6,0,L|60:83,1,160,4|8,0:1|0:0,0:0:0:0:
68,261,33117,2,0,L|70:92,1,160,4|8,0:1|0:0,0:0:0:0:
132,20,33635,1,0,0:0:0:0:
183,133,33807,5,4,0:1:0:0:
235,47,33979,1,0,0:0:0:0:
300,108,34152,1,8,0:0:0:0:
338,74,34324,1,0,0:0:0:0:
286,61,34497,5,8,0:0:0:0:
240,120,34669,1,0,0:0:0:0:
184,31,34841,1,8,0:0:0:0:
127,145,35014,1,0,0:0:0:0:
286,61,35186,6,0,L|460:69,1,160,4|0,0:1|0:0,0:0:0:0:
445,68,35704,6,0,B|401:63|368:90|368:90|336:57|277:61,1,172.000002624512,8|0,0:2|0:0,0:0:0:0:
286,60,36221,6,0,B|336:59|371:20|371:20|398:59|465:72,1,185.600005664063,8|0,0:0|0:0,0:0:0:0:
474,163,36738,2,0,P|419:178|388:274,1,160,8|0,0:0|0:0,0:0:0:0:
491,312,37255,2,0,P|481:254|456:238,1,80,8|0,0:0|0:0,0:0:0:0:
308,331,37600,1,8,0:0:0:0:
312,331,37686,1,0,0:0:0:0:
317,332,37772,1,0,0:0:0:0:
322,333,37859,1,0,0:0:0:0:
327,334,37945,6,0,L|152:344,1,160,4|0,0:1|0:0,0:0:0:0:
167,343,38462,6,0,B|206:326|206:326|284:354|284:354|329:332,1,172.80000421875,8|0,0:0|0:0,0:0:0:0:
326,333,38979,6,0,B|222:307|263:365|164:342,1,164.799998616943,8|0,0:0|0:0,0:0:0:0:
159,242,39497,2,0,P|159:207|179:255,1,143.999995605469,8|0,0:0|0:0,0:0:0:0:
88,300,40014,2,0,L|13:293,2,71.9999978027344,8|0|0,0:0|0:0|0:0,0:0:0:0:
28,284,40704,6,0,B|87:290|87:290|116:318|116:318|191:325,1,160,4|8,0:1|0:0,0:0:0:0:
253,223,41221,1,0,0:0:0:0:
253,223,41393,2,0,B|132:216|132:216|175:266,1,160,0|8,0:0|0:0,0:0:0:0:
271,132,42083,6,0,P|332:180|335:258,1,160,4|8,0:1|0:0,0:0:0:0:
257,308,42600,1,0,0:0:0:0:
257,308,42772,2,0,B|378:301|378:301|335:351,1,160,0|8,0:0|0:0,0:0:0:0:
176,356,43462,5,4,0:1:0:0:
166,363,44497,6,0,L|173:229,1,120,8|0,0:0|0:0,0:0:0:0:
257,308,44841,1,8,0:0:0:0:
247,315,45704,6,0,P|187:300|176:290,1,47.9999985351563,4|0,0:1|0:0,0:0:0:0:
310,210,45876,2,0,P|308:272|249:318,1,129.000001968384,8|0,0:0|0:0,0:0:0:0:
273,134,46221,6,0,B|317:112|364:132|385:169|385:169|405:156|431:156,1,160,4|0,0:1|0:0,0:0:0:0:
418,43,46738,1,0,0:0:0:0:
418,43,46910,2,0,P|460:39|509:47,1,80,8|0,0:0|0:0,0:0:0:0:
450,226,47255,2,0,P|435:189|412:157,1,80,0|0,0:0|0:0,0:0:0:0:
310,210,47600,2,0,P|292:248|261:286,1,80,4|0,0:1|0:0,0:0:0:0:
150,305,47945,5,8,0:0:0:0:
187,184,48117,1,0,0:0:0:0:
231,351,48290,1,8,0:0:0:0:
132,303,48462,5,0,0:0:0:0:
189,155,48635,1,8,0:0:0:0:
245,366,48807,1,0,0:0:0:0:
93,210,48979,5,8,0:0:0:0:
320,273,49152,1,8,0:0:0:0:
37,297,49324,5,8,0:0:0:0:
269,215,49497,1,8,0:0:0:0:
269,215,50186,1,0,0:0:0:0:
37,297,50359,6,0,B|136:269|104:334|210:302,1,176.000005371094,4|8,0:1|0:0,0:0:0:0:
281,195,50876,1,0,0:0:0:0:
439,336,51048,6,0,P|353:338|293:267,1,176.000005371094,0|8,0:0|0:0,0:0:0:0:
267,157,51566,1,0,0:0:0:0:
125,323,51738,6,0,P|176:319|225:279,1,88.000002685547,0|0,0:0|0:0,0:0:0:0:
385,253,52083,2,0,P|336:236|299:185,1,88.000002685547,8|0,0:0|0:0,0:0:0:0:
339,64,52428,1,0,0:0:0:0:
230,166,52600,1,0,0:0:0:0:
378,147,52772,1,8,0:0:0:0:
246,75,52945,6,0,B|210:93|169:84|143:62|143:62|96:49|54:88,1,176.000005371094
35,194,53462,1,8,0:0:0:0:
35,194,53635,2,0,P|102:178|183:264,1,176.000005371094,0|0,0:0|0:0,0:0:0:0:
86,275,54152,2,0,P|67:327|78:370,1,88.000002685547,8|0,0:0|0:0,0:0:0:0:
241,310,54497,6,0,P|205:255|98:262,1,176.000005371094,0|8,0:0|0:0,0:0:0:0:
155,329,55014,1,0,0:0:0:0:
277,203,55186,6,0,P|327:173|425:229,1,176.000005371094,0|8,0:0|0:0,0:0:0:0:
344,258,55704,1,8,0:0:0:0:
208,152,55876,6,0,B|215:28|215:28|224:63|269:98,1,176.000005371094,4|8,0:1|0:0,0:0:0:0:
277,203,56393,1,0,0:0:0:0:
240,72,56566,6,0,B|307:60|307:60|357:76|357:76|426:65,1,176.000005371094,0|8,0:0|0:0,0:0:0:0:
277,203,57083,1,0,0:0:0:0:
411,67,57255,6,0,P|469:112|479:212,1,176.000005371094,0|8,0:0|0:0,0:0:0:0:
277,203,57772,1,0,0:0:0:0:
480,209,57945,6,0,P|391:218|356:228,1,88.000002685547,0|0,0:0|0:0,0:0:0:0:
322,324,58290,1,8,0:0:0:0:
345,147,58462,1,0,0:0:0:0:
435,304,58635,5,4,0:1:0:0:
210,345,58979,1,8,0:0:0:0:
435,304,59324,1,8,0:0:0:0:
210,345,59669,1,8,0:0:0:0:
356,360,60014,5,8,0:0:0:0:
288,223,60186,1,0,0:0:0:0:
210,345,60359,5,8,0:0:0:0:
210,345,60445,1,0,0:0:0:0:
210,345,60531,1,0,0:0:0:0:
281,141,60704,5,8,0:0:0:0:
295,305,60876,1,0,0:0:0:0:
436,143,61048,5,8,0:0:0:0:
414,354,61221,1,0,0:0:0:0:
432,167,61393,6,0,P|384:222|273:213,1,176.000005371094,4|8,0:1|0:0,0:0:0:0:
207,100,61910,1,0,0:0:0:0:
29,178,62083,6,0,P|85:224|193:196,1,176.000005371094,0|8,0:0|0:0,0:0:0:0:
199,72,62600,1,0,0:0:0:0:
349,176,62772,6,0,P|288:169|250:137,1,88.000002685547,0|0,0:0|0:0,0:0:0:0:
399,20,63117,2,0,P|423:76|414:125,1,88.000002685547,8|0,0:0|0:0,0:0:0:0:
268,244,63462,1,0,0:0:0:0:
310,89,63635,1,0,0:0:0:0:
423,202,63807,1,8,0:0:0:0:
219,314,63979,6,0,B|101:288|153:353|39:327,1,176.000005371094,0|0,0:0|0:0,0:0:0:0:
301,362,64497,1,8,0:0:0:0:
301,362,64669,2,0,P|292:254|228:218,1,176.000005371094,0|0,0:0|0:0,0:0:0:0:
219,314,65186,1,8,0:0:0:0:
398,284,65359,1,0,0:0:0:0:
241,220,65531,6,0,B|209:173|209:173|228:45,1,176.000005371094,0|8,0:0|0:0,0:0:0:0:
369,169,66048,1,0,0:0:0:0:
369,169,66221,2,0,L|355:73,1,88.000002685547,0|0,0:0|0:0,0:0:0:0:
213,142,66566,2,0,L|226:55,1,88.000002685547,8|8,0:0|0:0,0:0:0:0:
90,205,66910,6,0,B|69:30,1,176.000005371094,4|8,0:1|0:0,0:0:0:0:
9,236,67428,1,0,0:0:0:0:
9,236,67600,2,0,P|70:290|154:262,1,176.000005371094,0|8,0:0|0:0,0:0:0:0:
268,342,68117,2,0,P|329:288|413:316,1,176.000005371094,0|0,0:0|0:0,0:0:0:0:
347,369,68635,1,8,0:0:0:0:
475,259,68807,6,0,B|492:143|492:143|445:182,1,176.000005371094,0|0,0:0|0:0,0:0:0:0:
332,207,69324,2,0,L|326:120,1,88.000002685547,8|0,0:0|0:0,0:0:0:0:
256,29,69669,5,4,0:1:0:0:
249,138,69841,1,0,0:0:0:0:
178,5,70014,5,8,0:0:0:0:
171,162,70186,1,0,0:0:0:0:
102,21,70359,5,8,0:0:0:0:
95,146,70531,1,0,0:0:0:0:
26,37,70704,5,8,0:0:0:0:
19,130,70876,1,0,0:0:0:0:
151,84,71048,6,0,P|120:101|94:178,1,88.000002685547,8|0,0:0|0:0,0:0:0:0:
195,242,71393,2,0,P|195:206|142:145,1,88.000002685547,8|0,0:0|0:0,0:0:0:0:
54,316,71738,2,0,B|147:288|134:354|229:327,1,176.000005371094,8|8,0:0|0:0,0:0:0:0:
296,246,72255,1,0,0:0:0:0:
452,325,72428,5,4,0:1:0:0:
452,325,72772,5,8,0:0:0:0:
320,320,72945,1,0,0:0:0:0:
464,237,73117,5,8,0:0:0:0:
311,231,73290,1,0,0:0:0:0:
476,149,73462,5,8,0:0:0:0:
302,143,73635,1,0,0:0:0:0:
457,61,73807,5,8,0:0:0:0:
324,55,73980,1,0,0:0:0:0:
476,149,74152,6,0,P|425:146|388:166,1,88.000002685547,8|0,0:0|0:0,0:0:0:0:
320,320,74497,2,0,P|270:334|193:285,1,132.00000402832,8|0,0:0|0:0,0:0:0:0:
264,209,74841,2,0,L|272:263,1,44.0000013427735,8|0,0:0|0:0,0:0:0:0:
145,240,75014,2,0,L|153:186,1,44.0000013427735,0|0,0:0|0:0,0:0:0:0:
104,59,75186,5,4,0:1:0:0:
288,126,75359,1,0,0:0:0:0:
108,134,75530,5,8,0:0:0:0:
285,52,75704,1,0,0:0:0:0:
163,185,75876,5,8,0:0:0:0:
230,1,76048,1,0,0:0:0:0:
238,182,76221,5,8,0:0:0:0:
155,4,76393,1,0,0:0:0:0:
288,126,76566,6,0,P|345:138|383:126,1,88.000002685547,8|0,0:0|0:0,0:0:0:0:
427,33,76910,1,8,0:0:0:0:
210,82,77083,2,0,P|203:157|292:217,1,176.000005371094,0|0,0:0|0:0,0:0:0:0:
375,130,77600,2,0,P|368:89|327:49,1,88.000002685547,8|0,0:0|0:0,0:0:0:0:
210,82,77945,6,0,L|24:91,2,176.000005371094,4|8|8,0:1|0:0|0:0,0:0:0:0:
257,156,78807,1,0,0:0:0:0:
165,8,78979,1,8,0:0:0:0:
83,162,79152,1,0,0:0:0:0:
313,61,79324,5,4,0:1:0:0:
331,74,79841,6,0,L|332:22,2,44.0000013427735,0|0|0,3:0|3:0|3:0,0:0:0:0:
350,207,80186,1,0,0:0:0:0:
345,191,80704,6,0,P|290:169|193:251,1,191.999994140625,4|8,0:1|0:0,0:0:0:0:
300,349,81221,1,2,0:0:0:0:
300,349,81393,2,0,P|305:295|276:251,1,95.9999970703126,0|2,0:0|0:0,0:0:0:0:
459,308,81738,2,0,P|409:330|386:377,1,95.9999970703126,8|2,0:0|0:0,0:0:0:0:
345,191,82083,6,0,P|389:222|496:152,1,191.999994140625,0|10,0:0|0:0,0:0:0:0:
405,46,82600,1,0,0:0:0:0:
405,46,82772,2,0,L|413:156,1,95.9999970703126,2|0,0:0|0:0,0:0:0:0:
259,97,83117,2,0,L|267:-13,1,95.9999970703126,10|0,0:0|0:0,0:0:0:0:
345,191,83462,6,0,B|352:267|352:267|326:304|326:304|332:377,1,191.999994140625,4|8,0:1|0:0,0:0:0:0:
183,258,83979,1,2,0:0:0:0:
183,258,84152,2,0,P|234:238|295:246,1,95.9999970703126,0|2,0:0|0:0,0:0:0:0:
495,347,84497,2,0,P|447:347|403:328,1,95.9999970703126,8|2,0:0|0:0,0:0:0:0:
241,164,84841,6,0,B|354:135|323:211|446:176,1,191.999994140625,0|10,0:0|0:0,0:0:0:0:
392,82,85359,1,0,0:0:0:0:
488,229,85531,2,0,P|500:205|483:128,1,95.9999970703126,2|0,0:0|0:0,0:0:0:0:
241,164,85876,5,10,0:0:0:0:
241,140,85962,1,0,0:0:0:0:
242,116,86048,1,0,0:0:0:0:
243,92,86134,1,0,0:0:0:0:
246,68,86221,2,0,P|169:99|201:14,1,191.999994140625,4|8,0:1|0:0,0:0:0:0:
314,117,86738,1,2,0:0:0:0:
314,117,86910,6,0,P|282:159|236:179,1,95.9999970703126,0|2,0:0|0:0,0:0:0:0:
84,189,87255,2,0,P|136:195|176:225,1,95.9999970703126,8|2,0:0|0:0,0:0:0:0:
262,353,87600,2,0,P|241:304|247:254,1,95.9999970703126,0|0,0:0|0:0,0:0:0:0:
333,294,87945,1,10,0:0:0:0:
159,331,88117,1,0,0:0:0:0:
357,288,88290,2,0,L|470:299,1,95.9999970703126,2|0,0:0|0:0,0:0:0:0:
244,262,88635,2,0,P|242:309|262:353,1,95.9999970703126,10|0,0:0|0:0,0:0:0:0:
321,174,88979,6,0,B|282:170|282:170|248:187|248:187|206:189|165:176|144:126,1,191.999994140625,4|8,0:1|0:0,0:0:0:0:
225,0,89497,2,0,L|232:122,1,95.9999970703126,4|0,0:1|0:0,0:0:0:0:
63,174,89841,2,0,L|70:52,1,95.9999970703126,4|8,0:1|0:0,0:0:0:0:
238,211,90186,2,0,B|245:335|245:335|202:311|147:338,1,191.999994140625,4|0,0:1|0:0,0:0:0:0:
37,356,90704,6,0,P|81:306|81:244,1,95.9999970703126,10|0,0:0|0:0,0:0:0:0:
105,124,91048,2,0,P|126:187|179:218,1,95.9999970703126,10|0,0:0|0:0,0:0:0:0:
305,123,91393,2,0,L|192:118,1,95.9999970703126,10|0,0:0|0:0,0:0:0:0:
179,326,91738,6,0,B|257:319|257:319|302:334|302:334|384:327,1,191.999994140625,4|8,0:1|0:0,0:0:0:0:
455,217,92255,1,4,0:1:0:0:
447,376,92428,1,0,0:0:0:0:
373,211,92600,5,4,0:1:0:0:
507,297,92772,1,8,0:0:0:0:
365,370,92945,1,4,0:1:0:0:
284,164,93117,5,8,0:0:0:0:
411,302,93290,1,0,0:0:0:0:
227,342,93462,1,8,0:0:0:0:
391,216,93635,1,0,0:0:0:0:
207,256,93807,5,8,0:0:0:0:
411,302,93979,1,0,0:0:0:0:
189,252,94152,1,8,0:0:0:0:
359,33,94324,1,4,0:1:0:0:
359,33,94841,5,0,0:0:0:0:
379,39,95185,1,0,0:0:0:0:
397,49,95530,1,0,0:0:0:0:
414,63,95875,1,10,0:0:0:0:
426,80,96220,1,0,0:0:0:0:
435,100,96565,1,10,0:0:0:0:
439,120,96909,1,0,0:0:0:0:
439,142,97254,1,10,0:0:0:0:
434,163,97599,1,0,0:0:0:0:
425,182,97944,5,0,0:0:0:0:
294,167,98117,1,10,0:0:0:0:
463,158,98290,1,0,0:0:0:0:
260,286,98462,5,4,0:1:0:0:
256,192,98548,12,0,99669,0:0:0:0:
126,234,100014,6,0,L|205:239,1,47.9999985351563,4|0,0:1|0:0,0:0:0:0:
354,248,100186,1,4,0:1:0:0:
