osu file format v14

[General]
AudioFilename: Diamond - Aki Toyosaki.mp3
AudioLeadIn: 2000
PreviewTime: 50014
Countdown: 0
SampleSet: Soft
StackLeniency: 0.3
Mode: 0
LetterboxInBreaks: 0
WidescreenStoryboard: 0

[Editor]
DistanceSpacing: 1.2
BeatDivisor: 4
GridSize: 8
TimelineZoom: 2.4

[Metadata]
Title:Diamond
TitleUnicode:ダイヤモンド
Artist:Oshimizu Nako (CV:Toyosaki Aki)
ArtistUnicode:押水菜子 (CV:豊崎愛生)
Creator:Yamicchi
Version:Easy
Source:花咲くいろは
Tags:Hanasaku Iroha op opening character song p.a.works lantis 0109- Akitoshi Asaiga Lasse Hikan
BeatmapID:1392440
BeatmapSetID:450764

[Difficulty]
HPDrainRate:3
CircleSize:2
OverallDifficulty:2
ApproachRate:3
SliderMultiplier:0.8
SliderTickRate:1

[Events]
//Background and Video events
0,0,"Easy.jpg",0,0
//Break Periods
//Storyboard Layer 0 (Background)
//Storyboard Layer 1 (Fail)
//Storyboard Layer 2 (Pass)
//Storyboard Layer 3 (Foreground)
//Storyboard Sound Samples

[TimingPoints]
704,344.8275862069,4,2,1,80,1,0
13117,-100,4,2,1,60,0,0
24152,-100,4,2,1,70,0,0
44497,-100,4,2,1,60,0,0
50359,-100,4,2,1,80,0,1
61048,-100,4,2,1,80,0,0
61393,-100,4,2,1,80,0,1
69324,-100,4,2,1,80,0,0
69669,-100,4,2,1,80,0,1
79324,-100,4,2,1,80,0,0
94497,-100,4,2,1,60,0,0
98117,-100,4,2,1,80,0,0

[Colours]
Combo1 : 164,172,83
Combo2 : 244,192,11
Combo3 : 205,66,50

[HitObjects]
64,144,2083,6,0,B|120:120|176:144|176:144|232:168|296:136,1,240,4|8,0:1|0:0,0:0:0:0:
312,40,3462,2,0,P|360:64|392:136,2,120,2|2|10,0:0|0:0|0:0,0:0:0:0:
220,74,4841,2,0,P|175:103|96:95,2,120,2|2|10,0:0|0:0|0:0,0:0:0:0:
296,135,6221,2,0,L|304:311,1,160,0|2,0:0|3:2,0:0:0:0:
128,368,7600,6,0,B|120:320|120:320|128:240,2,120,4|8|8,0:1|0:0|0:0,0:0:0:0:
272,376,9152,2,0,P|344:360|400:360,1,120,0|8,0:0|0:0,0:0:0:0:
464,304,10014,1,8,0:0:0:0:
484,212,10359,2,0,B|492:164|492:164|484:84,2,120,4|8|8,0:1|0:0|0:0,0:0:0:0:
356,148,11910,2,0,L|232:160,1,120,8|8,0:0|0:0,0:0:0:0:
44,180,13117,6,0,P|20:256|44:344,1,160,4|0,0:1|0:0,0:0:0:0:
124,372,14152,1,8,0:0:0:0:
216,340,14497,2,0,P|240:264|216:176,1,160,0|0,0:0|0:0,0:0:0:0:
136,148,15531,1,8,0:0:0:0:
52,100,15876,6,0,P|112:56|204:80,1,160,0|0,0:0|0:0,0:0:0:0:
280,112,16910,1,8,0:0:0:0:
364,64,17255,2,0,P|440:48|504:93,1,160,0|0,0:0|0:0,0:0:0:0:
512,188,18290,1,8,0:0:0:0:
496,284,18635,6,0,L|336:276,1,160,0|0,0:0|0:0,0:0:0:0:
256,220,19669,1,8,0:0:0:0:
176,276,20014,2,0,L|16:284,1,160,0|0,0:0|0:0,0:0:0:0:
0,188,21048,1,8,0:0:0:0:
90,157,21393,6,0,P|56:109|0:92,2,120,0|0|8,0:0|0:0|0:0,0:0:0:0:
164,220,22772,2,0,P|204:220|248:196,1,80,0|8,0:0|0:0,0:0:0:0:
300,128,23462,1,0,3:0:0:0:
394,141,23807,1,0,3:0:0:0:
452,64,24152,6,0,P|488:120|460:211,1,160,4|0,0:1|0:0,0:0:0:0:
372,234,25186,1,8,0:0:0:0:
304,168,25531,2,0,P|279:241|317:309,1,160,0|0,0:0|0:0,0:0:0:0:
240,360,26566,1,8,0:0:0:0:
160,312,26910,6,0,B|120:296|80:312|80:312|40:328|0:312,1,160,0|0,0:0|0:0,0:0:0:0:
41,225,27945,1,8,0:0:0:0:
4,136,28290,2,0,B|44:120|84:136|84:136|124:152|164:136,1,160,0|0,0:0|0:0,0:0:0:0:
123,49,29324,1,8,0:0:0:0:
212,12,29669,6,0,L|376:8,1,160,0|0,0:0|0:0,0:0:0:0:
428,88,30704,1,8,0:0:0:0:
380,172,31048,2,0,L|220:175,1,160,0|0,0:0|0:0,0:0:0:0:
164,96,32083,1,8,0:0:0:0:
84,152,32428,6,0,P|52:224|80:312,1,160,4|4,0:1|0:1,0:0:0:0:
160,336,33462,1,8,0:0:0:0:
256,328,33807,2,0,P|240:280|208:252,1,80,4|8,0:1|0:0,0:0:0:0:
188,168,34497,2,0,P|204:120|236:92,1,80,8|8,0:0|0:0,0:0:0:0:
281,176,35186,6,0,L|417:164,2,120,4|8|8,0:1|0:2|0:0,0:0:0:0:
160,256,36738,2,0,L|24:244,1,120,8|8,0:0|0:0,0:0:0:0:
4,156,37600,1,8,0:0:0:0:
95,120,37945,6,0,P|57:75|0:60,2,120,4|8|8,0:1|0:0|0:0,0:0:0:0:
160,256,39497,2,0,P|218:245|259:203,1,120,8|8,0:0|0:0,0:0:0:0:
272,108,40359,1,0,0:0:0:0:
256,192,40704,12,4,43462,0:1:0:0:
312,120,44497,6,0,L|408:112,1,80,8|8,0:0|0:0,0:0:0:0:
224,348,45876,1,8,0:0:0:0:
152,284,46221,6,0,P|144:244|156:196,1,80,4|0,0:1|0:0,0:0:0:0:
180,116,46910,2,0,P|187:76|179:37,1,80,8|0,0:0|0:0,0:0:0:0:
91,78,47600,1,4,0:1:0:0:
256,192,47772,12,8,48979,0:0:0:0:
296,80,50359,6,0,P|372:56|448:104,1,160,4|0,0:1|0:0,0:0:0:0:
464,184,51393,1,8,0:0:0:0:
424,272,51738,2,0,P|348:296|272:248,1,160,0|0,0:0|0:0,0:0:0:0:
256,168,52772,1,8,0:0:0:0:
169,125,53117,6,0,P|161:183|188:236,2,120,4|0|8,0:1|0:0|0:0,0:0:0:0:
250,72,54497,2,0,L|336:64,1,80,0|8,0:0|0:0,0:0:0:0:
416,108,55186,2,0,L|423:187,1,80,0|8,0:0|0:0,0:0:0:0:
468,268,55876,6,0,P|390:274|336:220,1,160,4|0,0:1|0:0,0:0:0:0:
256,168,56910,1,8,0:0:0:0:
175,220,57255,2,0,P|121:274|43:268,1,160,0|0,0:0|0:0,0:0:0:0:
88,184,58290,1,8,0:0:0:0:
164,124,58635,6,0,P|176:80|180:40,1,80,4|8,0:1|0:0,0:0:0:0:
272,24,59324,2,0,P|304:56|336:79,1,80,8|8,0:0|0:0,0:0:0:0:
428,72,60014,2,0,P|408:132|392:244,1,160,8|8,0:0|0:0,0:0:0:0:
392,324,61048,1,8,0:0:0:0:
308,368,61393,6,0,B|264:368|236:336|236:336|200:368|164:364,1,160,4|0,0:1|0:0,0:0:0:0:
166,267,62428,1,8,0:0:0:0:
164,171,62772,2,0,B|129:167|93:199|93:199|65:167|21:167,1,160,0|0,0:0|0:0,0:0:0:0:
42,73,63807,1,8,0:0:0:0:
130,33,64152,6,0,B|168:16|208:32|208:32|248:48|288:32,1,160,4|0,0:1|0:0,0:0:0:0:
378,7,65186,1,8,0:0:0:0:
456,60,65531,2,0,P|464:92|464:144,1,80,0|8,0:0|0:0,0:0:0:0:
396,208,66221,2,0,P|395:247|404:286,1,80,0|8,0:0|0:0,0:0:0:0:
480,348,66910,6,0,P|416:328|320:344,1,160,4|0,0:1|0:0,0:0:0:0:
256,276,67945,1,8,0:0:0:0:
160,296,68290,2,0,P|164:240|212:188,2,120,0|0|8,0:0|0:0|0:0,0:0:0:0:
224,368,69669,5,4,0:1:0:0:
320,352,70014,2,0,L|408:360,2,80,8|8|8,0:0|0:0|0:0,0:0:0:0:
256,276,71048,1,8,0:0:0:0:
352,260,71393,2,0,L|440:268,2,80,8|8|8,0:0|0:0|0:0,0:0:0:0:
291,185,72428,6,0,P|280:148|292:92,1,80,4|8,0:1|0:0,0:0:0:0:
368,60,73117,2,0,P|379:97|367:153,1,80,8|8,0:0|0:0,0:0:0:0:
372,232,73807,2,0,P|361:269|373:325,1,80,8|8,0:0|0:0,0:0:0:0:
449,357,74496,2,0,P|460:320|448:264,1,80,8|8,0:0|0:0,0:0:0:0:
456,184,75186,5,4,0:1:0:0:
373,137,75531,1,8,0:0:0:0:
286,90,75876,2,0,P|275:128|280:168,1,80,8|8,0:0|0:0,0:0:0:0:
288,264,76566,1,8,0:0:0:0:
205,311,76911,1,8,0:0:0:0:
118,357,77256,2,0,P|106:318|111:279,1,80,8|8,0:0|0:0,0:0:0:0:
185,218,77945,6,0,P|201:162|113:114,1,160,4|8,0:1|0:0,0:0:0:0:
32,132,78979,1,8,0:0:0:0:
12,228,79324,1,4,0:1:0:0:
12,228,80704,6,0,B|52:220|52:220|88:224|88:224|136:216,1,120,4|2,0:1|0:0,0:0:0:0:
224,200,81566,1,2,0:0:0:0:
300,260,81910,2,0,P|320:208|304:144,1,120,2|10,0:0|0:0,0:0:0:0:
219,103,82772,2,0,P|248:68|288:52,1,80,2|10,0:0|0:0,0:0:0:0:
372,80,83462,6,0,B|413:129|488:136,1,120,4|2,0:1|0:0,0:0:0:0:
512,224,84324,1,2,0:0:0:0:
460,304,84669,2,0,B|416:296|416:296|328:308,1,120,2|10,0:0|0:0,0:0:0:0:
252,276,85531,2,0,L|164:288,1,80,2|10,0:0|0:0,0:0:0:0:
96,344,86221,6,0,P|78:279|103:220,1,120,4|2,0:1|0:0,0:0:0:0:
144,148,87083,1,2,0:0:0:0:
236,116,87428,2,0,L|372:104,1,120,2|10,0:0|0:0,0:0:0:0:
448,128,88290,2,0,P|464:172|464:208,1,80,2|10,0:0|0:0,0:0:0:0:
444,300,88979,5,4,0:1:0:0:
312,356,89497,2,0,L|224:348,2,80,4|4|4,0:1|0:1|0:1,0:0:0:0:
444,300,90704,2,0,P|392:236|304:212,1,160,10|10,0:0|0:0,0:0:0:0:
224,216,91738,5,4,0:1:0:0:
116,120,92255,2,0,L|24:128,2,80,4|4|4,0:1|0:1|0:1,0:0:0:0:
224,216,93462,2,0,P|232:256|232:300,1,80,8|8,0:0|0:0,0:0:0:0:
364,352,94324,6,0,P|440:288|420:120,1,280,4|0,0:1|0:0,0:0:0:0:
359,51,95876,2,0,P|327:122|359:193,1,160,10|10,0:0|0:0,0:0:0:0:
496,328,97255,6,0,B|456:304|400:328|400:328|344:352|296:328,1,200,10|10,0:0|0:0,0:0:0:0:
232,272,98462,2,0,P|125:194|37:295,1,280,4|0,0:1|0:0,0:0:0:0:
120,336,100014,2,0,L|159:338,1,40,4|4,0:1|0:1,0:0:0:0:
