osu file format v14

[General]
AudioFilename: Diamond - Aki Toyosaki.mp3
AudioLeadIn: 2000
PreviewTime: 50014
Countdown: 0
SampleSet: Soft
StackLeniency: 0.4
Mode: 0
LetterboxInBreaks: 0
WidescreenStoryboard: 0

[Editor]
DistanceSpacing: 1.1
BeatDivisor: 4
GridSize: 4
TimelineZoom: 1.2

[Metadata]
Title:Diamond
TitleUnicode:ダイヤモンド
Artist:Oshimizu Nako (CV:Toyosaki Aki)
ArtistUnicode:押水菜子 (CV:豊崎愛生)
Creator:Yamicchi
Version:Another
Source:花咲くいろは
Tags:Hanasaku Iroha op opening character song p.a.works lantis 0109- Akitoshi Asaiga Lasse Hikan
BeatmapID:1351395
BeatmapSetID:450764

[Difficulty]
HPDrainRate:6
CircleSize:4
OverallDifficulty:8
ApproachRate:9
SliderMultiplier:1.8
SliderTickRate:1

[Events]
//Background and Video events
0,0,"Another.jpg",0,0
//Break Periods
//Storyboard Layer 0 (Background)
//Storyboard Layer 1 (Fail)
//Storyboard Layer 2 (Pass)
//Storyboard Layer 3 (Foreground)
//Storyboard Sound Samples

[TimingPoints]
704,344.8275862069,4,2,1,60,1,0
2083,-100,4,2,1,80,0,0
7600,-90.90909090909,4,2,1,80,0,0
13117,-125,4,2,1,60,0,0
24152,-111.1111111111,4,2,1,70,0,0
35186,-133.3333333333,4,2,1,70,0,0
44497,-117.647058823529,4,2,1,70,0,0
47600,-117.647058823529,4,2,1,70,0,0
50359,-90.90909090909,4,2,1,80,0,1
61048,-90.90909090909,4,2,1,80,0,0
61393,-90.90909090909,4,2,1,80,0,1
69324,-90.90909090909,4,2,1,80,0,0
69669,-90.90909090909,4,2,1,80,0,1
79324,-90.90909090909,4,2,1,80,0,0
79841,-133.3333333333,4,2,1,60,0,0
80704,-100,4,2,1,80,0,0
94324,-125,4,2,1,80,0,0
94669,-125,4,2,1,60,0,0

[Colours]
Combo1 : 98,176,255
Combo2 : 248,211,88
Combo3 : 255,190,125
Combo4 : 199,141,141

[HitObjects]
128,96,704,5,2,0:0:0:0:
128,96,1048,1,2,0:0:0:0:
256,316,1393,1,0,0:0:0:0:
256,120,1566,1,0,0:0:0:0:
104,268,1738,1,0,0:0:0:0:
256,316,1910,1,0,0:0:0:0:
72,189,2083,6,0,P|20:257|56:336,1,180,4|8,0:1|0:0,0:0:0:0:
256,316,2600,2,0,P|272:260|260:208,1,90,0|0,0:0|0:0,0:0:0:0:
160,360,2945,1,0,0:0:0:0:
343,378,3117,2,0,P|406:369|444:368,1,90,8|0,0:0|0:0,0:0:0:0:
512,220,3462,6,0,P|404:196|316:192,1,180,2|8,0:0|0:0,0:0:0:0:
192,152,3979,2,0,P|285:92|366:58,1,180,2|0,0:0|0:0,0:0:0:0:
507,131,4497,2,0,P|516:175|512:220,1,90,10|0,0:0|0:0,0:0:0:0:
338,349,4841,6,0,P|302:293|338:189,1,180,2|8,0:0|0:0,0:0:0:0:
456,56,5359,2,0,P|468:99|463:144,1,90,2|0,0:0|0:0,0:0:0:0:
328,112,5704,1,0,0:0:0:0:
204,176,5876,2,0,L|64:164,1,135,10|0,0:0|0:0,0:0:0:0:
32,188,6221,6,0,P|16:236|28:284,1,90,0|0,0:0|0:0,0:0:0:0:
216,296,6566,1,8,0:0:0:0:
104,240,6738,1,0,0:0:0:0:
246,95,6910,1,2,3:2:0:0:
304,207,7083,1,0,3:0:0:0:
122,116,7255,2,0,P|120:72|140:24,1,90,0|0,3:0|0:0,0:0:0:0:
320,16,7600,5,4,0:1:0:0:
352,120,7772,1,0,0:0:0:0:
246,95,7945,1,0,0:0:0:0:
458,145,8117,5,8,0:0:0:0:
384,225,8289,1,0,0:0:0:0:
352,120,8462,1,0,0:0:0:0:
416,330,8635,5,8,0:0:0:0:
201,279,8807,2,0,P|187:231|219:167,1,99.0000030212403,8|0,0:0|0:0,0:0:0:0:
458,145,9152,5,0,0:0:0:0:
272,236,9324,1,8,0:0:0:0:
286,29,9497,1,0,0:0:0:0:
350,195,9669,2,0,L|202:186,1,148.50000453186,8|0,0:0|0:0,0:0:0:0:
152,132,10014,2,0,P|145:102|144:72,1,49.5000015106202,8|0,0:0|0:0,0:0:0:0:
302,25,10186,2,0,P|299:49|293:73,1,49.5000015106202,0|0,0:0|0:0,0:0:0:0:
64,44,10359,5,4,0:1:0:0:
152,132,10531,1,0,0:0:0:0:
184,11,10704,1,0,0:0:0:0:
32,165,10876,5,8,0:0:0:0:
120,253,11048,1,0,0:0:0:0:
152,132,11221,1,0,0:0:0:0:
0,286,11393,5,8,0:0:0:0:
240,220,11566,1,8,0:0:0:0:
240,220,11910,5,8,0:0:0:0:
8,152,12083,1,8,0:0:0:0:
66,384,12255,1,8,0:0:0:0:
284,281,12428,2,0,P|332:268|404:268,1,99.0000030212403,8|0,0:0|0:0,0:0:0:0:
400,268,12686,1,0,3:0:0:0:
418,274,12772,1,0,3:0:0:0:
504,224,12945,1,0,0:0:0:0:
360,132,13117,5,4,0:1:0:0:
496,16,13290,2,0,P|504:59|487:109,1,72,0|8,0:0|0:0,0:0:0:0:
444,160,13635,1,0,0:0:0:0:
343,46,13807,2,0,L|428:36,1,72,0|0,0:0|0:0,0:0:0:0:
376,220,14152,1,8,0:0:0:0:
276,104,14324,6,0,P|204:80|132:112,1,144,0|0,0:0|0:0,0:0:0:0:
68,164,14841,2,0,P|48:128|48:84,1,72,8|0,0:0|0:0,0:0:0:0:
158,198,15186,1,0,0:0:0:0:
83,259,15359,2,0,P|40:256|0:256,2,72,0|8|0,0:0|0:0|0:0,0:0:0:0:
260,268,15876,5,0,0:0:0:0:
158,198,16048,1,0,0:0:0:0:
236,364,16221,2,0,P|272:352|334:340,1,72,8|0,0:0|0:0,0:0:0:0:
444,376,16566,1,0,0:0:0:0:
496,252,16738,1,0,0:0:0:0:
360,156,16910,2,0,P|352:200|356:232,1,72,8|0,0:0|0:0,0:0:0:0:
374,343,17255,1,0,0:0:0:0:
236,364,17428,2,0,P|176:340|96:344,1,144,0|0,0:0|0:0,0:0:0:0:
68,164,17945,5,0,0:0:0:0:
176,204,18117,1,0,0:0:0:0:
20,252,18290,1,8,0:0:0:0:
224,116,18462,1,8,0:0:0:0:
68,164,18635,5,0,0:0:0:0:
176,204,18807,2,0,L|256:200,1,72,0|8,0:0|0:0,0:0:0:0:
384,152,19152,1,0,0:0:0:0:
392,276,19324,1,0,0:0:0:0:
397,141,19497,1,0,0:0:0:0:
512,212,19669,1,8,0:0:0:0:
336,336,19841,6,0,P|312:292|352:204,1,144,0|0,0:0|0:0,0:0:0:0:
480,136,20359,1,8,0:0:0:0:
416,32,20531,1,0,0:0:0:0:
308,132,20704,2,0,P|256:140|224:140,2,72,0|0|8,0:0|0:0|0:0,0:0:0:0:
196,64,21221,1,0,0:0:0:0:
120,200,21393,5,0,0:0:0:0:
256,276,21566,1,0,0:0:0:0:
122,355,21738,1,8,0:0:0:0:
120,200,21910,2,0,L|118:116,1,72,0|0,0:0|0:0,0:0:0:0:
70,278,22255,1,0,0:0:0:0:
215,360,22428,2,0,L|299:358,1,72,8|0,0:0|0:0,0:0:0:0:
384,200,22772,5,0,0:0:0:0:
256,276,22945,1,0,0:0:0:0:
368,196,23117,1,8,0:0:0:0:
264,260,23290,1,0,3:0:0:0:
400,340,23462,5,0,3:0:0:0:
416,268,23635,1,0,3:0:0:0:
346,291,23807,1,0,3:0:0:0:
512,272,23979,1,0,0:0:0:0:
380,96,24152,6,0,L|204:104,1,161.999995056153,4|8,0:1|0:0,0:0:0:0:
112,251,24669,1,0,0:0:0:0:
208,208,24841,1,0,0:0:0:0:
133,42,25014,1,0,0:0:0:0:
27,190,25186,1,8,0:0:0:0:
144,268,25359,6,0,B|204:252|204:252|312:260,1,161.999995056153,0|0,0:0|0:0,0:0:0:0:
376,200,25876,2,0,P|396:252|388:300,1,80.9999975280763,8|0,0:0|0:0,0:0:0:0:
312,124,26221,2,0,L|224:120,1,80.9999975280763,0|0,0:0|0:0,0:0:0:0:
400,80,26566,2,0,L|488:76,1,80.9999975280763,8|0,0:0|0:0,0:0:0:0:
280,24,26910,5,0,0:0:0:0:
280,24,27083,2,0,P|240:12|172:28,1,80.9999975280763,0|8,0:0|0:0,0:0:0:0:
48,108,27428,1,0,0:0:0:0:
164,188,27600,2,0,P|168:140|168:108,1,80.9999975280763,0|0,0:0|0:0,0:0:0:0:
36,248,27945,2,0,P|32:296|32:328,1,80.9999975280763,8|0,0:0|0:0,0:0:0:0:
152,328,28290,5,0,0:0:0:0:
240,216,28462,1,0,0:0:0:0:
380,356,28635,2,0,B|388:316|388:316|380:268,1,80.9999975280763,8|0,0:0|0:0,0:0:0:0:
420,116,28979,2,0,B|412:156|412:156|420:204,1,80.9999975280763,0|0,0:0|0:0,0:0:0:0:
292,284,29324,1,8,0:0:0:0:
470,268,29497,1,8,0:0:0:0:
240,216,29669,5,0,0:0:0:0:
244,356,29841,1,0,0:0:0:0:
325,205,30014,1,8,0:0:0:0:
155,227,30186,1,0,0:0:0:0:
292,284,30359,5,0,0:0:0:0:
188,150,30531,1,0,0:0:0:0:
123,307,30704,1,8,0:0:0:0:
325,205,30876,2,0,P|368:244|348:348,1,161.999995056153,0|0,0:0|0:0,0:0:0:0:
244,356,31393,6,0,P|199:351|159:351,1,80.9999975280763,8|0,0:0|0:0,0:0:0:0:
155,227,31738,2,0,P|195:226|235:222,1,80.9999975280763,0|0,0:0|0:0,0:0:0:0:
60,279,32083,1,8,0:0:0:0:
62,170,32255,1,0,0:0:0:0:
252,88,32428,6,0,P|364:96|416:96,1,161.999995056153,4|8,0:1|0:0,0:0:0:0:
221,287,33117,2,0,P|109:279|57:279,1,161.999995056153,4|8,0:1|0:0,0:0:0:0:
192,200,33635,1,0,0:0:0:0:
254,383,33807,5,4,0:1:0:0:
349,310,33979,1,0,0:0:0:0:
192,200,34152,1,8,0:0:0:0:
157,315,34324,1,0,0:0:0:0:
310,197,34497,1,8,0:0:0:0:
112,240,34669,5,0,0:0:0:0:
349,310,34841,1,8,0:0:0:0:
349,310,35186,6,0,P|376:248|384:160,1,135.000005149842,4|0,0:1|0:0,0:0:0:0:
236,72,35704,2,0,P|245:138|272:200,1,135.000005149842,8|0,0:2|0:0,0:0:0:0:
349,310,36221,2,0,P|392:304|424:304,2,67.5000025749208,8|0|0,0:0|0:0|0:0,0:0:0:0:
136,348,36738,1,8,0:0:0:0:
220,352,36910,2,0,P|204:296|176:272,1,67.5000025749208,0|0,0:0|0:0,0:0:0:0:
52,252,37255,2,0,P|108:266|143:253,1,67.5000025749208,8|0,0:0|0:0,0:0:0:0:
222,155,37601,1,8,0:0:0:0:
207,163,37687,1,0,0:0:0:0:
195,175,37773,1,0,0:0:0:0:
185,188,37859,1,0,0:0:0:0:
178,204,37945,6,0,P|238:192|322:192,1,135.000005149842,4|0,0:1|0:0,0:0:0:0:
404,312,38462,2,0,P|336:311|270:298,1,135.000005149842,8|0,0:0|0:0,0:0:0:0:
420,228,38979,2,0,P|456:240|480:268,2,67.5000025749208,8|0|0,0:0|0:0|0:0,0:0:0:0:
270,298,39497,5,8,0:0:0:0:
311,190,39669,1,4,0:1:0:0:
262,83,39841,1,0,0:0:0:0:
160,144,40014,2,0,P|120:152|88:152,1,67.5000025749208,8|0,0:0|0:0,0:0:0:0:
244,198,40359,2,0,P|284:190|316:190,1,67.5000025749208,0|0,0:0|0:0,0:0:0:0:
452,296,40704,6,0,L|455:161,1,135.000005149842,4|8,0:1|0:0,0:0:0:0:
400,88,41221,2,0,P|376:112|364:148,1,67.5000025749208,0|0,0:0|0:0,0:0:0:0:
376,232,41566,1,0,0:0:0:0:
452,296,41738,2,0,P|488:288|520:288,1,67.5000025749208,8|0,0:0|0:0,0:0:0:0:
283,266,42083,5,4,0:1:0:0:
140,380,42255,2,0,P|136:344|136:304,1,67.5000025749208,0|8,0:0|0:0,0:0:0:0:
207,202,42600,1,0,0:0:0:0:
266,364,42772,1,0,0:0:0:0:
376,232,42945,1,0,0:0:0:0:
190,300,43117,1,8,0:0:0:0:
370,384,43290,1,8,0:0:0:0:
207,202,43462,5,4,0:1:0:0:
207,202,44497,6,0,L|68:192,1,114.750002188683,8|0,0:0|0:0,0:0:0:0:
52,192,44841,1,8,0:0:0:0:
52,192,45704,5,4,0:1:0:0:
207,202,45876,2,0,L|346:192,1,114.750002188683,8|0,0:0|0:0,0:0:0:0:
398,188,46221,6,0,P|404:147|401:111,1,76.5000014591217,4|0,0:1|0:0,0:0:0:0:
435,273,46566,2,0,P|467:298|499:314,1,76.5000014591217,0|0,0:0|0:0,0:0:0:0:
342,262,46910,2,0,P|303:276|274:297,1,76.5000014591217,8|0,0:0|0:0,0:0:0:0:
491,196,47255,1,0,0:0:0:0:
401,111,47428,1,0,0:0:0:0:
212,200,47600,6,0,P|189:130|229:58,1,153.000002918243,4|8,0:1|0:0,0:0:0:0:
289,138,48117,1,0,0:0:0:0:
405,14,48290,1,8,0:0:0:0:
223,62,48462,1,0,0:0:0:0:
355,214,48635,1,8,0:0:0:0:
405,14,48807,1,0,0:0:0:0:
191,158,48979,5,8,0:0:0:0:
424,104,49152,1,8,0:0:0:0:
354,332,49324,1,8,0:0:0:0:
223,62,49497,1,8,0:0:0:0:
223,62,50186,5,0,0:0:0:0:
1,157,50359,6,0,B|41:180|89:156|89:156|137:132|187:156,1,198.000006042481,4|8,0:1|0:0,0:0:0:0:
266,224,50876,1,0,0:0:0:0:
223,62,51048,2,0,P|288:134|253:238,1,198.000006042481,0|8,0:0|0:0,0:0:0:0:
136,248,51566,1,0,0:0:0:0:
304,344,51738,6,0,P|360:328|400:328,1,99.0000030212403,0|0,0:0|0:0,0:0:0:0:
440,160,52083,1,8,0:0:0:0:
266,224,52255,1,0,0:0:0:0:
304,344,52428,1,0,0:0:0:0:
336,152,52600,1,0,0:0:0:0:
157,218,52772,1,8,0:0:0:0:
363,254,52945,1,0,0:0:0:0:
144,216,53117,6,0,B|88:272|112:352|112:352|144:344|168:304,1,198.000006042481,4|8,0:1|0:0,0:0:0:0:
208,144,53635,2,0,B|187:67|106:48|106:48|97:80|119:120,1,198.000006042481,0|0,0:0|0:0,0:0:0:0:
238,235,54152,1,8,0:0:0:0:
238,235,54324,1,0,0:0:0:0:
375,143,54497,6,0,P|291:98|207:143,1,198.000006042481,0|8,0:0|0:0,0:0:0:0:
344,240,55014,1,0,0:0:0:0:
344,240,55186,2,0,P|394:245|452:209,1,99.0000030212403
238,235,55531,1,8,0:0:0:0:
392,328,55704,1,8,0:0:0:0:
160,372,55876,6,0,B|131:329|159:283|159:283|128:226|169:172,1,198.000006042481,4|8,0:1|0:0,0:0:0:0:
316,79,56393,1,0,0:0:0:0:
264,168,56566,2,0,L|68:148,1,198.000006042481,0|8,0:0|0:0,0:0:0:0:
176,56,57083,1,0,0:0:0:0:
264,168,57255,6,0,P|356:176|412:72,1,198.000006042481,0|8,0:0|0:0,0:0:0:0:
512,220,57772,2,0,P|464:234|415:238,1,99.0000030212403
316,79,58117,2,0,P|368:83|416:99,1,99.0000030212403,0|8,0:0|0:0,0:0:0:0:
415,238,58462,1,0,0:0:0:0:
200,360,58635,5,4,0:1:0:0:
200,360,58807,1,0,0:0:0:0:
152,176,58979,1,8,0:0:0:0:
152,176,59151,1,0,0:0:0:0:
336,128,59324,1,8,0:0:0:0:
336,128,59496,1,0,0:0:0:0:
384,312,59668,1,8,0:0:0:0:
384,312,59841,1,0,0:0:0:0:
144,296,60014,5,8,0:0:0:0:
248,180,60186,1,0,0:0:0:0:
297,329,60359,1,8,0:0:0:0:
297,329,60445,1,0,0:0:0:0:
297,329,60531,1,0,0:0:0:0:
117,377,60704,1,8,0:0:0:0:
117,377,60790,1,0,0:0:0:0:
117,377,60876,1,0,0:0:0:0:
165,197,61048,1,8,0:0:0:0:
200,360,61221,1,0,0:0:0:0:
380,348,61393,6,0,B|436:336|488:356|488:356|504:304|468:248,1,198.000006042481,4|8,0:1|0:0,0:0:0:0:
364,112,61910,1,0,0:0:0:0:
312,212,62083,2,0,L|512:196,1,198.000006042481,0|8,0:0|0:0,0:0:0:0:
416,40,62600,1,0,0:0:0:0:
280,132,62772,6,0,P|228:128|188:104,1,99.0000030212403
4,72,63117,1,8,0:0:0:0:
16,248,63290,2,0,P|68:248|110:228,1,99.0000030212403
280,132,63635,1,0,0:0:0:0:
212,260,63807,1,8,0:0:0:0:
212,76,63979,1,0,0:0:0:0:
212,276,64152,6,0,B|224:324|280:344|280:344|332:328|356:272,1,198.000006042481,4|8,0:1|0:0,0:0:0:0:
504,200,64669,2,0,B|492:152|436:132|436:132|384:148|360:204,1,198.000006042481,0|0,0:0|0:0,0:0:0:0:
436,348,65186,2,0,P|444:292|432:244,1,99.0000030212403,8|0,0:0|0:0,0:0:0:0:
280,132,65531,6,0,B|224:108|224:108|64:124,1,198.000006042481,0|8,0:0|0:0,0:0:0:0:
4,204,66048,1,0,0:0:0:0:
108,335,66221,2,0,P|120:283|120:228,1,99.0000030212403,0|0,0:0|0:0,0:0:0:0:
76,32,66566,1,8,0:0:0:0:
0,188,66738,1,8,0:0:0:0:
192,288,66910,6,0,B|240:264|288:288|288:288|336:312|392:280,1,198.000006042481,4|8,0:1|0:0,0:0:0:0:
416,104,67428,1,0,0:0:0:0:
496,184,67600,2,0,P|408:216|312:152,1,198.000006042481,0|8,0:0|0:0,0:0:0:0:
216,16,68117,6,0,P|200:72|224:128,1,99.0000030212403,0|0,0:0|0:0,0:0:0:0:
416,104,68462,1,0,0:0:0:0:
288,64,68635,1,8,0:0:0:0:
208,216,68807,2,0,P|152:200|112:64,1,198.000006042481,0|0,0:0|0:0,0:0:0:0:
8,176,69324,2,0,P|0:232|8:280,1,99.0000030212403,8|0,0:0|0:0,0:0:0:0:
184,376,69669,5,4,0:1:0:0:
208,216,69841,1,0,0:0:0:0:
352,360,70014,1,8,0:0:0:0:
176,344,70186,1,0,0:0:0:0:
384,232,70359,5,8,0:0:0:0:
207,85,70531,1,0,0:0:0:0:
168,312,70704,1,8,0:0:0:0:
316,135,70876,1,0,0:0:0:0:
80,216,71048,5,8,0:0:0:0:
352,232,71221,1,0,0:0:0:0:
128,296,71393,5,8,0:0:0:0:
336,248,71566,1,0,0:0:0:0:
72,376,71738,6,0,P|40:344|32:272,1,99.0000030212403,8|0,0:0|0:0,0:0:0:0:
176,80,72083,2,0,P|187:123|158:190,1,99.0000030212403,8|0,0:0|0:0,0:0:0:0:
312,32,72428,6,0,L|416:24,1,99.0000030212403,4|0,0:1|0:0,0:0:0:0:
472,264,72772,1,8,0:0:0:0:
361,105,72945,1,0,0:0:0:0:
280,280,73117,5,8,0:0:0:0:
465,95,73290,1,0,0:0:0:0:
258,114,73462,1,8,0:0:0:0:
372,232,73635,1,0,0:0:0:0:
180,248,73807,5,8,0:0:0:0:
328,344,73979,1,0,0:0:0:0:
120,320,74152,2,0,P|72:312|16:312,1,99.0000030212403,8|0,0:0|0:0,0:0:0:0:
288,256,74497,2,0,P|336:248|392:248,1,99.0000030212403,8|0,0:0|0:0,0:0:0:0:
152,240,74841,5,8,0:0:0:0:
133,208,74927,1,0,0:0:0:0:
127,171,75013,1,0,0:0:0:0:
136,136,75099,1,0,0:0:0:0:
158,105,75186,5,4,0:1:0:0:
336,149,75359,1,0,0:0:0:0:
133,208,75531,1,8,0:0:0:0:
361,251,75704,1,0,0:0:0:0:
259,76,75876,5,8,0:0:0:0:
248,288,76048,1,0,0:0:0:0:
438,192,76221,1,8,0:0:0:0:
226,181,76393,1,0,0:0:0:0:
425,83,76566,5,8,0:0:0:0:
400,320,76738,1,0,0:0:0:0:
248,192,76910,1,8,0:0:0:0:
416,208,77083,1,0,0:0:0:0:
160,336,77255,6,0,P|148:284|168:228,1,99.0000030212403,8|0,0:0|0:0,0:0:0:0:
324,44,77600,2,0,P|336:96|316:152,1,99.0000030212403,8|0,0:0|0:0,0:0:0:0:
88,212,77945,6,0,P|208:200|296:200,1,198.000006042481,4|8,0:1|0:0,0:0:0:0:
384,304,78462,1,0,0:0:0:0:
425,83,78635,1,8,0:0:0:0:
214,158,78807,1,0,0:0:0:0:
453,202,78979,1,8,0:0:0:0:
320,124,79152,1,0,0:0:0:0:
256,368,79324,5,4,0:1:0:0:
256,368,79841,1,0,3:0:0:0:
256,368,79928,1,0,3:0:0:0:
256,368,80014,2,0,L|180:360,1,67.5000025749208,0|0,3:0|0:0,0:0:0:0:
148,248,80359,1,0,0:0:0:0:
61,326,80531,2,0,L|64:360,1,33.7500012874604,0|0,0:0|0:0,0:0:0:0:
80,200,80704,6,0,P|160:165|228:224,1,180,4|8,0:1|0:0,0:0:0:0:
256,368,81221,2,0,P|296:344|348:348,1,90,2|0,0:0|0:0,0:0:0:0:
454,252,81566,2,0,P|414:276|362:272,1,90,2|8,0:0|0:0,0:0:0:0:
203,311,81910,6,0,P|283:271|372:276,1,180,2|0,0:0|0:0,0:0:0:0:
484,180,82428,2,0,B|492:136|492:136|484:88,1,90,10|0,0:0|0:0,0:0:0:0:
364,8,82772,2,0,B|364:100,1,90,2|0,0:0|0:0,0:0:0:0:
240,184,83117,2,0,B|232:140|232:140|240:92,1,90,10|0,0:0|0:0,0:0:0:0:
288,44,83376,1,0,0:0:0:0:
288,44,83462,6,0,L|80:56,1,180,4|8,0:1|0:0,0:0:0:0:
24,172,83979,2,0,P|8:216|8:272,1,90,2|0,0:0|0:0,0:0:0:0:
144,356,84324,2,0,P|160:312|160:256,1,90,2|8,0:0|0:0,0:0:0:0:
8,164,84669,6,0,P|56:132|176:160,1,180,2|0,0:0|0:0,0:0:0:0:
256,316,85186,1,10,0:0:0:0:
276,152,85359,1,0,0:0:0:0:
340,328,85531,1,2,0:0:0:0:
360,164,85704,1,0,0:0:0:0:
424,340,85876,5,10,0:0:0:0:
382,334,85962,1,0,0:0:0:0:
340,328,86049,1,0,0:0:0:0:
298,322,86135,1,0,0:0:0:0:
256,316,86221,6,0,B|220:308|188:320|188:320|156:332|116:320|116:320|136:308|160:304,1,180,4|8,0:1|0:0,0:0:0:0:
310,246,86738,2,0,P|335:283|340:328,1,90,2|0,0:0|0:0,0:0:0:0:
216,212,87083,2,0,P|171:215|130:197,1,90,2|8,0:0|0:0,0:0:0:0:
293,147,87428,1,2,0:0:0:0:
293,147,87514,1,0,0:0:0:0:
293,147,87600,6,0,L|420:140,1,90,0|0,0:0|0:0,0:0:0:0:
236,64,87945,2,0,L|109:57,1,90,10|0,0:0|0:0,0:0:0:0:
20,184,88290,2,0,P|8:232|20:280,1,90,2|0,0:0|0:0,0:0:0:0:
220,340,88635,2,0,P|232:292|220:244,1,90,10|0,0:0|0:0,0:0:0:0:
176,196,88893,1,0,0:0:0:0:
176,196,88979,6,0,B|236:208|236:208|356:192,1,180,4|8,0:1|0:0,0:0:0:0:
468,348,89497,2,0,L|369:336,1,90,4|0,0:1|0:0,0:0:0:0:
353,192,89841,2,0,L|452:180,1,90,4|8,0:1|0:0,0:0:0:0:
328,273,90186,6,0,P|270:210|296:128,1,180,4|0,0:1|0:0,0:0:0:0:
420,60,90704,2,0,P|472:48|520:48,1,90,10|0,0:0|0:0,0:0:0:0:
344,76,91048,2,0,P|299:73|255:63,1,90,10|0,0:0|0:0,0:0:0:0:
396,132,91393,1,10,0:0:0:0:
192,184,91566,1,0,0:0:0:0:
192,184,91652,1,0,0:0:0:0:
192,184,91738,6,0,B|152:120|180:60|180:60|212:68|224:104,1,180,4|8,0:1|0:0,0:0:0:0:
96,176,92255,2,0,P|52:164|4:160,1,90,4|0,0:1|0:0,0:0:0:0:
128,288,92600,2,0,P|172:276|220:272,1,90,4|8,0:1|0:0,0:0:0:0:
360,300,92945,2,0,P|368:320|376:352,1,45,4|0,0:1|0:0,0:0:0:0:
312,204,93117,5,8,0:0:0:0:
488,176,93290,1,0,0:0:0:0:
276,120,93462,1,8,0:0:0:0:
500,84,93635,1,0,0:0:0:0:
284,228,93807,5,8,0:0:0:0:
405,76,93979,1,0,0:0:0:0:
476,256,94152,1,8,0:0:0:0:
224,304,94324,6,0,B|184:300|184:300|124:312|124:312|80:308,1,144,4|0,0:1|0:0,0:0:0:0:
0,300,94841,1,0,0:0:0:0:
4,292,95186,1,0,0:0:0:0:
8,284,95531,1,0,0:0:0:0:
84,132,95876,5,10,0:0:0:0:
88,144,96221,1,0,0:0:0:0:
156,224,96393,1,0,0:0:0:0:
224,304,96566,5,10,0:0:0:0:
228,292,96911,1,0,0:0:0:0:
276,196,97083,2,0,L|264:152,1,36,0|0,0:0|0:0,0:0:0:0:
248,92,97255,5,10,0:0:0:0:
244,80,97600,1,0,0:0:0:0:
240,68,97945,1,0,0:0:0:0:
420,144,98117,5,10,0:0:0:0:
276,196,98289,1,0,0:0:0:0:
508,208,98462,1,4,0:1:0:0:
256,192,98548,12,0,99669,0:0:0:0:
508,208,100014,5,4,0:1:0:0:
276,196,100186,1,4,0:1:0:0:
