osu file format v14

[General]
AudioFilename: Oscar Roa - Pokemon - Atrapalos Ya!.mp3
AudioLeadIn: 0
PreviewTime: 33400
Countdown: 0
SampleSet: Soft
StackLeniency: 0.3
Mode: 0
LetterboxInBreaks: 0
WidescreenStoryboard: 1

[Editor]
Bookmarks: 1020,65572
DistanceSpacing: 1.1
BeatDivisor: 4
GridSize: 4
TimelineZoom: 1

[Metadata]
Title:Pokemon - Atrapalos Ya!
TitleUnicode:Pokémon - ¡Atrápalos Ya!
Artist:Oscar Roa
ArtistUnicode:Óscar Roa
Creator:Gero
Version:Intermedio!
Source:Pokémon
Tags:Pocket Monster ポケットモンスター Pokemon: Gotta catch 'em all! them now Season 1 The Indigo League Sekiei セキエイリーグ Pikachu ピカチュウ Bulbasaur Fushigidane フシギダネ Charmander Hitokage ヒトカゲ Ash Ketchum Satoshi サトシ Brock Takeshi タケシ Misty Kasumi カスミ
BeatmapID:1172897
BeatmapSetID:553959

[Difficulty]
HPDrainRate:4
CircleSize:4
OverallDifficulty:4
ApproachRate:5
SliderMultiplier:1.2
SliderTickRate:2

[Events]
//Background and Video events
0,0,"Fondo.jpg",0,0
Video,3800,"Video.avi"
//Break Periods
//Storyboard Layer 0 (Background)
//Storyboard Layer 1 (Fail)
//Storyboard Layer 2 (Pass)
//Storyboard Layer 3 (Foreground)
//Storyboard Sound Samples

[TimingPoints]
1021,413.793103448276,4,2,1,60,1,0
7434,-100,4,2,1,50,0,0
20676,-100,4,2,1,60,0,0
32676,-100,4,2,1,40,0,0
33089,-100,4,2,1,50,0,0
33503,-100,4,2,1,60,0,0
33917,-100,4,2,1,70,0,0
34124,-100,4,2,1,80,0,1
40641,-100,4,2,1,80,0,0
40745,-100,4,2,1,80,0,1
47055,-100,4,2,1,80,0,0
47158,-100,4,2,1,80,0,1
53883,-100,4,2,1,80,0,0
53986,-100,4,2,1,80,0,1
57193,-100,4,2,1,80,0,0
57296,-100,4,2,1,80,0,1
59158,-100,4,2,1,40,0,1
59572,-100,4,2,1,50,0,1
59986,-100,4,2,1,60,0,1
60400,-100,4,2,1,70,0,1
60503,-100,4,2,1,80,0,0
60607,-100,4,2,1,70,0,1
60710,-100,4,2,1,70,0,0
61434,-100,4,2,1,60,0,0
62262,-100,4,2,1,50,0,0
63193,-100,4,2,2,60,0,0
63503,-100,4,2,2,50,0,0
63917,-100,4,2,2,40,0,0
64331,-100,4,2,2,30,0,0
64745,-100,4,2,2,20,0,0
65158,-100,4,2,2,10,0,0
65572,-100,4,2,2,5,0,0

[Colours]
Combo1 : 182,160,120
Combo2 : 255,83,83
Combo3 : 228,206,82
Combo4 : 90,157,197
Combo5 : 242,123,72
Combo6 : 163,183,115
SliderBorder : 255,0,0
SliderTrackOverride : 193,193,193

[HitObjects]
104,244,1020,6,0,B|144:172|220:172|220:172|256:172|256:172|292:172|292:172|368:172|408:244,1,360,2|0,0:0|0:0,0:0:0:0:
448,296,2469,2,0,P|422:244|448:192,1,120,2|2,0:0|0:0,0:0:0:0:
494,145,3089,1,2,0:0:0:0:
400,51,3503,2,0,B|372:62|372:62|344:51,1,60,2|0,0:0|0:0,0:0:0:0:
284,76,3917,2,0,B|256:65|256:65|228:76,1,60,2|0,0:0|0:0,0:0:0:0:
168,51,4331,5,2,0:0:0:0:
74,144,4745,2,0,P|46:153|18:144,2,60,8|8|8,1:2|1:2|1:2,0:0:0:0:
120,192,5365,2,0,P|148:183|176:192,1,60,4|4,3:0|3:0,0:0:0:0:
223,145,5779,2,0,L|182:257,1,120,4|4,3:0|3:0,0:0:0:0:
135,304,6400,2,0,B|167:304|167:304|215:304|240:344,1,120,4|4,3:0|3:0,0:0:0:0:
281,292,7021,2,0,B|309:281|309:281|337:292,1,60,8|8,1:2|1:2,0:0:0:0:
377,344,7434,6,0,P|351:292|377:240,1,120,4|0,0:0|0:0,0:0:0:0:
424,192,8055,1,2,0:0:0:0:
308,128,8469,2,0,B|256:158|256:158|204:128,1,120,2|2,0:3|0:0,0:0:0:0:
157,81,9089,1,0,0:0:0:0:
110,127,9296,2,0,B|146:151|146:191|146:191|146:234,1,120,2|2,0:3|0:0,0:0:0:0:
192,281,9917,1,0,0:0:0:0:
256,164,10331,2,0,L|256:104,2,60,4|2|4,3:0|0:0|0:0,0:0:0:0:
224,220,10952,6,0,B|224:252|256:266|256:266|288:252|288:220,1,120,2|2,0:3|0:0,0:0:0:0:
381,126,11779,2,0,B|409:115|409:115|437:126,1,60,2|0,0:3|0:0,0:0:0:0:
483,172,12193,1,2,0:0:0:0:
389,265,12607,2,0,L|304:349,1,120,2|2,0:3|0:0,0:0:0:0:
256,304,13227,2,0,B|220:304|220:304|176:304|150:344,1,120,4|4,0:0|0:0,0:0:0:0:
103,297,13848,2,0,P|94:269|103:241,1,60,2|0,0:0|0:0,0:0:0:0:
150,193,14262,5,4,0:0:0:0:
256,112,14676,2,0,B|288:112|288:112|307:92,1,60,2|0,0:0|0:0,0:0:0:0:
352,40,15089,2,0,P|326:92|352:144,1,120,2|2,0:3|0:0,0:0:0:0:
398,190,15710,2,0,P|424:242|398:294,1,120,0|0,0:0|0:0,0:0:0:0:
351,340,16331,1,2,0:0:0:0:
304,293,16538,2,0,L|141:369,1,180,0|2,0:0|0:0,0:0:0:0:
94,322,17365,1,0,0:0:0:0:
140,275,17572,6,0,B|140:223|140:223|148:207|148:207|148:156,1,120,4|2,0:0|0:3,0:0:0:0:
96,115,18193,2,0,P|148:89|200:115,1,120,4|2,0:0|0:3,0:0:0:0:
256,76,18814,2,0,P|308:102|360:76,1,120,4|0,0:0|0:0,0:0:0:0:
424,192,19641,1,0,0:0:0:0:
359,307,20055,2,0,B|331:318|331:318|303:307,2,60,2|4|8,0:3|3:0|1:2,0:0:0:0:
396,362,20676,6,0,B|396:328|376:307|376:307|396:286|396:252,1,120,4|0,0:0|0:0,0:0:0:0:
360,196,21296,2,0,P|332:187|304:196,1,60,8|0,1:2|0:0,0:0:0:0:
256,244,21710,2,0,P|287:196|256:148,1,120,2|12,0:3|3:0,0:0:0:0:
209,101,22331,1,12,3:0:0:0:
256,52,22538,2,0,B|316:52|316:52|358:94,1,120,2|8,0:3|1:2,0:0:0:0:
405,47,23158,2,0,L|489:131,1,120,0|12,0:0|3:0,0:0:0:0:
460,192,23779,2,0,B|449:220|449:220|460:248,1,60,4|4,3:0|0:0,0:0:0:0:
413,294,24193,6,0,B|413:326|381:340|381:340|349:326|349:294,1,120,2|8,0:3|1:2,0:0:0:0:
256,192,25021,1,2,0:3:0:0:
163,293,25434,2,0,B|131:293|131:293|112:313,1,60,12|12,3:0|3:0,0:0:0:0:
67,365,25848,2,0,P|93:313|67:261,1,120,0|8,0:0|1:2,0:0:0:0:
20,214,26469,2,0,L|77:196,1,60,4|0,0:0|0:0,0:0:0:0:
87,131,26883,2,0,L|201:167,1,120,4|12,0:0|3:0,0:0:0:0:
256,132,27503,6,0,B|284:121|284:121|312:132,1,60,4|0,0:0|0:0,0:0:0:0:
358,178,27917,2,0,B|386:189|386:189|414:178,1,60,8|0,1:2|0:0,0:0:0:0:
458,126,28331,2,0,B|458:154|484:178|484:178|458:202|458:230,1,120,2|12,0:3|3:0,0:0:0:0:
340,284,29158,2,0,P|256:312|172:284,2,180,4|0|8,0:0|0:0|1:2,0:0:0:0:
360,217,30607,1,8,1:2:0:0:
340,150,30814,6,0,P|256:122|172:150,2,180,4|4|4,0:0|0:0|0:0,0:0:0:0:
224,312,32676,2,0,B|224:344|224:344|204:363,2,60,8|8|8,3:0|3:0|3:0,0:0:0:0:
256,256,33296,1,8,3:0:0:0:
288,312,33503,2,0,B|288:344|288:344|307:363,2,60,8|8|8,3:0|3:0|3:0,0:0:0:0:
256,256,34124,5,4,0:0:0:0:
196,136,34538,2,0,P|204:108|221:83,1,60,8|0,1:2|0:0,0:0:0:0:
290,82,34952,2,0,P|307:107|316:136,1,60,4|4,3:0|3:0,0:0:0:0:
256,164,35365,1,8,1:2:0:0:
288,312,35779,2,0,B|268:328|256:362|256:362|244:328|224:312,1,120,4|8,3:0|1:2,0:0:0:0:
177,265,36400,2,0,P|256:228|335:265,1,180,0|8,0:0|1:2,0:0:0:0:
444,192,37434,5,4,3:0:0:0:
334,119,37848,2,0,B|323:91|323:91|334:63,2,60,8|0|4,1:2|0:0|3:0,0:0:0:0:
286,164,38469,2,0,B|297:192|297:192|286:220,1,60,4|8,3:0|1:2,0:0:0:0:
256,280,38883,2,0,L|376:280,1,120,0|0,0:0|0:0,0:0:0:0:
422,326,39503,1,8,1:2:0:0:
468,279,39710,2,0,B|483:234|454:201|454:201|431:172,1,120,0|4,0:0|3:0,0:0:0:0:
384,125,40331,1,8,1:2:0:0:
430,78,40538,1,0,0:0:0:0:
383,31,40745,6,0,B|344:4|280:20|256:70|256:70|232:20|168:4|129:31,1,300,4|4,0:0|3:0,0:0:0:0:
82,78,41986,1,8,1:2:0:0:
175,171,42400,2,0,P|184:199|175:227,1,60,4|0,3:0|0:0,0:0:0:0:
127,274,42814,1,8,1:2:0:0:
173,320,43021,2,0,B|232:320|232:320|275:363,1,120,0|4,0:0|3:0,0:0:0:0:
320,316,43641,1,8,1:2:0:0:
413,221,44055,6,0,P|386:170|332:144,1,120,4|8,0:0|1:2,0:0:0:0:
288,192,44676,2,0,B|288:218|256:240|256:240|224:218|224:192,1,120,4|8,0:0|1:2,0:0:0:0:
179,144,45296,2,0,P|125:170|98:221,1,120,4|8,0:0|1:2,0:0:0:0:
192,316,46124,1,4,3:0:0:0:
256,340,46331,1,4,3:0:0:0:
320,316,46538,1,4,3:0:0:0:
256,200,46952,1,4,3:0:0:0:
220,144,47158,6,0,B|248:128|256:98|256:98|264:128|292:144,1,120,4|0,0:0|0:0,0:0:0:0:
336,192,47779,1,8,1:2:0:0:
381,144,47986,1,8,1:2:0:0:
426,192,48193,2,0,P|444:248|426:304,1,120,4|8,3:0|1:2,0:0:0:0:
380,352,48814,1,0,0:0:0:0:
335,304,49021,2,0,B|296:304|296:304|256:304|225:338,1,120,4|8,3:0|1:2,0:0:0:0:
174,379,49641,2,0,B|238:351|238:283|238:283|238:226,1,180,8|8,1:2|1:2,0:0:0:0:
331,132,50676,6,0,B|387:110|387:110|443:132,1,120,4|8,3:0|1:2,0:0:0:0:
472,192,51296,1,4,3:0:0:0:
443,252,51503,2,0,B|387:274|387:274|331:252,1,120,4|8,3:0|1:2,0:0:0:0:
302,192,52124,2,0,L|362:192,2,60,0|4|0,0:0|3:0|0:0,0:0:0:0:
256,144,52745,1,8,1:2:0:0:
210,192,52952,2,0,L|150:192,2,60,8|4|4,1:2|3:0|3:0,0:0:0:0:
256,240,53572,1,8,1:2:0:0:
320,356,53986,6,0,B|376:356|376:356|444:356|471:289,2,180,4|0|8,0:0|0:0|1:2,0:0:0:0:
256,336,55434,1,4,3:0:0:0:
192,356,55641,2,0,B|136:356|136:356|68:356|40:289,2,180,4|0|8,3:0|0:0|1:2,0:0:0:0:
256,336,57089,1,4,3:0:0:0:
320,356,57296,6,0,P|339:300|320:244,1,120,4|8,0:0|1:2,0:0:0:0:
304,180,57917,2,0,B|280:153|280:153|256:153|256:153|232:153|232:153|208:180,1,120,4|8,0:0|1:2,0:0:0:0:
191,244,58538,2,0,P|172:300|191:356,1,120,4|8,0:0|1:2,0:0:0:0:
256,336,59158,6,0,L|256:276,1,60,8|8,3:0|3:0,0:0:0:0:
256,208,59572,2,0,L|256:148,1,60,8|8,3:0|3:0,0:0:0:0:
302,101,59986,1,8,3:0:0:0:
400,192,60400,1,8,3:0:0:0:
446,145,60607,6,0,L|404:257,1,120,4|8,0:0|1:2,0:0:0:0:
448,308,61227,2,0,B|424:272|380:272|380:272|340:272,1,120,4|4,0:0|3:0,0:0:0:0:
280,300,61848,2,0,B|271:312|256:317|256:317|241:312|232:300,1,60,8|8,1:2|1:2,0:0:0:0:
172,272,62262,1,4,3:0:0:0:
256,172,62676,2,0,L|256:112,2,60,4|4|4,0:0|0:0|0:0,0:0:0:0:
256,192,63193,12,0,65572,0:0:0:0:
