osu file format v14

[General]
AudioFilename: Oscar Roa - Pokemon - Atrapalos Ya!.mp3
AudioLeadIn: 0
PreviewTime: 33400
Countdown: 0
SampleSet: Soft
StackLeniency: 0.3
Mode: 0
LetterboxInBreaks: 0
WidescreenStoryboard: 1

[Editor]
Bookmarks: 1020,65572
DistanceSpacing: 1.1
BeatDivisor: 4
GridSize: 4
TimelineZoom: 1

[Metadata]
Title:Pokemon - Atrapalos Ya!
TitleUnicode:Pokémon - ¡Atrápalos Ya!
Artist:Oscar Roa
ArtistUnicode:Óscar Roa
Creator:Gero
Version:Maestro!
Source:Pokémon
Tags:Pocket Monster ポケットモンスター Pokemon: Gotta catch 'em all! them now Season 1 The Indigo League Sekiei セキエイリーグ Pikachu ピカチュウ Bulbasaur Fushigidane フシギダネ Charmander Hitokage ヒトカゲ Ash Ketchum Satoshi サトシ Brock Takeshi タケシ Misty Kasumi カスミ
BeatmapID:1172898
BeatmapSetID:553959

[Difficulty]
HPDrainRate:6
CircleSize:4
OverallDifficulty:6
ApproachRate:8
SliderMultiplier:1.6
SliderTickRate:2

[Events]
//Background and Video events
0,0,"Fondo.jpg",0,0
Video,3800,"Video.avi"
//Break Periods
//Storyboard Layer 0 (Background)
//Storyboard Layer 1 (Fail)
//Storyboard Layer 2 (Pass)
//Storyboard Layer 3 (Foreground)
//Storyboard Sound Samples

[TimingPoints]
1021,413.793103448276,4,2,1,60,1,0
7434,-100,4,2,1,50,0,0
20676,-100,4,2,1,60,0,0
32676,-100,4,2,1,40,0,0
33089,-100,4,2,1,50,0,0
33503,-100,4,2,1,60,0,0
33917,-100,4,2,1,70,0,0
34124,-100,4,2,1,80,0,1
40641,-100,4,2,1,80,0,0
40745,-100,4,2,1,80,0,1
47055,-100,4,2,1,80,0,0
47158,-100,4,2,1,80,0,1
53883,-100,4,2,1,80,0,0
53986,-100,4,2,1,80,0,1
57193,-100,4,2,1,80,0,0
57296,-100,4,2,1,80,0,1
59158,-100,4,2,1,40,0,1
59572,-100,4,2,1,50,0,1
59986,-100,4,2,1,60,0,1
60400,-100,4,2,1,70,0,1
60503,-100,4,2,1,80,0,0
60607,-100,4,2,1,70,0,1
60710,-100,4,2,1,70,0,0
61434,-100,4,2,1,60,0,0
62262,-100,4,2,1,50,0,0
63710,-100,4,2,2,50,0,0
63917,-100,4,2,2,40,0,0
64331,-100,4,2,2,30,0,0
64745,-100,4,2,2,20,0,0
65158,-100,4,2,2,10,0,0
65572,-100,4,2,2,5,0,0

[Colours]
Combo1 : 182,160,120
Combo2 : 255,83,83
Combo3 : 228,206,82
Combo4 : 90,157,197
Combo5 : 242,123,72
Combo6 : 163,183,115
SliderBorder : 255,0,0
SliderTrackOverride : 193,193,193

[HitObjects]
436,264,1020,6,0,P|466:192|436:120,1,160,4|2,0:0|0:0,0:0:0:0:
373,57,1641,1,0,0:0:0:0:
310,120,1848,2,0,B|293:156|293:156|310:192,1,80,2|0,0:0|0:0,0:0:0:0:
256,260,2262,1,2,0:0:0:0:
202,192,2469,6,0,L|88:305,1,160,2|2,0:0|0:0,0:0:0:0:
26,242,3089,2,0,P|11:206|26:170,1,80,2|0,0:0|0:0,0:0:0:0:
87,34,3503,2,0,P|102:70|87:106,1,80,2|0,0:0|0:0,0:0:0:0:
26,169,3917,1,2,0:0:0:0:
86,106,4124,1,0,0:0:0:0:
147,169,4331,6,0,B|167:169|183:184|183:184|199:169|219:169,1,80,2|0,0:0|0:0,0:0:0:0:
281,106,4745,1,8,1:2:0:0:
288,96,4848,1,8,1:2:0:0:
296,86,4952,1,8,1:2:0:0:
304,76,5055,1,8,1:2:0:0:
312,66,5158,1,8,1:2:0:0:
374,128,5365,1,4,3:0:0:0:
436,65,5572,1,4,3:0:0:0:
374,128,5779,6,0,B|347:174|347:174|315:230|343:275,1,160,4|4,3:0|3:0,0:0:0:0:
384,352,6400,2,0,P|422:363|460:352,1,80,4|4,3:0|3:0,0:0:0:0:
419,275,6814,2,0,P|381:264|343:275,1,80,4|8,3:0|1:2,0:0:0:0:
343,274,7124,1,8,1:2:0:0:
343,274,7227,1,8,1:2:0:0:
384,352,7434,6,0,L|451:207,1,160,4|0,0:0|0:0,0:0:0:0:
512,144,8055,1,2,0:0:0:0:
449,81,8262,1,0,0:0:0:0:
386,143,8469,2,0,P|314:173|242:143,1,160,2|2,0:3|0:0,0:0:0:0:
179,205,9089,1,0,0:0:0:0:
241,267,9296,6,0,B|253:283|257:303|257:303|253:323|241:339,1,80,2|0,0:3|0:0,0:0:0:0:
161,303,9710,1,2,0:0:0:0:
161,303,9917,2,0,L|321:303,1,160,0|4,0:0|3:0,0:0:0:0:
383,365,10538,1,2,0:0:0:0:
445,302,10745,1,4,0:0:0:0:
382,239,10952,6,0,B|382:167|382:167|390:151|390:151|390:80,1,160,2|2,0:3|0:0,0:0:0:0:
327,18,11572,1,0,0:0:0:0:
390,80,11779,2,0,P|426:95|462:80,1,80,2|0,0:3|0:0,0:0:0:0:
327,142,12193,2,0,P|291:127|255:142,1,80,2|0,0:0|0:0,0:0:0:0:
180,192,12607,5,2,0:3:0:0:
105,142,12814,1,0,0:0:0:0:
164,208,13021,1,2,0:0:0:0:
89,158,13227,2,0,L|25:109,1,80,4|2,0:0|0:3,0:0:0:0:
150,95,13641,2,0,L|87:47,1,80,4|2,0:0|0:0,0:0:0:0:
213,32,14055,1,0,0:0:0:0:
213,32,14158,1,0,0:0:0:0:
213,32,14262,6,0,B|256:99|256:99|299:32,1,160,4|2,0:0|0:0,0:0:0:0:
361,95,14883,1,0,0:0:0:0:
299,158,15089,2,0,B|264:184|256:223|256:223|248:184|213:158,1,160,2|2,0:3|0:0,0:0:0:0:
150,95,15710,1,0,0:0:0:0:
299,158,15917,6,0,L|374:185,1,80,4|0,3:0|0:0,0:0:0:0:
213,158,16331,2,0,L|138:185,1,80,2|0,0:0|0:0,0:0:0:0:
180,284,16745,2,0,B|256:259|256:259|332:284,1,160,2|2,0:3|0:0,0:0:0:0:
394,346,17365,1,0,0:0:0:0:
292,272,17572,6,0,B|292:204|220:204|221:134,1,160,4|2,0:0|0:3,0:0:0:0:
220,272,18193,2,0,B|220:204|292:204|292:134,1,160,4|2,0:0|0:3,0:0:0:0:
164,204,18814,2,0,P|256:377|348:204,1,480,4|2,0:0|0:3,0:0:0:0:
220,272,20262,1,4,3:0:0:0:
256,192,20469,1,8,1:2:0:0:
292,272,20676,6,0,B|292:312|256:340|256:340|220:312|220:272,1,160,4|0,0:0|0:0,0:0:0:0:
256,192,21296,1,8,1:2:0:0:
220,112,21503,1,0,0:0:0:0:
220,112,21710,2,0,B|220:72|256:44|256:44|292:72|292:112,1,160,2|12,0:3|3:0,0:0:0:0:
364,60,22331,1,12,3:0:0:0:
436,113,22538,6,0,L|388:265,1,160,2|8,0:3|1:2,0:0:0:0:
444,336,23158,2,0,B|410:285|350:285|350:285|301:285,1,160,0|12,0:0|3:0,0:0:0:0:
256,360,23779,1,4,3:0:0:0:
256,360,23986,1,4,0:0:0:0:
210,285,24193,6,0,P|180:213|210:141,1,160,2|8,0:3|1:2,0:0:0:0:
256,213,24814,1,0,0:0:0:0:
302,141,25021,2,0,P|332:213|302:285,1,160,2|12,0:3|3:0,0:0:0:0:
256,213,25641,2,0,L|340:77,1,160,12|0,3:0|0:0,0:0:0:0:
402,14,26262,1,8,1:2:0:0:
464,76,26469,6,0,L|380:212,1,160,4|4,0:0|0:0,0:0:0:0:
476,200,27089,2,0,L|434:268,1,80,2|12,0:3|3:0,0:0:0:0:
425,276,27399,1,12,3:0:0:0:
416,284,27503,6,0,P|380:269|344:284,1,80,4|0,0:0|0:0,0:0:0:0:
300,360,27917,1,8,1:2:0:0:
256,284,28124,1,0,0:0:0:0:
211,360,28331,2,0,P|174:290|108:248,1,160,2|12,0:3|3:0,0:0:0:0:
176,192,28952,1,12,3:0:0:0:
244,248,29158,6,0,P|262:191|244:135,1,120,4|0,0:0|0:0,0:0:0:0:
218,102,29572,2,0,B|246:130|246:130|285:130,1,80,8|0,1:2|0:0,0:0:0:0:
287,130,29883,1,0,0:0:0:0:
287,130,29986,1,2,0:3:0:0:
348,68,30193,1,0,0:0:0:0:
411,130,30400,1,8,1:2:0:0:
348,192,30607,1,8,1:2:0:0:
348,192,30710,1,8,1:2:0:0:
348,192,30814,6,0,P|378:264|348:336,1,160,4|2,0:0|0:3,0:0:0:0:
164,336,31434,2,0,P|134:264|164:192,1,160,4|2,0:0|0:3,0:0:0:0:
292,264,32055,2,0,B|264:292|256:334|256:334|248:292|220:264,1,160,4|2,0:0|0:3,0:0:0:0:
256,192,32676,5,8,3:0:0:0:
292,264,32883,1,8,3:0:0:0:
256,168,33089,1,8,3:0:0:0:
220,264,33296,1,8,3:0:0:0:
256,144,33503,1,8,3:0:0:0:
292,264,33710,1,8,3:0:0:0:
256,120,33917,1,8,3:0:0:0:
202,323,34124,6,0,P|256:346|310:323,1,120,4|0,0:0|0:0,0:0:0:0:
341,292,34538,1,8,1:2:0:0:
404,354,34745,1,0,0:0:0:0:
404,354,34848,1,0,0:0:0:0:
404,354,34952,1,4,3:0:0:0:
466,292,35158,1,4,3:0:0:0:
404,230,35365,1,8,1:2:0:0:
404,230,35469,1,8,1:2:0:0:
404,230,35572,1,0,0:0:0:0:
466,168,35779,6,0,P|477:130|466:92,1,80,4|0,3:0|0:0,0:0:0:0:
403,30,36193,1,8,1:2:0:0:
340,93,36400,2,0,B|260:93|260:93|203:37,1,160,0|4,0:0|3:0,0:0:0:0:
140,99,37021,2,0,L|168:128,3,40,8|0|0|8,1:2|0:0|0:0|0:0,0:0:0:0:
198,159,37434,6,0,B|138:159|138:159|95:202,1,120,4|0,3:0|0:0,0:0:0:0:
64,233,37848,1,8,1:2:0:0:
1,296,38055,1,0,0:0:0:0:
63,359,38262,2,0,B|103:359|103:359|131:331,1,80,4|4,3:0|3:0,0:0:0:0:
194,264,38676,1,8,1:2:0:0:
194,264,38779,1,8,1:2:0:0:
194,264,38883,1,0,0:0:0:0:
256,328,39089,5,4,3:0:0:0:
318,264,39296,2,0,L|374:208,1,80,0|8,0:0|1:2,0:0:0:0:
194,264,39710,2,0,L|137:208,1,80,0|4,0:0|3:0,0:0:0:0:
256,328,40124,1,4,3:0:0:0:
256,200,40331,2,0,L|256:160,3,40,8|0|0|8,1:2|0:0|0:0|0:0,0:0:0:0:
256,116,40745,6,0,B|272:76|312:63|312:63|352:76|368:116,1,160,4|8,0:0|1:2,0:0:0:0:
412,192,41365,1,0,0:0:0:0:
368,268,41572,1,4,3:0:0:0:
412,343,41779,1,4,3:0:0:0:
412,343,41883,1,0,0:0:0:0:
412,343,41986,2,0,B|431:350|431:350|450:343,2,40,8|8|0,1:2|1:2|0:0,0:0:0:0:
368,268,42400,6,0,P|332:253|296:268,1,80,4|0,3:0|0:0,0:0:0:0:
256,348,42814,1,8,1:2:0:0:
216,269,43021,1,0,0:0:0:0:
216,269,43124,1,0,0:0:0:0:
216,269,43227,2,0,P|180:254|144:269,1,80,4|4,3:0|3:0,0:0:0:0:
100,192,43641,1,8,1:2:0:0:
100,192,43745,1,8,1:2:0:0:
100,192,43848,1,0,0:0:0:0:
56,115,44055,6,0,B|88:92|100:50|100:50|112:92|144:115,1,160,4|8,0:0|1:2,0:0:0:0:
292,192,44676,2,0,B|292:216|292:216|288:244|256:255|256:255|224:244|220:216|220:216|220:192,1,160,4|8,0:0|1:2,0:0:0:0:
368,115,45296,2,0,B|400:92|412:50|412:50|424:92|456:115,1,160,4|8,0:0|1:2,0:0:0:0:
412,192,45917,5,4,3:0:0:0:
412,192,46021,1,4,3:0:0:0:
412,192,46124,2,0,B|395:228|395:228|412:264,1,80,4|4,3:0|3:0,0:0:0:0:
349,327,46538,1,4,3:0:0:0:
286,265,46745,2,0,L|303:228,3,40,4|4|4|4,3:0|3:0|3:0|3:0,0:0:0:0:
320,192,47158,6,0,P|256:151|192:192,1,160,4|0,0:0|0:0,0:0:0:0:
192,192,47676,1,0,0:0:0:0:
192,192,47779,1,8,1:2:0:0:
129,254,47986,1,8,1:2:0:0:
66,192,48193,2,0,B|50:180|43:160|43:160|50:140|66:128,1,80,4|4,3:0|3:0,0:0:0:0:
3,66,48607,1,8,1:2:0:0:
3,66,48710,1,8,1:2:0:0:
3,66,48814,1,0,0:0:0:0:
65,4,49021,6,0,B|93:32|93:32|133:32,1,80,4|0,3:0|0:0,0:0:0:0:
220,72,49434,2,0,B|256:54|256:54|292:72,1,80,8|8,1:2|1:2,0:0:0:0:
378,32,49848,2,0,B|419:32|419:32|447:4,1,80,4|4,3:0|3:0,0:0:0:0:
509,66,50262,1,8,1:2:0:0:
509,66,50365,1,8,1:2:0:0:
509,66,50469,1,0,0:0:0:0:
446,128,50676,6,0,L|496:236,1,120,4|0,3:0|0:0,0:0:0:0:
465,268,51089,1,8,1:2:0:0:
402,206,51296,1,4,3:0:0:0:
402,206,51400,1,0,0:0:0:0:
402,206,51503,2,0,P|364:195|326:206,1,80,4|4,3:0|3:0,0:0:0:0:
256,260,51917,1,8,1:2:0:0:
256,260,52021,1,8,1:2:0:0:
256,260,52124,1,0,0:0:0:0:
185,206,52331,6,0,L|241:150,1,80,4|0,3:0|0:0,0:0:0:0:
179,87,52745,2,0,L|122:31,1,80,8|8,1:2|1:2,0:0:0:0:
66,88,53158,1,4,3:0:0:0:
122,155,53365,1,4,3:0:0:0:
122,155,53469,1,0,0:0:0:0:
122,155,53572,2,0,B|115:174|115:174|122:193,2,40,8|8|0,1:2|1:2|0:0,0:0:0:0:
179,87,53986,6,0,B|123:30|123:30|67:87,1,160,4|8,0:0|1:2,0:0:0:0:
122,155,54607,2,0,B|178:196|234:156|234:156|288:156,1,160,0|4,0:0|3:0,0:0:0:0:
335,94,55227,1,8,1:2:0:0:
335,94,55331,1,8,1:2:0:0:
335,94,55434,1,4,3:0:0:0:
397,157,55641,6,0,B|397:229|397:229|405:245|405:245|405:316,1,160,4|8,3:0|1:2,0:0:0:0:
473,353,56262,2,0,P|405:317|337:353,1,160,0|4,0:0|3:0,0:0:0:0:
256,316,56883,1,8,1:2:0:0:
256,316,56986,1,8,1:2:0:0:
256,316,57089,1,4,3:0:0:0:
173,280,57296,6,0,P|173:201|214:134,1,160,4|8,0:0|1:2,0:0:0:0:
337,281,57917,2,0,P|338:202|297:134,1,160,4|8,0:0|1:2,0:0:0:0:
256,209,58538,2,0,B|256:142|256:142|252:134|252:134|260:134|260:134|256:126|256:126|256:59,1,160,4|8,0:0|1:2,0:0:0:0:
184,108,59158,5,8,3:0:0:0:
256,59,59365,1,8,3:0:0:0:
328,108,59572,1,8,3:0:0:0:
256,44,59779,1,8,3:0:0:0:
184,108,59986,2,0,L|155:137,2,40,8|8|8,3:0|3:0|3:0,0:0:0:0:
256,157,60400,1,8,3:0:0:0:
328,108,60607,6,0,B|360:108|360:108|408:108|427:156,1,120,4|8,0:0|1:2,0:0:0:0:
452,192,61021,1,8,1:2:0:0:
390,254,61227,1,4,0:0:0:0:
327,192,61434,2,0,P|256:160|185:192,1,160,8|8,1:2|1:2,0:0:0:0:
185,192,61952,1,8,1:2:0:0:
185,192,62055,1,8,1:2:0:0:
122,254,62262,1,4,3:0:0:0:
327,316,62676,5,4,0:0:0:0:
185,316,62883,1,4,0:0:0:0:
256,254,63089,2,2,B|256:167|256:167|252:159|252:159|260:159|260:159|256:151|256:151|256:64,1,200,4|2,0:0|0:0,0:0:0:0:
256,192,63710,12,0,65572,0:0:0:0:
