osu file format v14

[General]
AudioFilename: Oscar Roa - Pokemon - Atrapalos Ya!.mp3
AudioLeadIn: 0
PreviewTime: 33400
Countdown: 0
SampleSet: Soft
StackLeniency: 0.3
Mode: 0
LetterboxInBreaks: 0
WidescreenStoryboard: 1

[Editor]
Bookmarks: 1020,65572
DistanceSpacing: 1.1
BeatDivisor: 4
GridSize: 4
TimelineZoom: 1

[Metadata]
Title:Pokemon - Atrapalos Ya!
TitleUnicode:Pokémon - ¡Atrápalos Ya!
Artist:Oscar Roa
ArtistUnicode:Óscar Roa
Creator:Gero
Version:Facil!
Source:Pokémon
Tags:Pocket Monster ポケットモンスター Pokemon: Gotta catch 'em all! them now Season 1 The Indigo League Sekiei セキエイリーグ Pikachu ピカチュウ Bulbasaur Fushigidane フシギダネ Charmander Hitokage ヒトカゲ Ash Ketchum Satoshi サトシ Brock Takeshi タケシ Misty Kasumi カスミ
BeatmapID:1172896
BeatmapSetID:553959

[Difficulty]
HPDrainRate:2
CircleSize:3
OverallDifficulty:2
ApproachRate:3
SliderMultiplier:0.799999999999999
SliderTickRate:2

[Events]
//Background and Video events
0,0,"Fondo.jpg",0,0
Video,3800,"Video.avi"
//Break Periods
//Storyboard Layer 0 (Background)
//Storyboard Layer 1 (Fail)
//Storyboard Layer 2 (Pass)
//Storyboard Layer 3 (Foreground)
//Storyboard Sound Samples

[TimingPoints]
1021,413.793103448276,4,2,1,60,1,0
7434,-100,4,2,1,50,0,0
20676,-100,4,2,1,60,0,0
32676,-100,4,2,1,40,0,0
33089,-100,4,2,1,50,0,0
33503,-100,4,2,1,60,0,0
33917,-100,4,2,1,70,0,0
34124,-100,4,2,1,80,0,1
40641,-100,4,2,1,80,0,0
40745,-100,4,2,1,80,0,1
47055,-100,4,2,1,80,0,0
47158,-100,4,2,1,80,0,1
53883,-100,4,2,1,80,0,0
53986,-100,4,2,1,80,0,1
57193,-100,4,2,1,80,0,0
57296,-100,4,2,1,80,0,1
59158,-100,4,2,1,40,0,1
59572,-100,4,2,1,50,0,1
59986,-100,4,2,1,60,0,1
60400,-100,4,2,1,70,0,1
60503,-100,4,2,1,80,0,0
60607,-100,4,2,1,70,0,1
60710,-100,4,2,1,70,0,0
61434,-100,4,2,1,60,0,0
62262,-100,4,2,1,50,0,0
63193,-100,4,2,2,60,0,0
63503,-100,4,2,2,50,0,0
63917,-100,4,2,2,40,0,0
64331,-100,4,2,2,30,0,0
64745,-100,4,2,2,20,0,0
65158,-100,4,2,2,10,0,0
65572,-100,4,2,2,5,0,0

[Colours]
Combo1 : 182,160,120
Combo2 : 255,83,83
Combo3 : 228,206,82
Combo4 : 90,157,197
Combo5 : 242,123,72
Combo6 : 163,183,115
SliderBorder : 255,0,0
SliderTrackOverride : 193,193,193

[HitObjects]
56,255,1020,6,0,B|72:375|220:375|256:279|256:279|292:375|440:375|456:255,1,559.999999999999,2|0,0:0|0:0,0:0:0:0:
393,192,4331,6,0,B|375:156|375:156|393:120,1,79.9999999999999,2|8,0:0|1:2,0:0:0:0:
447,51,5158,2,0,P|393:29|339:51,2,120,8|4|4,1:2|3:0|3:0,0:0:0:0:
393,120,6814,2,0,P|339:142|285:120,2,120,4|4|2,3:0|0:0|0:0,0:0:0:0:
447,51,8469,5,2,0:3:0:0:
501,120,8883,1,2,0:0:0:0:
447,189,9296,2,0,B|407:217|407:263|407:263|407:294,2,120,2|0|2,0:3|0:0|0:0,0:0:0:0:
501,120,10952,6,0,L|341:120,1,160,2|2,0:3|0:3,0:0:0:0:
256,148,12193,1,2,0:0:0:0:
171,120,12607,2,0,P|149:66|171:12,2,120,2|4|2,0:3|0:0|0:0,0:0:0:0:
86,148,14262,6,0,P|116:220|86:292,1,160,4|2,0:0|0:3,0:0:0:0:
148,354,15503,1,2,0:0:0:0:
210,291,15917,2,0,B|240:304|256:328|256:328|272:304|302:291,2,120,4|0|2,3:0|0:0|0:0,0:0:0:0:
256,216,17572,6,0,L|256:96,1,120,4|4,0:0|0:0,0:0:0:0:
340,208,18814,2,0,P|256:300|172:208,1,280,4|4,0:0|3:0,0:0:0:0:
171,120,20676,6,0,B|212:128|244:100|256:80|256:80|268:100|300:128|341:120,1,200,4|2,0:0|0:3,0:0:0:0:
403,57,22124,1,12,3:0:0:0:
465,119,22538,2,0,P|487:173|465:227,2,120,2|0|4,0:3|0:0|3:0,0:0:0:0:
397,173,24193,6,0,L|520:274,1,160,2|2,0:3|0:3,0:0:0:0:
392,296,25641,2,0,B|256:328|256:328|120:296,1,280,12|2,3:0|0:3,0:0:0:0:
180,228,27503,6,0,B|212:204|212:204|212:164,1,79.9999999999999,4|8,0:0|1:2,0:0:0:0:
300,164,28331,2,0,B|300:204|300:204|332:228,1,79.9999999999999,2|12,0:3|3:0,0:0:0:0:
304,316,29158,2,0,P|256:347|208:316,2,120,4|0|8,0:0|0:0|1:2,0:0:0:0:
332,228,30814,5,4,0:0:0:0:
256,120,31434,1,4,0:0:0:0:
180,228,32055,2,0,B|184:268|220:304|256:311|256:311|292:304|328:268|332:228,1,240,4|8,0:0|3:0,0:0:0:0:
400,284,33710,1,8,3:0:0:0:
468,228,34124,5,4,0:0:0:0:
399,171,34538,2,0,P|335:130|334:53,1,160,8|8,1:2|1:2,0:0:0:0:
256,16,35779,1,4,3:0:0:0:
177,52,36193,2,0,P|177:129|113:171,1,160,8|8,1:2|1:2,0:0:0:0:
44,228,37434,5,4,3:0:0:0:
112,284,37848,1,8,1:2:0:0:
180,228,38262,2,0,B|220:228|220:228|248:256,1,79.9999999999999,4|8,3:0|1:2,0:0:0:0:
308,192,39089,2,0,B|336:220|336:220|376:220,1,79.9999999999999,4|8,3:0|1:2,0:0:0:0:
438,282,39917,1,4,3:0:0:0:
500,219,40331,1,8,1:2:0:0:
437,156,40745,6,0,L|267:325,1,240,4|8,0:0|1:2,0:0:0:0:
212,256,42400,6,0,P|190:202|212:148,2,120,4|0|8,3:0|0:0|1:2,0:0:0:0:
300,256,44055,2,0,P|322:202|300:148,2,120,4|4|4,0:0|0:0|0:0,0:0:0:0:
256,76,46124,6,0,L|256:36,2,40,4|4|4,3:0|3:0|3:0,0:0:0:0:
256,120,46745,1,4,3:0:0:0:
204,192,47158,6,0,B|256:222|256:222|308:192,1,120,4|8,0:0|1:2,0:0:0:0:
360,120,48193,1,4,3:0:0:0:
413,192,48607,1,8,1:2:0:0:
360,264,49021,2,0,P|341:320|360:376,2,120,4|8|8,3:0|1:2|1:2,0:0:0:0:
413,192,50676,5,4,3:0:0:0:
360,120,51089,2,0,B|288:120|288:120|276:128|276:128|202:128,1,160,8|8,1:2|1:2,0:0:0:0:
140,192,52331,1,4,3:0:0:0:
202,256,52745,2,0,B|276:256|276:256|288:264|288:264|360:264,1,160,8|8,1:2|1:2,0:0:0:0:
412,336,53986,6,0,B|386:280|321:264|321:264|386:248|412:192,1,240,4|8,0:0|1:2,0:0:0:0:
464,264,55641,2,0,L|224:264,1,240,4|8,3:0|1:2,0:0:0:0:
192,184,57296,6,0,B|164:140|116:140|116:140|88:140,2,120,4|4|4,0:0|0:0|0:0,0:0:0:0:
320,184,59158,2,0,B|348:140|396:140|396:140|423:140,2,120,8|8|8,3:0|3:0|3:0,0:0:0:0:
351,215,60607,6,0,L|266:130,2,120,4|4|8,0:0|0:0|1:2,0:0:0:0:
413,277,62262,1,4,3:0:0:0:
350,339,62676,2,0,B|328:339|328:339|315:351,2,40,4|4|4,0:0|0:0|0:0,0:0:0:0:
256,192,63193,12,0,65572,0:0:0:0:
