osu file format v7

[General]
AudioFilename: Carezza.mp3
AudioLeadIn: 0
PreviewTime: 300
Countdown: 0
SampleSet: Soft
StackLeniency: 0.6
Mode: 0
LetterboxInBreaks: 1

[Editor]
DistanceSpacing: 0.800000011920929
BeatDivisor: 4
GridSize: 8

[Metadata]
Title:Carezza
Artist:Osamu Kubota
Creator:Neo Adonis
Version:Medium
Source:KEYBOARDMANIA 3rdMIX
Tags:rhythm piano konami keyboard

[Difficulty]
HPDrainRate:4
CircleSize:3
OverallDifficulty:3
SliderMultiplier:1.5
SliderTickRate:2

[Events]
//Background and Video events
Video,-1500,"videobg.avi"
0,0,"bg.jpg"
//Break Periods
2,38208,38443
//Storyboard Layer 0 (Background)
//Storyboard Layer 1 (Fail)
//Storyboard Layer 2 (Pass)
//Storyboard Layer 3 (Foreground)
//Storyboard Sound Samples
//Background Colour Transformations
3,100,163,162,255

[TimingPoints]
508,468.75,4,2,0,70,1,0
39414,-100,4,2,0,50,0,0
39883,-100,3,2,0,50,0,0
49843,-100,3,2,0,30,0,0
50898,-100,3,2,0,50,0,0
52656,-100,3,2,0,30,0,0
53711,-100,3,2,0,50,0,0
55468,-100,3,2,0,30,0,0
56523,-100,3,2,0,35,0,0
57929,-100,3,2,0,40,0,0
59336,-100,3,2,0,45,0,0
60742,-100,3,2,0,50,0,0
62383,-100,3,2,0,0,0,0
62734,-100,3,2,0,10,0,0
63086,-100,3,2,0,20,0,0
63437,-100,3,2,0,30,0,0
63789,-100,3,2,0,40,0,0
64140,-100,3,2,0,50,0,0
64492,-100,3,2,0,60,0,0
64843,-100,3,2,0,70,0,0
65195,-100,4,2,0,80,0,0
82070,-100,4,2,0,90,0,0
83945,-100,4,2,0,100,0,1
98945,-100,3,2,0,100,0,0

[Colours]
Combo1 : 0,128,255
Combo2 : 0,0,255

[HitObjects]
256,192,8008,5,0
256,104,8359,2,0,B|256:56,1,37.5
336,32,8828,2,0,B|384:32,1,37.5
432,96,9297,2,0,B|432:144,1,37.5,0|2
416,224,9765,2,0,B|384:272,1,37.5
320,304,10234,2,0,B|272:320,1,37.5
192,304,10703,2,0,B|144:288,1,37.5
80,240,11172,2,0,B|64:192,1,37.5,0|2
112,96,11758,6,2,B|144:16|240:16,1,150
352,32,12695,2,2,B|448:48|464:160,1,150
416,240,13633,1,0
320,320,14101,1,2
192,320,14570,1,2
96,240,15039,1,0
96,112,15508,6,0,C|176:32|256:104|336:32|416:112,1,450
256,224,17383,5,4
144,208,17851,1,0
48,272,18320,2,2,C|48:352,3,75
112,352,19258,5,0
224,352,19726,1,0
352,352,20195,2,2,C|432:352,3,75
424,288,21133,5,0
352,192,21601,1,0
272,104,22070,2,2,C|192:104,3,75
200,168,23008,5,0
200,280,23476,1,0
312,280,23945,1,0
312,168,24414,1,0
256,192,24883,12,4,26758
256,80,27226,5,4
225,164,27578,2,0,B|305:164,3,75,2|0|2|2
295,223,28515,2,0,B|215:223,3,75,2|0|2|2
219,283,29453,6,0,C|299:283,2,75,2|2|2
220,283,30156,2,0,C|172:283,1,37.5
360,320,30976,5,0
320,240,31328,2,0,B|240:240,3,75,2|0|2|2
264,184,32265,2,0,B|184:184,3,75,2|0|2|2
208,128,33203,6,0,C|128:128,2,75,2|2|2
272,128,33906,2,0,C|312:128,1,37.5
256,304,34726,5,4
200,232,35078,2,0,B|200:144,3,75,2|0|2|2
256,160,36015,2,0,B|256:240,3,75,2|0|2|2
320,232,36953,6,0,C|320:144,2,75,2|2|2
296,288,37656,2,0,C|248:288,1,37.5
258,288,38008,1,4
256,48,39883,5,0
368,64,40351,1,0
464,144,40820,2,0,C|464:224,3,75,0|0|0|2
320,336,42226,5,0
208,336,42695,1,2
144,336,42929,1,2
80,320,43164,1,2
40,272,43398,1,2
32,216,43633,1,2
152,200,44101,5,0
208,304,44570,1,0
320,320,45039,2,0,C|400:320,3,75,0|0|0|2
448,144,46445,5,0
384,32,46914,1,2
320,16,47148,1,2
256,16,47383,1,2
192,32,47617,1,2
144,80,47851,1,2
64,176,48320,5,2
104,288,48789,1,0
208,352,49258,1,0
328,352,49726,1,2
384,328,49961,1,0
432,288,50195,1,0
448,224,50429,1,0
432,160,50664,1,0
336,80,51133,5,2
240,160,51601,1,0
208,272,52070,1,0
128,368,52539,1,2
64,352,52773,1,0
48,288,53008,1,0
32,224,53242,1,0
48,160,53476,1,0
112,48,53945,5,2
224,16,54414,1,0
352,16,54883,1,0
464,64,55351,1,2
496,112,55586,1,0
464,160,55820,1,0
496,208,56054,1,0
464,256,56289,1,0
408,360,56758,6,0,C|104:360,1,300,2|0
104,240,58164,2,0,C|408:240,1,300,2|0
400,120,59570,6,0,B|88:120,1,300,2|0
120,240,60976,2,0,B|257:357|392:240,1,300,2|0
256,192,62383,12,4,65195
256,32,65664,5,0
368,32,66133,1,2
368,144,66601,1,0
256,144,67070,1,2
256,256,67539,1,0
368,256,68008,1,2
256,256,68476,1,0
176,160,68945,6,2,B|160:64|64:80,1,150
16,192,69883,2,2,B|16:288|112:288,1,150
192,368,70820,2,0,B|352:368,1,150
416,288,71758,1,2
480,192,72226,1,2
352,192,72695,6,0,L|352:112,2,75,2|0|0
264,112,73633,2,0,L|264:32,2,75,2|0|0
176,192,74570,2,0,L|176:112,2,75,2|0|0
264,280,75508,2,0,L|264:192,2,75,2|0|0
208,176,76445,5,0
264,144,76679,1,0
312,176,76914,1,2
408,240,77383,1,0
376,288,77617,1,0
320,320,77851,1,2
192,320,78320,5,0
144,288,78554,1,0
112,240,78789,1,2
200,152,79258,1,2
256,176,79492,1,2
312,152,79726,1,2
256,192,80195,12,4,83945
256,48,84414,6,4,B|320:144,1,112.5,4|2
400,272,85351,2,4,B|272:272,1,112.5,4|2
144,272,86289,2,4,B|192:160,1,112.5,4|2
304,64,87226,5,2
368,64,87461,1,0
432,64,87695,1,2
400,112,87929,1,0
336,112,88164,1,0
96,112,89101,5,0
96,352,90039,5,2
216,352,90508,1,2
336,352,90976,1,2
312,232,91445,6,0,B|192:232,2,112.5,0|0|4
336,176,92383,1,0
256,128,92734,1,2
176,176,93086,1,2
136,128,93320,6,0,B|256:-40|376:128,1,300
312,232,94726,1,0
256,336,95195,1,0
368,336,95664,1,2
440,280,96133,6,0,B|440:216,1,37.5
440,184,96484,1,0
440,128,96718,1,0
408,72,96953,2,0,B|288:16|184:96,1,225,0|2
160,128,97890,2,0,B|144:184|168:216,1,75
184,256,98359,2,0,B|216:280|272:240,1,75,2|2
256,160,98945,5,0
256,72,99297,1,4
256,344,100351,5,0
256,256,100703,1,4
256,32,101758,5,0
160,48,102109,1,4
88,96,102461,1,0
48,176,102812,1,4
80,264,103164,1,0
152,320,103515,1,4
232,280,103867,1,0
256,192,104218,1,6
