osu file format v5

[General]
AudioFilename: Orkrist - Euthymia.mp3
AudioLeadIn: 0
PreviewTime: -1
Countdown: 1
SampleSet: Normal
StackLeniency: 0.7
Mode: 0
LetterboxInBreaks: 1
EditorBookmarks: 1000,11666,22333,33000,43666,65000,86333,96999,107666,128999,143769,158538,173307,188066,198732,209399,230732,241399,252066,262732

[Metadata]
Title:Euthymia
Artist:Orkrist
Creator:Balcerzak
Version:Normal
Source:
Tags:

[Difficulty]
HPDrainRate:7
CircleSize:5
OverallDifficulty:5
SliderMultiplier:1.4
SliderTickRate:1

[Events]
//Background and Video events
//Break Periods
2,65200,85133
2,173500,186866
2,252266,261532
//Storyboard Layer 0 (Background)
//Storyboard Layer 1 (Failing)
//Storyboard Layer 2 (Passing)
//Storyboard Layer 3 (Foreground)
//Storyboard Sound Samples
//Background Colour Transformations
3,100,163,162,255

[TimingPoints]
1000,666.666666666667,4,1,0,100,1
65000,333.333333333333,4,1,0,100,1
86333,666.666666666667,4,1,0,100,1
129000,461.538461538462,4,1,0,100,1
173300,230.769230769231,4,1,0,100,1
188066,666.666666666667,4,1,0,100,1

[HitObjects]
32,160,22333,1,0
256,64,23666,1,0
384,256,25000,1,0
160,288,26333,1,0
32,96,27666,5,0
192,224,29000,1,0
352,96,30333,1,0
160,160,31666,1,0
256,32,33000,6,0,B|448:256|160:352,1,420
64,288,35666,6,0,B|96:64|384:64,1,420
352,160,38333,6,0,B|256:32|96:96|128:288|288:288,2,420
256,192,43666,12,0,46000
256,192,46333,5,0
96,160,49000,5,0
160,224,51666,1,0
320,288,54333,1,0
416,128,57000,5,0
256,96,59666,5,0
256,224,62333,1,0
96,96,65000,1,0
96,96,86333,5,0
320,96,87666,1,0
288,320,88999,1,0
96,224,90333,1,0
256,64,91666,1,0
128,96,92999,1,0
224,288,94333,1,0
352,128,95666,1,0
160,224,96999,1,0
192,224,99666,5,0
64,192,100999,1,0
128,64,102333,1,0
320,96,103666,1,0
288,320,104999,1,0
96,224,106333,1,0
288,320,107666,6,0,B|416:192|416:64|416:64|416:96,2,280
224,320,110666,5,0
160,288,110999,2,0,B|64:160|192:32|192:32|160:32,1,280
256,32,112666,5,0
320,64,112999,2,0,B|448:192|352:320,1,280
288,320,114666,5,0
224,288,114999,1,0
192,224,115333,1,0
192,160,115666,5,0
96,224,116333,1,0
192,320,116999,1,0
288,256,117666,1,0
224,160,118333,5,0
128,96,118999,1,0
32,160,119666,1,0
32,32,120333,1,0
64,128,120999,6,0,B|192:256|192:256|224:288,1,210
212,276,122333,1,0
212,276,122666,1,0
212,276,122999,1,0
212,276,123333,1,0
212,276,123666,6,0,B|352:96,1,210
340,110,124999,1,0
340,110,125333,1,0
340,110,125666,1,0
340,110,125999,1,0
340,110,126333,6,0,B|128:96|128:96|96:96,1,210
128,96,127666,1,0
128,96,127999,1,0
128,96,128333,1,0
128,96,128666,1,0
192,160,129000,5,0
384,256,132692,1,0
192,320,136384,1,0
32,160,140076,1,0
256,192,143307,1,0
256,192,143769,12,0,145846
128,320,147461,6,0,B|128:32,2,280
320,32,151153,6,0,B|320:352|320:320,2,280
32,320,154846,6,0,B|512:0,1,560
224,288,158538,5,0
448,128,162230,1,0
256,128,164076,1,0
128,192,165923,1,0
32,96,167769,1,0
256,32,169615,5,0
480,128,171461,1,0
256,192,173300,1,0
288,320,188068,6,0,B|448:256|480:32|320:64|224:160|224:160|96:32|32:96|96:224|96:224|192:352,1,840
192,96,193399,6,0,B|384:64|416:224|224:352|224:352|32:320|32:128,1,700
96,96,198732,5,0
160,96,199066,1,0
224,96,199399,1,0
288,96,199732,1,0
288,160,200066,1,0
288,224,200399,1,0
224,224,200732,1,0
160,224,201066,1,0
160,288,201399,5,0
224,288,201732,1,0
288,288,202066,1,0
352,288,202399,1,0
352,224,202732,1,0
352,160,203066,1,0
352,96,203399,1,0
288,96,203732,1,0
224,96,204066,5,0
160,96,204399,1,0
160,160,204732,1,0
160,224,205066,1,0
224,224,205399,1,0
224,288,205732,1,0
160,288,206066,1,0
96,288,206399,1,0
128,224,206732,5,0
192,224,207066,1,0
256,224,207399,1,0
256,160,207732,1,0
256,96,208066,1,0
192,96,208399,1,0
128,96,208732,1,0
128,160,209066,1,0
128,224,209399,5,0
192,224,209732,1,0
256,256,210066,1,0
256,192,210399,1,0
320,96,211066,1,0
256,96,211399,1,0
192,96,211732,1,0
128,128,212066,5,0
160,192,212399,1,0
224,224,212732,1,0
288,256,213066,1,0
320,96,213732,1,0
256,96,214066,1,0
192,96,214399,1,0
192,160,214732,5,0
256,160,215066,1,0
320,160,215399,1,0
320,224,215732,1,0
224,288,216399,1,0
160,256,216732,1,0
128,192,217066,1,0
160,128,217399,5,0
224,128,217732,1,0
288,128,218066,1,0
352,160,218399,1,0
288,256,219066,1,0
224,256,219399,1,0
160,256,219732,1,0
224,160,220399,5,0
256,96,220732,1,0
192,96,221066,1,0
192,32,221399,1,0
128,64,221732,1,0
128,128,222066,1,0
128,192,222399,1,0
224,256,223066,5,0
224,192,223399,1,0
224,128,223732,1,0
288,128,224066,1,0
288,192,224399,1,0
288,256,224732,1,0
256,320,225066,1,0
192,192,225732,5,0
128,192,226066,1,0
128,256,226399,1,0
192,256,226732,1,0
256,224,227066,1,0
256,160,227399,1,0
320,160,227732,1,0
320,288,228399,5,0
256,256,228732,1,0
192,224,229066,1,0
128,192,229399,1,0
128,128,229732,1,0
192,128,230066,1,0
256,128,230399,1,0
256,192,230732,6,0,B|448:320|448:320|448:64|448:32|448:32|256:64|256:64|96:32,1,840
224,96,235399,5,0
224,32,236066,6,0,B|448:256|448:256|192:352|192:352|0:160|0:160|256:32,1,1120
256,192,241399,12,0,251399
256,192,252066,5,0
256,192,262732,5,0
192,224,263232,1,0
192,224,263399,1,0
192,224,263566,1,0
192,224,263732,1,0
192,224,263899,1,0
192,96,264566,5,0
192,96,264732,1,0
192,96,264899,1,0
192,96,265066,1,0
192,96,265232,1,0
96,192,266066,6,0,B|192:64|352:224|448:320,2,420
64,32,271066,6,0,B|96:224|96:224|128:256,2,210
