osu file format v14

[General]
AudioFilename: 02 Shio Nari.mp3
AudioLeadIn: 0
PreviewTime: 298
Countdown: 0
SampleSet: Soft
StackLeniency: 0.4
Mode: 0
LetterboxInBreaks: 1
WidescreenStoryboard: 1

[Editor]
Bookmarks: 13813,26445,39076,51708,64339,76971,89603,102234,106181,106971,107760,108550,112497,113287,114076,114866,118024,119603,121181,125918,127497,131445,132234,133024,133813,137760,138550,139339,140129,143287,144866,146445
DistanceSpacing: 0.8
BeatDivisor: 4
GridSize: 16
TimelineZoom: 1.1

[Metadata]
Title:shionari
TitleUnicode:潮鳴り
Artist:Shinji Orito
ArtistUnicode:折戸伸治
Creator:Smokeman
Version:easy
Source:CLANNAD
Tags:shio nari sionari roaring tides key visual art's sunflower field
BeatmapID:1260172
BeatmapSetID:585856

[Difficulty]
HPDrainRate:2
CircleSize:3.2
OverallDifficulty:2
ApproachRate:3
SliderMultiplier:1.6
SliderTickRate:1

[Events]
//Background and Video events
0,0,"Shio Nari1.png",0,0
//Break Periods
//Storyboard Layer 0 (Background)
//Storyboard Layer 1 (Fail)
//Storyboard Layer 2 (Pass)
//Storyboard Layer 3 (Foreground)
//Storyboard Sound Samples

[TimingPoints]
1182,789.473684210526,4,2,1,30,1,0
1182,-117.647058823529,4,2,1,30,0,0
50129,-117.647058823529,4,2,1,20,0,0
50918,-117.647058823529,4,2,1,35,0,0
51708,-100,4,2,1,40,0,0
99076,-100,4,2,1,38,0,0
99866,-100,4,2,1,42,0,0
100655,-100,4,2,1,46,0,0
101050,-100,4,2,1,50,0,0
101445,-100,4,2,1,54,0,0
101839,-100,4,2,1,58,0,0
102037,-100,4,2,1,64,0,0
102234,-90.9090909090909,4,2,2,50,0,1
124339,-100,4,2,1,38,0,0
125129,-100,4,2,1,44,0,0
125918,-100,4,2,1,48,0,0
126708,-100,4,2,1,52,0,0
127103,-100,4,2,1,56,0,0
127497,-90.9090909090909,4,2,2,50,0,1
148024,857.142857142857,4,2,1,45,1,0
148452,-100,4,2,1,45,0,0
148881,967.741935483871,4,2,1,40,1,0
148881,-111.111111111111,4,2,1,40,0,0
149364,-125,4,2,1,35,0,0
149848,1034.48275862069,4,2,1,45,1,0
149848,-166.666666666667,4,2,1,45,0,0

[Colours]
Combo1 : 3,228,94
Combo2 : 254,153,1
Combo3 : 166,220,3
Combo4 : 255,192,0

[HitObjects]
238,167,392,5,0,0:0:0:0:
279,268,1182,2,0,P|330:239|405:228,2,136.000002593994,2|0|0,0:0|0:0|0:0,0:0:0:0:
218,358,3550,1,0,0:0:0:0:
178,257,4339,2,0,P|138:202|81:165,1,136.000002593994,2|0,0:0|0:0,0:0:0:0:
1,91,5918,2,0,P|60:62|131:67,1,136.000002593994
210,138,7497,6,0,P|232:86|221:8,2,136.000002593994,2|0|0,0:0|0:0|0:0,0:0:0:0:
169,239,9866,1,0,0:0:0:0:
237,323,10655,2,0,P|288:294|363:283,1,136.000002593994,2|0,0:0|0:0,0:0:0:0:
466,319,12234,1,2,0:0:0:0:
413,223,13024,1,2,0:0:0:0:
484,140,13813,6,0,P|499:84|464:14,2,136.000002593994,2|0|0,0:0|0:0|0:0,0:0:0:0:
402,212,16181,1,0,0:0:0:0:
305,263,16971,2,0,P|289:207|320:130,1,136.000002593994,2|0,0:0|0:0,0:0:0:0:
387,54,18550,1,0,0:0:0:0:
283,19,19339,1,0,0:0:0:0:
177,47,20129,6,0,P|154:107|161:178,1,136.000002593994,2|0,0:0|0:0,0:0:0:0:
254,231,21707,2,0,P|277:291|270:362,1,136.000002593994,0|0,0:0|0:0,0:0:0:0:
177,303,23287,2,0,P|107:298|39:323,1,136.000002593994,2|0,0:0|0:0,0:0:0:0:
5,217,24866,1,2,0:0:0:0:
98,161,25655,1,2,0:0:0:0:
163,248,26445,6,0,P|213:265|297:258,2,136.000002593994,2|0|0,0:0|0:0|0:0,0:0:0:0:
113,151,28813,1,0,0:0:0:0:
144,46,29603,2,0,P|194:29|278:36,1,136.000002593994,2|0,0:0|0:0,0:0:0:0:
261,143,31181,2,0,P|313:146|388:186,1,136.000002593994
362,291,32760,6,0,P|418:261|499:270,2,136.000002593994,2|0|0,0:0|0:0|0:0,0:0:0:0:
282,365,35129,1,0,0:0:0:0:
235,268,35918,2,0,P|189:223|115:198,1,136.000002593994,2|0,0:0|0:0,0:0:0:0:
50,282,37497,1,2,0:0:0:0:
147,331,38287,1,2,0:0:0:0:
235,268,39076,6,0,P|300:244|378:260,2,136.000002593994,2|0|0,0:0|0:0|0:0,0:0:0:0:
153,339,41445,1,0,0:0:0:0:
104,241,42234,2,0,P|136:176|189:134,1,136.000002593994,2|0,0:0|0:0,0:0:0:0:
291,116,43813,1,0,0:0:0:0:
381,175,44603,1,0,0:0:0:0:
312,259,45392,6,0,L|292:190,1,68.0000012969971,2|0,0:0|0:0,0:0:0:0:
263,148,46181,2,0,L|281:79,1,68.0000012969971,2|2,0:0|0:0,0:0:0:0:
295,29,46971,1,2,0:0:0:0:
193,67,47760,1,0,0:0:0:0:
263,148,48550,2,0,P|274:208|246:276,1,136.000002593994,2|0,0:0|0:0,0:0:0:0:
160,198,50129,5,2,0:0:0:0:
248,134,50918,1,8,3:0:0:0:
331,218,51708,6,0,P|383:237|473:185,1,160,4|8,0:1|0:0,0:0:0:0:
394,331,53287,2,0,P|342:327|314:315,1,80,2|0,0:0|0:0,0:0:0:0:
257,263,54076,1,8,0:0:0:0:
101,315,54866,6,0,P|164:359|240:342,1,160,2|8,0:0|0:0,0:0:0:0:
278,186,56445,2,0,P|263:223|257:263,1,80,2|0,0:0|0:0,0:0:0:0:
318,313,57234,1,8,0:0:0:0:
362,159,58024,6,0,P|293:98|219:122,1,160,2|8,0:0|0:0,0:0:0:0:
164,255,59603,2,0,P|152:206|155:169,1,80,2|0,0:0|0:0,0:0:0:0:
236,196,60392,2,0,P|248:245|245:282,1,80,8|0,0:0|0:0,0:0:0:0:
205,342,61181,6,0,P|128:350|75:293,1,160,2|8,0:0|0:0,0:0:0:0:
91,214,62366,1,0,0:0:0:0:
142,152,62760,2,0,P|192:139|238:112,1,80,8|0,0:0|0:0,0:0:0:0:
272,184,63550,2,0,P|322:197|368:224,1,80,8|0,0:0|0:0,0:0:0:0:
404,277,64339,6,0,P|434:210|386:129,1,160,4|8,0:1|0:0,0:0:0:0:
256,63,65918,2,0,P|326:36|346:37,1,80,2|0,0:0|0:0,0:0:0:0:
407,55,66708,1,8,0:0:0:0:
293,168,67497,6,0,P|214:159|154:107,1,160,2|8,0:0|0:0,0:0:0:0:
43,222,69076,2,0,P|33:260|33:300,1,80,2|0,0:0|0:0,0:0:0:0:
101,342,69866,2,0,P|135:322|174:311,1,80,8|0,0:0|0:0,0:0:0:0:
253,323,70655,6,0,P|287:343|316:370,2,80,2|0|8,0:0|0:0|0:0,0:0:0:0:
226,247,71839,1,0,0:0:0:0:
257,172,72234,2,0,P|330:144|409:154,1,160,2|8,0:0|0:0,0:0:0:0:
289,48,73813,6,0,P|215:19|136:29,1,160,2|8,0:0|0:0,0:0:0:0:
50,164,75392,2,0,L|62:249,1,80,8|0,0:0|0:0,0:0:0:0:
141,242,76181,2,0,L|129:327,1,80,8|0,0:0|0:0,0:0:0:0:
201,356,76971,6,0,P|274:327|353:337,1,160,4|8,0:1|0:0,0:0:0:0:
491,257,78550,2,0,P|442:268|386:251,1,80,2|0,0:0|0:0,0:0:0:0:
344,222,79339,1,8,0:0:0:0:
284,73,80129,6,0,P|263:192|230:231,1,160,2|8,0:0|0:0,0:0:0:0:
122,112,81708,2,0,P|132:52|149:33,1,80,2|0,0:0|0:0,0:0:0:0:
221,20,82497,1,8,0:0:0:0:
177,174,83287,6,0,P|166:250|251:299,1,160,2|8,0:0|0:0,0:0:0:0:
361,214,84866,2,0,P|350:154|334:135,1,80,2|0,0:0|0:0,0:0:0:0:
264,167,85655,2,0,P|266:207|294:249,1,80,8|0,0:0|0:0,0:0:0:0:
342,298,86445,6,0,P|419:278|430:173,1,160,2|8,0:0|0:0,0:0:0:0:
398,141,87629,1,0,0:0:0:0:
330,97,88024,2,0,P|304:50|298:1,1,80,8|0,0:0|0:0,0:0:0:0:
224,54,88813,2,0,P|213:92|192:126,1,80,8|0,0:0|0:0,0:0:0:0:
122,165,89603,6,0,P|108:255|169:325,1,160,4|8,0:1|0:0,0:0:0:0:
273,215,91181,2,0,P|259:305|244:331,1,80,2|0,0:0|0:0,0:0:0:0:
303,363,91971,1,8,0:0:0:0:
410,244,92760,6,0,P|425:176|398:67,1,160,2|8,0:0|0:0,0:0:0:0:
259,29,94339,2,0,P|273:119|288:145,1,80,2|0,0:0|0:0,0:0:0:0:
229,177,95129,2,0,P|229:216|219:255,1,80,8|0,0:0|0:0,0:0:0:0:
143,280,95918,6,0,P|133:241|133:201,1,80,2|0,0:0|0:0,0:0:0:0:
155,124,96708,1,8,0:0:0:0:
225,86,97103,1,2,0:0:0:0:
302,107,97497,2,0,P|311:145|311:185,1,80,2|0,0:0|0:0,0:0:0:0:
383,219,98287,2,0,P|395:257|415:291,1,80,8|0,0:0|0:0,0:0:0:0:
361,350,99076,6,0,P|322:341|282:341,2,80,4|0|8,0:1|0:0|0:0,0:0:0:0:
415,291,100260,1,4,0:3:0:0:
432,212,100655,2,0,P|470:203|510:203,2,80,10|8|2,0:0|0:3|0:0,0:0:0:0:
372,158,101839,1,10,0:0:0:0:
316,83,102234,6,0,P|278:59|235:50,1,88.000002685547,6|0,0:0|0:0,0:0:0:0:
168,106,103024,2,0,P|181:175|197:220,2,88.000002685547,8|0|2,0:0|0:0|0:0,0:0:0:0:
87,69,104208,1,0,0:0:0:0:
33,138,104603,2,0,P|21:207|21:255,1,88.000002685547,8|2,0:0|0:0,0:0:0:0:
73,295,105392,1,6,0:0:0:0:
152,257,105787,1,0,0:0:0:0:
226,303,106181,6,0,P|268:311|312:305,1,88.000002685547,8|0,0:0|0:0,0:0:0:0:
400,306,106971,2,0,P|385:264|359:229,1,88.000002685547,2|0,0:0|0:0,0:0:0:0:
272,217,107760,2,0,P|288:176|317:143,1,88.000002685547,10|2,0:0|0:0,0:0:0:0:
337,57,108550,6,0,P|266:73|228:110,1,88.000002685547,6|0,0:0|0:0,0:0:0:0:
176,121,109339,2,0,P|112:98|67:68,2,88.000002685547,8|0|2,0:0|0:0|0:0,0:0:0:0:
236,185,110524,1,0,0:0:0:0:
166,238,110918,2,0,P|99:250|45:246,1,88.000002685547,10|2,0:0|0:0,0:0:0:0:
24,319,111708,1,6,0:0:0:0:
96,368,112103,1,0,0:0:0:0:
174,329,112497,6,0,P|241:339|287:369,1,88.000002685547,8|0,0:0|0:0,0:0:0:0:
269,260,113287,2,0,P|328:293|362:336,1,88.000002685547,10|2,0:0|0:0,0:0:0:0:
381,227,114076,2,0,P|425:278|442:330,1,88.000002685547,8|2,0:0|0:0,0:0:0:0:
498,234,114866,6,0,P|501:187|486:146,1,88.000002685547,6|0,0:0|0:0,0:0:0:0:
404,122,115655,2,0,P|360:128|317:126,2,88.000002685547,8|0|2,0:0|0:0|0:0,0:0:0:0:
453,49,116839,1,0,0:0:0:0:
365,41,117234,2,0,P|320:39|278:29,1,88.000002685547,8|2,0:0|0:0,0:0:0:0:
210,85,118024,1,6,0:0:0:0:
251,162,118418,1,0,0:0:0:0:
171,200,118813,6,0,P|128:190|84:188,1,88.000002685547,8|0,0:0|0:0,0:0:0:0:
35,261,119603,2,0,P|76:280|124:270,1,88.000002685547,2|0,0:0|0:0,0:0:0:0:
186,327,120392,2,0,P|229:323|270:337,1,88.000002685547,10|2,0:0|0:0,0:0:0:0:
352,304,121181,6,0,P|322:271|283:252,1,88.000002685547,6|0,0:0|0:0,0:0:0:0:
256,168,121971,2,0,P|215:186|181:212,2,88.000002685547,8|0|2,0:0|0:0|0:0,0:0:0:0:
341,189,123155,1,0,0:0:0:0:
408,132,123550,2,0,P|379:85|348:54,1,88.000002685547,10|2,0:0|0:0,0:0:0:0:
276,81,124339,6,0,L|190:74,1,80,2|2,0:0|0:0,0:0:0:0:
134,132,125129,2,0,L|54:126,1,80,10|2,0:0|0:0,0:0:0:0:
73,219,125918,6,0,L|158:212,1,80,2|2,0:0|0:0,0:0:0:0:
220,263,126708,2,0,L|299:268,1,80,10|10,0:0|0:0,0:0:0:0:
382,322,127497,6,0,P|399:273|389:201,1,88.000002685547,6|0,0:0|0:0,0:0:0:0:
348,164,128287,2,0,P|305:163|261:169,2,88.000002685547,8|0|2,0:0|0:0|0:0,0:0:0:0:
418,111,129471,1,0,0:0:0:0:
368,38,129866,2,0,P|327:21|284:12,1,88.000002685547,8|2,0:0|0:0,0:0:0:0:
209,58,130655,1,6,0:0:0:0:
227,144,131050,1,0,0:0:0:0:
212,230,131445,6,0,P|153:191|140:159,1,88.000002685547,8|0,0:0|0:0,0:0:0:0:
71,129,132234,2,0,P|56:232|61:251,1,88.000002685547,2|0,0:0|0:0,0:0:0:0:
86,296,133024,2,0,P|167:360|186:365,1,88.000002685547,10|2,0:0|0:0,0:0:0:0:
235,330,133813,6,0,P|250:227|245:208,1,88.000002685547,6|0,0:0|0:0,0:0:0:0:
223,161,134603,2,0,P|268:143|323:135,2,88.000002685547,8|0|2,0:0|0:0|0:0,0:0:0:0:
157,102,135787,1,0,0:0:0:0:
209,31,136181,2,0,P|257:33|310:49,1,88.000002685547,10|2,0:0|0:0,0:0:0:0:
372,85,136971,1,6,0:0:0:0:
455,57,137366,1,0,0:0:0:0:
444,144,137760,6,0,P|441:196|464:245,1,88.000002685547,8|0,0:0|0:0,0:0:0:0:
364,226,138550,2,0,P|344:274|348:328,1,88.000002685547,10|2,0:0|0:0,0:0:0:0:
260,275,139339,2,0,P|224:313|210:365,1,88.000002685547,10|2,0:0|0:0,0:0:0:0:
125,366,140129,6,0,P|109:316|70:278,1,88.000002685547,6|0,0:0|0:0,0:0:0:0:
148,226,140918,2,0,P|102:204|34:215,2,88.000002685547,8|0|2,0:0|0:0|0:0,0:0:0:0:
215,283,142103,1,0,0:0:0:0:
232,199,142497,2,0,P|227:157|186:84,1,88.000002685547,8|2,0:0|0:0,0:0:0:0:
153,47,143287,1,6,0:0:0:0:
235,16,143681,1,0,0:0:0:0:
296,78,144076,6,0,P|334:94|418:95,1,88.000002685547,8|0,0:0|0:0,0:0:0:0:
415,181,144866,2,0,P|371:186|331:203,1,88.000002685547,2|0,0:0|0:0,0:0:0:0:
351,288,145655,2,0,P|307:282|267:265,1,88.000002685547,10|2,0:0|0:0,0:0:0:0:
227,343,146445,6,0,P|197:310|177:271,1,88.000002685547,6|0,0:0|0:0,0:0:0:0:
218,193,147234,2,0,P|241:156|254:114,2,88.000002685547,8|0|2,0:0|0:0|0:0,0:0:0:0:
133,200,148452,6,0,P|103:158|47:133,1,80,10|8,0:0|0:3,0:0:0:0:
9,182,149364,2,0,L|3:246,1,64,8|6,0:3|0:0,0:0:0:0:
