osu file format v13

[General]
AudioFilename: Orito Shinji - Honesty.mp3
AudioLeadIn: 0
PreviewTime: 133712
Countdown: 0
SampleSet: Soft
StackLeniency: 0.7
Mode: 0
LetterboxInBreaks: 0
WidescreenStoryboard: 1

[Editor]
DistanceSpacing: 1
BeatDivisor: 4
GridSize: 4
TimelineZoom: 1

[Metadata]
Title:Honesty
TitleUnicode:Honesty
Artist:Orito Shinji
ArtistUnicode:折戸伸治
Creator:Miya
Version:Normal
Source:Rewrite
Tags:リライト Key Sound Label Original Sountrack OST Visual Novel Mysticalia Galgame
BeatmapID:484834
BeatmapSetID:205393

[Difficulty]
HPDrainRate:4
CircleSize:4
OverallDifficulty:4
ApproachRate:5
SliderMultiplier:1.6
SliderTickRate:2

[Events]
//Background and Video events
0,0,"bg.jpg",0,0
//Break Periods
//Storyboard Layer 0 (Background)
//Storyboard Layer 1 (Fail)
//Storyboard Layer 2 (Pass)
//Storyboard Layer 3 (Foreground)
//Storyboard Sound Samples
//Background Colour Transformations
3,100,163,162,255

[TimingPoints]
1305,740.740740740741,4,2,1,50,1,0
33897,-100,4,2,1,40,0,0
33990,-100,4,2,1,50,0,0
57601,-100,4,2,2,50,0,0
57693,-100,4,2,1,50,0,0
60564,-100,4,2,2,30,0,0
60656,-100,4,2,1,50,0,0
63527,-100,4,2,2,50,0,0
63619,-100,4,2,1,50,0,0
66490,-100,4,2,2,30,0,0
66582,-100,4,2,1,50,0,0
78342,-100,4,2,2,50,0,0
78434,-100,4,2,1,50,0,0
107971,-100,4,2,2,30,0,0
108064,-100,4,2,1,50,0,0
108712,-100,4,2,2,40,0,0
108805,-100,4,2,1,50,0,0
110934,-100,4,2,2,30,0,0
111027,-100,4,2,1,50,0,0
111675,-100,4,2,2,40,0,0
111767,-100,4,2,1,50,0,0
113897,-100,4,2,2,30,0,0
113990,-100,4,2,1,50,0,0
114638,-100,4,2,2,40,0,0
114730,-100,4,2,1,50,0,0
116860,-100,4,2,2,30,0,0
116953,-100,4,2,1,50,0,0
117601,-100,4,2,2,40,0,0
117693,-100,4,2,1,50,0,0
120564,-100,4,2,2,40,0,0
120656,-100,4,2,1,50,0,0
123527,-100,4,2,2,40,0,0
123619,-100,4,2,1,50,0,0
126490,-100,4,2,2,40,0,0
126582,-100,4,2,1,50,0,0
128712,-100,4,2,2,30,0,0
128805,-100,4,2,1,50,0,0
129453,-100,4,2,2,40,0,0
129545,-100,4,2,1,50,0,0
134638,-100,4,2,1,50,0,1
134730,-100,4,2,1,60,0,1
158342,-100,4,2,1,50,0,1
158434,-100,4,2,1,60,0,1
182045,-100,4,2,2,30,0,0
182786,-100,4,2,1,50,0,0
185000,833.333333333333,4,2,2,30,1,0
185104,-100,4,2,1,50,0,0
190833,-100,4,2,1,20,0,0
191666,-100,4,2,1,10,0,0
192500,-100,4,2,1,5,0,0

[Colours]
Combo1 : 128,255,128
Combo2 : 0,128,64
Combo3 : 128,128,192
Combo4 : 128,0,0

[HitObjects]
256,192,564,5,2,0:0:0:0:
256,192,1305,12,2,4267,0:0:0:0:
128,192,5749,5,2,0:0:0:0:
408,192,7230,1,2,0:0:0:0:
92,88,9453,2,0,P|136:100|168:124,1,80,0|0,0:0|0:0,0:0:0:0:
224,172,10193,6,0,P|296:212|384:208,2,160,2|0|2,0:0|0:0|0:0,0:0:0:0:
152,136,12045,1,0,0:0:0:0:
76,164,12416,1,0,0:0:0:0:
60,244,12786,1,0,0:0:0:0:
120,296,13156,5,2,0:0:0:0:
380,108,14638,1,2,0:0:0:0:
456,248,15379,2,0,P|416:264|388:296,1,80
316,320,16119,6,0,P|272:328|232:320,1,80,2|0,0:0|0:0,0:0:0:0:
168,284,16860,2,0,P|108:212|32:188,1,160,0|2,0:0|0:0,0:0:0:0:
28,112,17971,1,0,0:0:0:0:
64,40,18342,1,0,0:0:0:0:
144,28,18712,1,0,0:0:0:0:
216,64,19082,5,2,0:0:0:0:
340,268,20193,1,0,0:0:0:0:
340,268,20564,2,0,P|400:292|440:328,2,120,2|2|0,0:0|0:0|0:0,0:0:0:0:
268,304,22045,5,2,0:0:0:0:
180,172,22786,2,0,P|152:136|112:116,1,80
100,200,23527,1,2,0:0:0:0:
160,252,23897,1,0,0:0:0:0:
236,228,24267,2,0,P|280:248|312:276,1,80
360,324,25008,5,2,0:0:0:0:
444,100,26119,1,0,0:0:0:0:
444,100,26490,1,2,0:0:0:0:
296,40,27230,1,2,0:0:0:0:
188,156,27971,5,2,0:0:0:0:
168,232,28342,1,0,0:0:0:0:
120,296,28712,1,0,0:0:0:0:
52,340,29082,1,0,0:0:0:0:
48,260,29453,2,0,L|8:184,1,80,2|0,0:0|0:0,0:0:0:0:
68,136,30193,2,0,L|108:60,1,80
44,16,30934,5,2,0:0:0:0:
280,60,32045,2,0,L|328:44,2,40,0|0|2,0:0|0:0|0:0,0:0:0:0:
172,176,33156,2,0,P|132:200|108:232,1,80
84,300,33897,5,4,0:0:0:0:
148,348,34267,1,0,0:0:0:0:
224,320,34638,1,0,0:0:0:0:
384,308,35379,2,0,L|424:232,1,80,2|0,0:0|0:0,0:0:0:0:
352,200,36119,2,0,L|392:124,1,80,8|0,0:0|0:0,0:0:0:0:
424,56,36860,5,2,0:0:0:0:
112,120,38342,1,2,0:0:0:0:
72,276,39082,2,0,P|112:288|152:276,1,80,8|0,0:0|0:0,0:0:0:0:
216,236,39823,6,0,P|256:224|296:236,1,80,2|0,0:0|0:0,0:0:0:0:
364,272,40564,1,0,0:0:0:0:
492,176,41305,2,0,L|432:112,1,80,2|0,0:0|0:0,0:0:0:0:
424,40,42045,2,0,P|384:52|364:88,1,80,8|0,0:0|0:0,0:0:0:0:
360,164,42786,5,2,0:0:0:0:
136,76,43897,1,0,0:0:0:0:
80,132,44267,2,0,P|48:188|48:248,2,120,2|2|0,0:0|0:0|0:0,0:0:0:0:
156,152,45749,5,2,0:0:0:0:
288,352,46860,2,0,L|244:372,2,40,0|0|2,0:0|0:0|0:0,0:0:0:0:
352,304,47601,1,0,0:0:0:0:
416,352,47971,2,0,P|456:320|496:312,1,80,8|0,0:0|0:0,0:0:0:0:
492,232,48712,5,2,0:0:0:0:
320,64,49823,2,0,L|304:20,2,40,0|0|2,0:0|0:0|0:0,0:0:0:0:
240,204,50934,1,8,0:0:0:0:
100,124,51675,5,2,0:0:0:0:
76,200,52045,2,0,L|92:244,2,40,0|0|0,0:0|0:0|0:0,0:0:0:0:
100,124,52786,2,0,L|68:48,1,80,0|2,0:0|0:0,0:0:0:0:
228,64,53897,1,8,0:0:0:0:
256,224,54638,5,2,0:0:0:0:
56,356,55749,1,0,0:0:0:0:
56,356,56119,1,2,0:0:0:0:
112,208,56860,2,0,P|96:164|64:132,1,80,8|0,0:0|0:0,0:0:0:0:
20,84,57601,5,4,0:0:0:0:
84,32,57971,2,0,L|172:16,2,80,0|0|2,0:0|0:0|0:0,0:0:0:0:
228,100,59453,2,0,P|312:120|368:176,1,160,2|0,0:0|0:0,0:0:0:0:
396,244,60564,6,0,L|368:364,2,120,4|2|0,0:0|0:0|0:0,0:0:0:0:
472,224,62045,1,2,0:0:0:0:
384,92,62786,2,0,P|348:72|316:40,1,80,8|0,0:0|0:0,0:0:0:0:
256,92,63527,5,4,0:0:0:0:
184,124,63897,2,0,P|148:136|112:160,2,80,0|0|2,0:0|0:0|0:0,0:0:0:0:
256,268,65379,2,0,P|340:292|400:344,1,160,2|0,0:0|0:0,0:0:0:0:
436,268,66490,6,0,P|464:208|504:164,1,120,4|2,0:0|0:0,0:0:0:0:
452,56,67601,1,0,0:0:0:0:
452,56,67971,1,2,0:0:0:0:
300,108,68712,1,8,0:0:0:0:
300,108,69082,6,0,L|208:88,1,80,0|2,0:0|0:0,0:0:0:0:
84,172,70193,1,0,0:0:0:0:
60,248,70564,1,0,0:0:0:0:
88,324,70934,1,2,0:0:0:0:
224,240,71675,2,0,L|312:260,1,80,8|0,0:0|0:0,0:0:0:0:
360,312,72416,5,2,0:0:0:0:
376,236,72786,2,0,P|404:204|448:184,1,80
380,128,73527,2,0,P|398:89|434:58,1,80,0|2,0:0|0:0,0:0:0:0:
256,108,74638,1,8,0:0:0:0:
176,248,75379,5,2,0:0:0:0:
336,248,76119,1,2,0:0:0:0:
256,108,76860,1,2,0:0:0:0:
256,268,77601,1,8,0:0:0:0:
116,192,78342,5,4,0:0:0:0:
412,72,79823,1,2,0:0:0:0:
464,224,80564,1,8,0:0:0:0:
256,192,81305,12,0,83527,0:0:0:0:
152,172,84267,6,0,L|76:216,2,80,4|0|0,0:0|0:0|0:0,0:0:0:0:
280,76,85749,1,2,0:0:0:0:
360,72,86119,1,0,0:0:0:0:
428,116,86490,1,8,0:0:0:0:
460,192,86860,6,0,P|468:240|448:280,1,80,0|2,0:0|0:0,0:0:0:0:
312,328,87971,2,0,P|272:340|232:364,2,80,0|0|2,0:0|0:0|0:0,0:0:0:0:
320,168,89453,1,8,0:0:0:0:
180,92,90193,6,0,L|132:16,2,80,2|0|0,0:0|0:0|0:0,0:0:0:0:
120,240,91675,1,2,0:0:0:0:
120,240,92045,2,0,P|104:280|76:304,1,80,0|8,0:0|0:0,0:0:0:0:
40,232,92786,1,0,0:0:0:0:
84,164,93156,5,2,0:0:0:0:
300,56,94267,1,0,0:0:0:0:
376,84,94638,2,0,P|404:140|472:176,2,120,2|2|0,0:0|0:0|0:0,0:0:0:0:
300,56,96119,5,2,0:0:0:0:
64,92,97230,2,0,L|4:152,1,80,0|2,0:0|0:0,0:0:0:0:
80,184,97971,2,0,L|60:268,1,80,0|8,0:0|0:0,0:0:0:0:
140,256,98712,2,0,L|184:332,1,80,0|2,0:0|0:0,0:0:0:0:
380,196,100193,5,0,0:0:0:0:
380,196,100379,1,0,0:0:0:0:
380,196,100564,1,2,0:0:0:0:
464,60,101305,1,8,0:0:0:0:
304,72,102045,6,0,P|264:53|228:44,1,80,2|0,0:0|0:0,0:0:0:0:
192,36,102601,1,0,0:0:0:0:
152,44,102786,2,0,P|113:54|77:71,1,80
104,144,103527,2,0,P|52:204|40:284,1,160,2|8,0:0|0:0,0:0:0:0:
184,348,105008,5,2,0:0:0:0:
368,192,106119,1,0,0:0:0:0:
368,192,106490,1,2,0:0:0:0:
256,76,107230,2,0,L|256:160,1,80,8|0,0:0|0:0,0:0:0:0:
256,236,107971,5,4,0:0:0:0:
188,280,108342,1,0,0:0:0:0:
120,236,108712,2,0,P|92:196|48:176,1,80,8|0,0:0|0:0,0:0:0:0:
132,36,109823,2,0,P|160:76|204:96,1,80,2|8,0:0|0:0,0:0:0:0:
260,120,110564,1,0,0:0:0:0:
328,160,110934,6,0,P|376:196|408:256,1,120,4|0,0:0|0:0,0:0:0:0:
416,288,111675,1,8,0:0:0:0:
368,352,112045,2,0,L|284:376,1,80,0|2,0:0|0:0,0:0:0:0:
172,264,113156,2,0,P|132:236|88:228,1,80,8|0,0:0|0:0,0:0:0:0:
40,280,113897,5,4,0:0:0:0:
28,200,114267,1,0,0:0:0:0:
92,152,114638,2,0,P|112:112|108:72,1,80,8|0,0:0|0:0,0:0:0:0:
248,160,115749,2,0,P|220:200|216:240,2,80,2|8|0,0:0|0:0|0:0,0:0:0:0:
324,184,116860,6,0,L|432:264,1,120,4|0,0:0|0:0,0:0:0:0:
452,276,117601,1,8,0:0:0:0:
480,200,117971,2,0,P|480:160|500:124,1,80,0|2,0:0|0:0,0:0:0:0:
352,60,119082,1,8,0:0:0:0:
276,36,119453,1,0,0:0:0:0:
200,56,119823,6,0,L|128:92,1,80,2|0,0:0|0:0,0:0:0:0:
136,172,120564,2,0,L|80:244,1,80,8|0,0:0|0:0,0:0:0:0:
160,268,121305,2,0,L|180:348,1,80,2|0,0:0|0:0,0:0:0:0:
248,304,122045,2,0,L|344:336,1,80,8|0,0:0|0:0,0:0:0:0:
328,248,122786,6,0,L|404:208,1,80,2|0,0:0|0:0,0:0:0:0:
464,164,123527,1,8,0:0:0:0:
496,92,123897,1,0,0:0:0:0:
460,20,124267,1,2,0:0:0:0:
320,92,125008,1,8,0:0:0:0:
188,188,125749,5,2,0:0:0:0:
256,332,126490,1,8,0:0:0:0:
400,264,127230,1,2,0:0:0:0:
332,120,127971,1,8,0:0:0:0:
188,188,128712,6,0,P|135:244|127:331,1,160,4|8,0:0|0:0,0:0:0:0:
268,256,130193,2,0,P|320:199|328:112,1,160,2|8,0:0|0:0,0:0:0:0:
256,192,131675,12,2,133897,0:0:0:0:
256,192,134638,5,4,0:0:0:0:
212,40,135379,1,0,0:0:0:0:
140,72,135749,1,0,0:0:0:0:
108,144,136119,2,0,P|132:224|88:292,1,160,2|8,0:0|0:0,0:0:0:0:
240,352,137601,5,2,0:0:0:0:
376,272,138342,2,0,P|400:232|444:208,1,80
480,152,139082,2,0,P|484:104|464:64,1,80,2|0,0:0|0:0,0:0:0:0:
412,24,139823,1,8,0:0:0:0:
336,52,140193,1,0,0:0:0:0:
260,24,140564,6,0,P|176:40|128:96,1,160,2|0,0:0|0:0,0:0:0:0:
112,172,141675,1,0,0:0:0:0:
36,204,142045,1,2,0:0:0:0:
140,324,142786,1,8,0:0:0:0:
140,324,142971,1,0,0:0:0:0:
140,324,143156,1,0,0:0:0:0:
216,296,143527,5,2,0:0:0:0:
372,336,144267,2,0,P|344:304|340:268,1,80
384,200,145008,2,0,P|324:188|300:204,1,80,2|0,0:0|0:0,0:0:0:0:
256,256,145749,2,0,L|168:280,1,80,8|0,0:0|0:0,0:0:0:0:
100,300,146490,6,0,P|64:244|4:208,2,120,2|2|2,0:0|0:0|0:0,0:0:0:0:
168,344,147971,1,2,0:0:0:0:
236,300,148342,2,0,P|272:276|320:268,1,80,0|8,0:0|0:0,0:0:0:0:
460,316,149453,5,2,0:0:0:0:
504,164,150193,1,0,0:0:0:0:
352,212,150934,2,0,L|180:184,1,160,2|8,0:0|0:0,0:0:0:0:
56,104,152416,6,0,P|96:44|188:40,1,160,2|0,0:0|0:0,0:0:0:0:
240,88,153527,2,0,P|288:124|316:124,1,80,0|2,0:0|0:0,0:0:0:0:
460,84,154638,1,8,0:0:0:0:
460,84,155008,1,0,0:0:0:0:
492,156,155379,6,0,P|432:212|416:300,1,160,2|0,0:0|0:0,0:0:0:0:
352,336,156490,2,0,L|272:352,1,80,0|2,0:0|0:0,0:0:0:0:
204,308,157230,2,0,L|192:260,2,40,0|0|8,0:0|0:0|0:0,0:0:0:0:
140,356,157971,1,0,0:0:0:0:
84,300,158342,6,0,P|60:216|4:168,1,160,4|0,0:0|0:0,0:0:0:0:
44,96,159453,1,0,0:0:0:0:
16,20,159823,1,2,0:0:0:0:
96,36,160193,2,0,L|180:24,1,80,0|8,0:0|0:0,0:0:0:0:
324,84,161305,5,2,0:0:0:0:
208,196,162045,2,0,L|124:232,1,80,0|0,0:0|0:0,0:0:0:0:
144,308,162786,2,0,L|228:272,1,80,2|0,0:0|0:0,0:0:0:0:
288,316,163527,2,0,L|372:280,1,80,8|0,0:0|0:0,0:0:0:0:
436,316,164267,6,0,P|456:232|512:184,1,160,2|0,0:0|0:0,0:0:0:0:
468,116,165379,1,0,0:0:0:0:
392,136,165749,1,2,0:0:0:0:
336,80,166119,2,0,P|300:72|260:84,1,80,0|8,0:0|0:0,0:0:0:0:
148,196,167230,5,2,0:0:0:0:
256,312,167971,2,0,P|308:328|336:360,1,80
408,340,168712,2,0,L|488:320,1,80,2|0,0:0|0:0,0:0:0:0:
488,240,169453,2,0,L|408:260,1,80,8|0,0:0|0:0,0:0:0:0:
348,212,170193,6,0,P|272:188|196:216,1,160,2|0,0:0|0:0,0:0:0:0:
144,272,171305,1,0,0:0:0:0:
144,272,171675,1,2,0:0:0:0:
76,228,172045,2,0,L|-4:192,1,80,0|8,0:0|0:0,0:0:0:0:
128,96,173156,6,0,P|176:64|240:72,2,120,2|2|2,0:0|0:0|0:0,0:0:0:0:
104,256,175008,2,0,L|56:328,2,80,0|8|0,0:0|0:0|0:0,0:0:0:0:
176,216,176119,6,0,P|256:216|324:268,1,160,2|0,0:0|0:0,0:0:0:0:
372,320,177230,1,0,0:0:0:0:
448,300,177601,1,2,0:0:0:0:
476,224,177971,1,0,0:0:0:0:
444,152,178342,1,8,0:0:0:0:
308,72,179082,6,0,P|216:80|152:52,1,160,2|0,0:0|0:0,0:0:0:0:
80,28,180193,1,0,0:0:0:0:
24,88,180564,1,2,0:0:0:0:
40,168,180934,1,0,0:0:0:0:
112,200,181305,1,8,0:0:0:0:
244,112,182045,6,0,P|320:92|400:112,1,160,4|8,0:0|0:0,0:0:0:0:
468,252,183527,1,2,0:0:0:0:
396,288,183897,1,0,0:0:0:0:
324,252,184267,1,8,0:0:0:0:
188,288,185000,6,0,P|120:236|40:228,1,160,4|8,0:0|0:0,0:0:0:0:
64,148,186250,1,0,0:0:0:0:
44,72,186666,2,0,P|88:64|124:44,1,80,2|0,0:0|0:0,0:0:0:0:
200,36,187500,2,0,L|304:20,1,100,8|0,0:0|0:0,0:0:0:0:
256,192,188854,12,0,194166,0:0:0:0:
