osu file format v13

[General]
AudioFilename: Orito Shinji - Honesty.mp3
AudioLeadIn: 0
PreviewTime: 133712
Countdown: 0
SampleSet: Soft
StackLeniency: 0.7
Mode: 0
LetterboxInBreaks: 0
WidescreenStoryboard: 1

[Editor]
DistanceSpacing: 1.2
BeatDivisor: 4
GridSize: 4
TimelineZoom: 1

[Metadata]
Title:Honesty
TitleUnicode:Honesty
Artist:Orito Shinji
ArtistUnicode:折戸伸治
Creator:Miya
Version:Easy
Source:Rewrite
Tags:リライト Key Sound Label Original Sountrack OST Visual Novel Mysticalia Galgame
BeatmapID:484833
BeatmapSetID:205393

[Difficulty]
HPDrainRate:2
CircleSize:3
OverallDifficulty:2
ApproachRate:3
SliderMultiplier:1.4
SliderTickRate:2

[Events]
//Background and Video events
0,0,"bg.jpg",0,0
//Break Periods
//Storyboard Layer 0 (Background)
//Storyboard Layer 1 (Fail)
//Storyboard Layer 2 (Pass)
//Storyboard Layer 3 (Foreground)
//Storyboard Sound Samples
//Background Colour Transformations
3,100,163,162,255

[TimingPoints]
1305,740.740740740741,4,2,1,50,1,0
33897,-100,4,2,1,40,0,0
33990,-100,4,2,1,50,0,0
57601,-100,4,2,2,50,0,0
57693,-100,4,2,1,50,0,0
60564,-100,4,2,2,30,0,0
60656,-100,4,2,1,50,0,0
63527,-100,4,2,2,50,0,0
63619,-100,4,2,1,50,0,0
66490,-100,4,2,2,30,0,0
66582,-100,4,2,1,50,0,0
78342,-100,4,2,2,50,0,0
78434,-100,4,2,1,50,0,0
107971,-100,4,2,2,30,0,0
108064,-100,4,2,1,50,0,0
110934,-100,4,2,2,30,0,0
111027,-100,4,2,1,50,0,0
113897,-100,4,2,2,30,0,0
113990,-100,4,2,1,50,0,0
116860,-100,4,2,2,30,0,0
116953,-100,4,2,1,40,0,0
126490,-100,4,2,2,30,0,0
126582,-100,4,2,1,50,0,0
128712,-100,4,2,2,30,0,0
128805,-100,4,2,1,50,0,0
134638,-100,4,2,1,50,0,1
134730,-100,4,2,1,60,0,1
158342,-100,4,2,1,50,0,1
158434,-100,4,2,1,60,0,1
182045,-100,4,2,2,30,0,0
182786,-100,4,2,1,50,0,0
185000,833.333333333333,4,2,2,30,1,0
185104,-100,4,2,1,50,0,0
190833,-100,4,2,1,20,0,0
191666,-100,4,2,1,10,0,0
192500,-100,4,2,1,5,0,0

[Colours]
Combo1 : 128,255,128
Combo2 : 0,128,64
Combo3 : 128,128,192
Combo4 : 128,0,0

[HitObjects]
256,192,563,5,2,0:0:0:0:
256,192,1305,12,2,4267,0:0:0:0:
128,88,5749,5,2,0:0:0:0:
408,324,7230,1,2,0:0:0:0:
72,328,9453,5,0,0:0:0:0:
180,200,10193,2,0,P|144:128|80:92,1,140,2|0,0:0|0:0,0:0:0:0:
248,28,11675,2,0,L|320:20,2,70,2|0|0,0:0|0:0|0:0,0:0:0:0:
100,104,13156,6,0,P|196:204|152:336,1,280,2|2,0:0|0:0,0:0:0:0:
12,248,15379,1,0,0:0:0:0:
172,196,16119,6,0,P|240:228|288:284,1,140,2|0,0:0|0:0,0:0:0:0:
444,328,17601,2,0,L|516:292,2,70,2|0|0,0:0|0:0|0:0,0:0:0:0:
280,360,19082,6,0,P|208:284|96:256,1,210,2|0,0:0|0:0,0:0:0:0:
44,200,20564,2,0,P|32:148|0:96,2,105,2|2|0,0:0|0:0|0:0,0:0:0:0:
28,284,22045,5,2,0:0:0:0:
168,192,22786,1,0,0:0:0:0:
252,336,23527,1,2,0:0:0:0:
388,236,24267,1,0,0:0:0:0:
400,68,25008,6,0,P|284:84|248:164,1,210,2|0,0:0|0:0,0:0:0:0:
276,240,26490,2,0,P|328:288|328:364,1,140,2|0,0:0|0:0,0:0:0:0:
404,204,27971,6,0,P|420:120|464:80,1,140,2|0,0:0|0:0,0:0:0:0:
292,52,29453,2,0,L|140:32,1,140,2|0,0:0|0:0,0:0:0:0:
24,140,30934,5,2,0:0:0:0:
192,328,32045,2,0,L|280:340,1,70,0|2,0:0|0:0,0:0:0:0:
424,296,33156,1,0,0:0:0:0:
456,132,33897,6,0,P|356:88|320:104,1,140,4|0,0:0|0:0,0:0:0:0:
188,176,35379,1,2,0:0:0:0:
124,232,35749,1,0,0:0:0:0:
44,212,36119,2,0,P|32:132|-8:84,1,140,8|2,0:0|0:0,0:0:0:0:
328,36,38342,5,2,0:0:0:0:
428,172,39082,1,8,0:0:0:0:
348,320,39823,6,0,P|256:288|216:300,1,140,2|0,0:0|0:0,0:0:0:0:
60,360,41305,1,2,0:0:0:0:
84,280,41675,1,0,0:0:0:0:
28,216,42045,1,8,0:0:0:0:
120,76,42786,6,0,P|228:56|312:112,1,210,2|0,0:0|0:0,0:0:0:0:
352,180,44267,2,0,P|380:236|428:268,2,105,2|2|0,0:0|0:0|0:0,0:0:0:0:
268,188,45749,6,0,P|252:292|156:328,1,210,2|0,0:0|0:0,0:0:0:0:
108,268,47230,2,0,P|72:200|12:168,1,140,2|8,0:0|0:0,0:0:0:0:
144,56,48712,5,2,0:0:0:0:
364,160,49823,1,0,0:0:0:0:
448,168,50193,2,0,P|416:232|340:244,1,140,2|8,0:0|0:0,0:0:0:0:
228,136,51675,6,0,L|80:92,1,140,2|0,0:0|0:0,0:0:0:0:
256,56,53156,2,0,L|404:100,1,140,2|8,0:0|0:0,0:0:0:0:
256,200,54638,5,2,0:0:0:0:
444,368,55749,2,0,L|528:352,1,70,0|2,0:0|0:0,0:0:0:0:
416,220,56860,2,0,L|460:160,1,70,8|0,0:0|0:0,0:0:0:0:
400,104,57601,6,0,P|304:56|204:88,1,210,4|2,0:0|0:0,0:0:0:0:
288,232,59453,1,2,0:0:0:0:
144,316,60193,1,0,0:0:0:0:
88,252,60564,6,0,P|88:192|48:148,2,105,4|2|0,0:0|0:0|0:0,0:0:0:0:
52,328,62045,1,2,0:0:0:0:
216,360,62786,1,8,0:0:0:0:
376,308,63527,6,0,P|400:196|484:136,1,210,4|2,0:0|0:0,0:0:0:0:
348,24,65379,1,2,0:0:0:0:
196,100,66119,1,0,0:0:0:0:
120,64,66490,6,0,L|0:24,2,105,4|2|0,0:0|0:0|0:0,0:0:0:0:
196,100,67971,1,2,0:0:0:0:
360,68,68712,1,8,0:0:0:0:
460,204,69453,6,0,P|332:212|240:324,1,280,2|2,0:0|0:0,0:0:0:0:
80,268,71675,1,8,0:0:0:0:
36,104,72416,6,0,B|116:64|180:128|180:128|312:100,1,280,2|2,0:0|0:0,0:0:0:0:
452,172,74638,1,8,0:0:0:0:
352,304,75379,6,0,P|284:288|212:308,2,140,2|2|2,0:0|0:0|0:0,0:0:0:0:
280,152,77601,1,8,0:0:0:0:
144,56,78342,5,4,0:0:0:0:
256,368,79823,2,0,L|256:224,1,140,2|8,0:0|0:0,0:0:0:0:
256,192,81305,12,4,84267,0:0:0:0:
168,112,85749,6,0,L|116:60,2,70,2|0|8,0:0|0:0|0:0,0:0:0:0:
88,260,87230,6,0,P|212:256|328:360,1,280,2|2,0:0|0:0,0:0:0:0:
480,288,89453,1,8,0:0:0:0:
412,132,90193,6,0,L|424:60,2,70,2|0|0,0:0|0:0|0:0,0:0:0:0:
288,248,91675,1,2,0:0:0:0:
132,308,92416,1,8,0:0:0:0:
12,192,93156,6,0,P|44:108|160:72,1,210,2|0,0:0|0:0,0:0:0:0:
236,76,94638,2,0,P|292:72|352:48,2,105,2|2|0,0:0|0:0|0:0,0:0:0:0:
152,72,96119,5,2,0:0:0:0:
28,292,97230,2,0,L|60:364,1,70,0|2,0:0|0:0,0:0:0:0:
192,256,98342,1,8,0:0:0:0:
348,320,99082,6,0,P|392:212|472:168,1,210,2|0,0:0|0:0,0:0:0:0:
488,88,100564,1,2,0:0:0:0:
332,24,101305,1,8,0:0:0:0:
212,144,102045,6,0,P|44:172|-8:268,1,280,2|2,0:0|0:0,0:0:0:0:
152,300,104267,1,8,0:0:0:0:
316,328,105008,6,0,P|380:256|492:244,1,210,2|0,0:0|0:0,0:0:0:0:
508,160,106490,1,2,0:0:0:0:
396,36,107230,1,8,0:0:0:0:
252,120,107971,6,0,P|172:88|48:100,1,210,4|2,0:0|0:0,0:0:0:0:
132,248,109823,1,2,0:0:0:0:
256,364,110564,1,0,0:0:0:0:
336,344,110934,6,0,P|376:308|432:292,2,105,4|2|0,0:0|0:0|0:0,0:0:0:0:
256,364,112416,1,2,0:0:0:0:
120,264,113156,1,8,0:0:0:0:
32,120,113897,6,0,B|96:76|160:100|160:100|240:72,1,210,4|2,0:0|0:0,0:0:0:0:
392,24,115749,2,0,P|360:96|376:160,1,140,2|0,0:0|0:0,0:0:0:0:
412,228,116860,6,0,L|468:324,2,105,4|2|0,0:0|0:0|0:0,0:0:0:0:
372,152,118342,1,2,0:0:0:0:
320,312,119082,1,0,0:0:0:0:
160,264,119823,6,0,P|160:144|24:48,1,280,2|2,0:0|0:0,0:0:0:0:
16,204,122045,1,8,0:0:0:0:
136,324,122786,6,0,P|256:324|352:188,1,280,2|2,0:0|0:0,0:0:0:0:
188,152,125008,1,8,0:0:0:0:
316,44,125749,5,2,0:0:0:0:
444,152,126490,1,8,0:0:0:0:
316,260,127230,1,2,0:0:0:0:
188,152,127971,1,8,0:0:0:0:
44,64,128712,6,0,P|12:184|100:316,1,280,4|2,0:0|0:0,0:0:0:0:
256,316,130934,1,8,0:0:0:0:
256,192,131675,12,4,134638,0:0:0:0:
336,344,135749,5,0,0:0:0:0:
408,304,136119,2,0,P|424:220|472:180,2,140,2|8|2,0:0|0:0|0:0,0:0:0:0:
256,232,138342,5,0,0:0:0:0:
180,264,138712,1,0,0:0:0:0:
100,232,139082,2,0,P|64:160|0:116,2,140,2|8|2,0:0|0:0|0:0,0:0:0:0:
340,316,141675,5,0,0:0:0:0:
420,344,142045,2,0,P|448:280|508:232,1,140,2|8,0:0|0:0,0:0:0:0:
456,72,143527,5,2,0:0:0:0:
292,36,144267,2,0,L|280:104,2,70,0|0|2,0:0|0:0|0:0,0:0:0:0:
128,68,145749,1,8,0:0:0:0:
188,224,146490,6,0,P|232:272|228:324,2,105,2|2|0,0:0|0:0|0:0,0:0:0:0:
144,296,147971,1,2,0:0:0:0:
16,184,148712,1,8,0:0:0:0:
80,28,149453,6,0,P|144:52|176:120,1,140,2|0,0:0|0:0,0:0:0:0:
76,248,150934,2,0,P|107:308|171:332,1,140,2|8,0:0|0:0,0:0:0:0:
220,172,152416,6,0,P|308:128|420:152,1,210,2|0,0:0|0:0,0:0:0:0:
484,196,153897,1,2,0:0:0:0:
420,352,154638,2,0,L|352:364,1,70,8|0,0:0|0:0,0:0:0:0:
304,292,155379,6,0,P|204:248|104:276,1,210,2|0,0:0|0:0,0:0:0:0:
96,356,156860,2,0,P|28:304|40:232,1,140,2|8,0:0|0:0,0:0:0:0:
76,96,158342,6,0,P|148:36|268:56,1,210,4|0,0:0|0:0,0:0:0:0:
328,96,159823,1,2,0:0:0:0:
456,204,160564,2,0,L|504:344,1,140,8|2,0:0|0:0,0:0:0:0:
344,280,162045,6,0,L|320:212,2,70,0|0|2,0:0|0:0|0:0,0:0:0:0:
196,360,163527,1,8,0:0:0:0:
136,200,164267,6,0,B|88:136|88:136|100:56|36:24,1,210,2|0,0:0|0:0,0:0:0:0:
0,108,165749,1,2,0:0:0:0:
76,260,166490,1,8,0:0:0:0:
232,324,167230,5,2,0:0:0:0:
396,352,167971,1,0,0:0:0:0:
456,292,168342,1,0,0:0:0:0:
452,208,168712,2,0,P|420:140|432:76,1,140,2|8,0:0|0:0,0:0:0:0:
268,44,170193,6,0,P|168:16|64:52,1,210,2|0,0:0|0:0,0:0:0:0:
12,116,171675,1,2,0:0:0:0:
172,172,172416,1,8,0:0:0:0:
60,296,173156,6,0,P|12:348|0:388,2,105,2|2|2,0:0|0:0|0:0,0:0:0:0:
160,160,175008,1,0,0:0:0:0:
204,232,175379,1,8,0:0:0:0:
364,280,176119,6,0,P|400:216|468:176,1,140,2|0,0:0|0:0,0:0:0:0:
340,56,177601,2,0,L|192:36,1,140,2|8,0:0|0:0,0:0:0:0:
80,156,179082,6,0,L|228:176,1,140,2|0,0:0|0:0,0:0:0:0:
348,284,180564,1,2,0:0:0:0:
380,120,181305,1,8,0:0:0:0:
228,188,182045,6,0,P|144:208|108:248,1,140,4|8,0:0|0:0,0:0:0:0:
240,356,183527,2,0,P|324:336|360:296,1,140,2|8,0:0|0:0,0:0:0:0:
404,160,185000,6,0,P|420:88|468:44,1,140,4|8,0:0|0:0,0:0:0:0:
300,40,186666,1,2,0:0:0:0:
224,80,187083,1,0,0:0:0:0:
148,40,187500,2,0,L|60:32,1,87.5,8|0,0:0|0:0,0:0:0:0:
256,192,188854,12,0,194166,0:0:0:0:
