osu file format v12

[General]
AudioFilename: Pride of Alchemist.mp3
AudioLeadIn: 0
PreviewTime: -1
Countdown: 1
SampleSet: None
StackLeniency: 0.7
Mode: 1
LetterboxInBreaks: 1
WidescreenStoryboard: 1

[Editor]
DistanceSpacing: 1
BeatDivisor: 4
GridSize: 8
TimelineZoom: 1.8

[Metadata]
Title:Koushou No Kyouji
TitleUnicode:Koushou No Kyouji
Artist:Orihime Yozora
ArtistUnicode:Orihime Yozora
Creator:TimmyAkmed
Version:Muzukashii
Source:Kamidori Alchemy Meister
Tags:
BeatmapID:417555
BeatmapSetID:172765

[Difficulty]
HPDrainRate:5
CircleSize:5
OverallDifficulty:6
ApproachRate:5
SliderMultiplier:1.4
SliderTickRate:1

[Events]
//Background and Video events
0,0,"bgprideofalchemist.jpg",0,0
//Break Periods
//Storyboard Layer 0 (Background)
//Storyboard Layer 1 (Fail)
//Storyboard Layer 2 (Pass)
//Storyboard Layer 3 (Foreground)
//Storyboard Sound Samples
//Background Colour Transformations
3,100,163,162,255

[TimingPoints]
1274,315.789473684211,4,1,0,100,1,0

[HitObjects]
248,232,1274,5,0,0:0:0:0:
368,272,1589,1,0,0:0:0:0:
368,272,1747,1,2,0:0:0:0:
368,272,2221,1,0,0:0:0:0:
368,272,2537,1,2,0:0:0:0:
368,272,2852,1,0,0:0:0:0:
168,136,3010,1,2,0:0:0:0:
368,272,3484,1,0,0:0:0:0:
368,272,3800,1,2,0:0:0:0:
328,200,3958,1,0,0:0:0:0:
368,272,4116,1,0,0:0:0:0:
368,272,4274,1,2,0:0:0:0:
368,272,4589,1,2,0:0:0:0:
368,272,4747,1,0,0:0:0:0:
344,152,4826,1,0,0:0:0:0:
368,272,4905,1,0,0:0:0:0:
368,272,5063,1,0,0:0:0:0:
368,272,5379,1,0,0:0:0:0:
368,272,5695,1,0,0:0:0:0:
368,272,6010,1,0,0:0:0:0:
368,272,6089,1,0,0:0:0:0:
368,272,6168,1,0,0:0:0:0:
368,272,6326,1,6,0:0:0:0:
360,208,6642,1,0,0:0:0:0:
264,232,6800,1,2,0:0:0:0:
360,208,6958,1,0,0:0:0:0:
368,272,7274,1,0,0:0:0:0:
368,272,7431,1,0,0:0:0:0:
344,288,7589,1,2,0:0:0:0:
344,288,7747,1,0,0:0:0:0:
344,288,7905,1,0,0:0:0:0:
312,264,8537,1,0,0:0:0:0:
200,224,8852,1,6,0:0:0:0:
312,264,9010,1,6,0:0:0:0:
312,264,9326,1,6,0:0:0:0:
312,264,9642,1,6,0:0:0:0:
368,168,9958,1,0,0:0:0:0:
368,168,10116,1,2,0:0:0:0:
200,224,10431,1,0,0:0:0:0:
400,288,10747,1,0,0:0:0:0:
256,224,10826,1,0,0:0:0:0:
256,224,10905,1,0,0:0:0:0:
400,288,11063,1,0,0:0:0:0:
248,256,11221,1,0,0:0:0:0:
336,240,11379,1,2,0:0:0:0:
344,304,12010,1,2,0:0:0:0:
344,304,12168,1,0,0:0:0:0:
344,304,12326,1,0,0:0:0:0:
256,208,12642,1,0,0:0:0:0:
256,208,12958,1,0,0:0:0:0:
256,208,13274,1,2,0:0:0:0:
256,208,13431,1,0,0:0:0:0:
256,208,13589,1,0,0:0:0:0:
360,208,13905,1,2,0:0:0:0:
120,128,14379,1,2,0:0:0:0:
120,128,14458,1,2,0:0:0:0:
120,128,14537,1,2,0:0:0:0:
360,208,14695,1,0,0:0:0:0:
360,208,14852,1,2,0:0:0:0:
400,312,15168,1,0,0:0:0:0:
360,208,15484,1,0,0:0:0:0:
360,208,15642,1,2,0:0:0:0:
168,168,15958,1,2,0:0:0:0:
168,168,16116,1,0,0:0:0:0:
360,208,16431,1,0,0:0:0:0:
168,168,16747,1,2,0:0:0:0:
168,168,16905,1,0,0:0:0:0:
168,168,17221,1,0,0:0:0:0:
168,168,17379,1,0,0:0:0:0:
168,168,17695,1,2,0:0:0:0:
224,160,18168,1,2,0:0:0:0:
224,160,18484,1,0,0:0:0:0:
224,160,18642,1,2,0:0:0:0:
224,160,18800,1,2,0:0:0:0:
328,256,18958,1,4,0:0:0:0:
328,256,19431,1,2,0:0:0:0:
248,312,19589,1,0,0:0:0:0:
248,312,19747,1,0,0:0:0:0:
288,248,20063,1,4,0:0:0:0:
288,248,20379,1,4,0:0:0:0:
288,248,20695,1,4,0:0:0:0:
288,248,21168,1,0,0:0:0:0:
288,248,21484,1,2,0:0:0:0:
288,248,21958,1,2,0:0:0:0:
288,248,22116,1,0,0:0:0:0:
288,248,22274,1,0,0:0:0:0:
288,248,22431,1,2,0:0:0:0:
288,248,22747,1,2,0:0:0:0:
288,248,23063,1,0,0:0:0:0:
376,264,23221,1,0,0:0:0:0:
376,264,23379,1,2,0:0:0:0:
376,264,23695,1,0,0:0:0:0:
376,264,24010,1,2,0:0:0:0:
376,264,24326,1,0,0:0:0:0:
320,264,24484,1,2,0:0:0:0:
208,184,24563,1,2,0:0:0:0:
344,192,24642,1,2,0:0:0:0:
408,256,24958,1,0,0:0:0:0:
400,320,25589,1,0,0:0:0:0:
248,232,25747,1,2,0:0:0:0:
360,256,26063,1,0,0:0:0:0:
360,256,26221,1,2,0:0:0:0:
248,232,26379,1,2,0:0:0:0:
360,288,26537,1,0,0:0:0:0:
400,320,27010,1,2,0:0:0:0:
400,320,27168,1,0,0:0:0:0:
360,288,27326,1,2,0:0:0:0:
360,288,27484,1,2,0:0:0:0:
360,288,27800,1,0,0:0:0:0:
400,320,28274,1,2,0:0:0:0:
400,320,28589,1,0,0:0:0:0:
400,320,28747,1,2,0:0:0:0:
400,320,29063,1,2,0:0:0:0:
288,264,29379,1,0,0:0:0:0:
360,344,29852,1,2,0:0:0:0:
328,240,30168,1,4,0:0:0:0:
328,240,30484,1,4,0:0:0:0:
96,160,30800,1,4,0:0:0:0:
96,160,31116,1,4,0:0:0:0:
256,192,31589,12,0,32537,0:0:0:0:
248,232,32852,5,0,0:0:0:0:
368,272,33167,1,0,0:0:0:0:
368,272,33325,1,2,0:0:0:0:
368,272,33799,1,0,0:0:0:0:
368,272,34115,1,2,0:0:0:0:
368,272,34430,1,0,0:0:0:0:
168,136,34588,1,2,0:0:0:0:
368,272,35062,1,0,0:0:0:0:
368,272,35378,1,2,0:0:0:0:
328,200,35536,1,0,0:0:0:0:
368,272,35694,1,0,0:0:0:0:
368,272,35852,1,2,0:0:0:0:
368,272,36167,1,2,0:0:0:0:
368,272,36325,1,0,0:0:0:0:
344,152,36404,1,0,0:0:0:0:
368,272,36483,1,0,0:0:0:0:
368,272,36641,1,0,0:0:0:0:
368,272,36957,1,0,0:0:0:0:
368,272,37273,1,0,0:0:0:0:
368,272,37588,1,0,0:0:0:0:
368,272,37667,1,0,0:0:0:0:
368,272,37746,1,0,0:0:0:0:
368,272,37904,1,6,0:0:0:0:
360,208,38220,1,0,0:0:0:0:
264,232,38378,1,2,0:0:0:0:
360,208,38536,1,0,0:0:0:0:
368,272,38852,1,0,0:0:0:0:
368,272,39009,1,0,0:0:0:0:
344,288,39167,1,2,0:0:0:0:
344,288,39325,1,0,0:0:0:0:
344,288,39483,1,0,0:0:0:0:
312,264,40115,1,0,0:0:0:0:
200,224,40430,1,6,0:0:0:0:
312,264,40588,1,6,0:0:0:0:
312,264,40904,1,6,0:0:0:0:
312,264,41220,1,6,0:0:0:0:
368,168,41536,1,0,0:0:0:0:
368,168,41694,1,2,0:0:0:0:
200,224,42009,1,0,0:0:0:0:
400,288,42325,1,0,0:0:0:0:
256,224,42404,1,0,0:0:0:0:
256,224,42483,1,0,0:0:0:0:
400,288,42641,1,0,0:0:0:0:
248,256,42799,1,0,0:0:0:0:
336,240,42957,1,2,0:0:0:0:
344,304,43588,1,2,0:0:0:0:
344,304,43746,1,0,0:0:0:0:
344,304,43904,1,0,0:0:0:0:
256,208,44220,1,0,0:0:0:0:
256,208,44536,1,0,0:0:0:0:
256,208,44852,1,2,0:0:0:0:
256,208,45009,1,0,0:0:0:0:
256,208,45167,1,0,0:0:0:0:
360,208,45483,1,2,0:0:0:0:
120,128,45957,1,2,0:0:0:0:
120,128,46036,1,2,0:0:0:0:
120,128,46115,1,2,0:0:0:0:
360,208,46273,1,0,0:0:0:0:
360,208,46430,1,2,0:0:0:0:
400,312,46746,1,0,0:0:0:0:
360,208,47062,1,0,0:0:0:0:
360,208,47220,1,2,0:0:0:0:
168,168,47536,1,2,0:0:0:0:
168,168,47694,1,0,0:0:0:0:
360,208,48009,1,0,0:0:0:0:
168,168,48325,1,2,0:0:0:0:
168,168,48483,1,0,0:0:0:0:
168,168,48799,1,0,0:0:0:0:
168,168,48957,1,0,0:0:0:0:
168,168,49273,1,2,0:0:0:0:
224,160,49746,1,2,0:0:0:0:
224,160,50062,1,0,0:0:0:0:
224,160,50220,1,2,0:0:0:0:
224,160,50378,1,2,0:0:0:0:
328,256,50536,1,4,0:0:0:0:
328,256,51009,1,2,0:0:0:0:
248,312,51167,1,0,0:0:0:0:
248,312,51325,1,0,0:0:0:0:
288,248,51641,1,4,0:0:0:0:
288,248,51957,1,4,0:0:0:0:
288,248,52273,1,4,0:0:0:0:
288,248,52746,1,0,0:0:0:0:
288,248,53062,1,2,0:0:0:0:
288,248,53536,1,2,0:0:0:0:
288,248,53694,1,0,0:0:0:0:
288,248,53852,1,0,0:0:0:0:
288,248,54009,1,2,0:0:0:0:
288,248,54325,1,2,0:0:0:0:
288,248,54641,1,0,0:0:0:0:
376,264,54799,1,0,0:0:0:0:
376,264,54957,1,2,0:0:0:0:
376,264,55273,1,0,0:0:0:0:
376,264,55588,1,2,0:0:0:0:
376,264,55904,1,0,0:0:0:0:
320,264,56062,1,2,0:0:0:0:
208,184,56141,1,2,0:0:0:0:
344,192,56220,1,2,0:0:0:0:
408,256,56536,1,0,0:0:0:0:
400,320,57167,1,0,0:0:0:0:
248,232,57325,1,2,0:0:0:0:
360,256,57641,1,0,0:0:0:0:
360,256,57799,1,2,0:0:0:0:
248,232,57957,1,2,0:0:0:0:
360,288,58115,1,0,0:0:0:0:
400,320,58588,1,2,0:0:0:0:
400,320,58746,1,0,0:0:0:0:
360,288,58904,1,2,0:0:0:0:
360,288,59062,1,2,0:0:0:0:
360,288,59378,1,0,0:0:0:0:
400,320,59852,1,2,0:0:0:0:
400,320,60167,1,0,0:0:0:0:
400,320,60325,1,2,0:0:0:0:
400,320,60641,1,2,0:0:0:0:
288,264,60957,1,0,0:0:0:0:
360,344,61430,1,2,0:0:0:0:
328,240,61746,1,4,0:0:0:0:
328,240,62062,1,4,0:0:0:0:
96,160,62378,1,4,0:0:0:0:
96,160,62694,1,4,0:0:0:0:
