osu file format v9

[General]
AudioFilename: 05.Polyushko-Pole.mp3
AudioLeadIn: 0
PreviewTime: 118037
Countdown: 1
SampleSet: Soft
StackLeniency: 0.7
Mode: 0
LetterboxInBreaks: 1

[Editor]
Bookmarks: 28895,56323,63180,90609,100895,104323,114609,118037,131752,145466,155752,159180,162609,200323,203752
DistanceSpacing: 1
BeatDivisor: 4
GridSize: 8

[Metadata]
Title:Polyushko-Pole
Artist:Origa
Creator:Nekoroll
Version:koonsane
Source:
Tags:russian dkun

[Difficulty]
HPDrainRate:7
CircleSize:4
OverallDifficulty:7
ApproachRate:8
SliderMultiplier:2
SliderTickRate:2

[Events]
//Background and Video events
0,0,"--52100-motorcycle-scenic-sky.jpg"
//Break Periods
2,104523,117287
2,145666,161859
//Storyboard Layer 0 (Background)
//Storyboard Layer 1 (Fail)
//Storyboard Layer 2 (Pass)
//Storyboard Layer 3 (Foreground)
//Storyboard Sound Samples
//Background Colour Transformations
3,100,163,162,255

[TimingPoints]
1466,428.571428571429,4,2,0,55,1,0
70787,-100,4,2,0,30,0,0
71002,-100,4,2,0,40,0,0
71645,-100,4,2,0,30,0,0
71859,-100,4,2,0,40,0,0
72502,-100,4,2,0,30,0,0
72716,-100,4,2,0,40,0,0
73787,-100,4,2,0,30,0,0
74002,-100,4,2,0,40,0,0
74645,-100,4,2,0,30,0,0
74859,-100,4,2,0,40,0,0
75502,-100,4,2,0,30,0,0
75716,-100,4,2,0,40,0,0
79787,-100,4,2,0,20,0,0
80002,-100,4,2,0,50,0,0
118037,-100,4,2,0,50,0,0
126502,-100,4,2,0,40,0,0
126716,-100,4,2,0,50,0,0

[Colours]
Combo1 : 255,230,255
Combo2 : 189,230,253
Combo3 : 182,243,180
Combo4 : 250,254,197

[HitObjects]
144,112,28895,1,0
208,40,29109,1,0
304,40,29323,1,0
376,112,29537,1,0
256,144,29752,2,0,B|256:256,1,100
168,288,30180,2,0,B|256:368|352:288,3,200,0|0|0|8
256,56,31895,5,4
256,152,32109,2,0,B|176:232,1,100
256,152,32537,2,0,B|344:232,1,100
384,280,32966,1,0
312,344,33180,1,0
208,344,33395,1,0
136,280,33609,1,0
160,184,33823,2,0,B|264:128|368:192,2,200
72,232,34895,1,0
96,328,35109,1,0
192,288,35323,1,0
176,192,35537,1,0
160,96,35752,6,0,B|256:24|352:96,1,200
256,192,36395,1,0
352,288,36609,2,0,B|256:360|160:288,2,200
256,112,37895,1,0
136,280,38323,1,8
200,352,38537,1,0
304,352,38752,1,4
368,272,38966,1,0
344,184,39180,6,0,B|256:112|160:184,1,200
72,240,39823,1,0
160,184,40037,1,0
72,128,40252,1,0
160,80,40466,1,0
256,40,40680,1,0
352,80,40895,1,0
440,128,41109,1,0
352,176,41324,1,0
440,232,41537,1,0
352,288,41752,2,0,B|248:336,1,100
261,329,42180,2,0,B|160:288,1,100
256,192,42609,5,4
160,40,43037,1,4
360,40,43466,1,4
424,232,43895,1,0
352,304,44109,1,0
256,336,44323,1,0
160,304,44537,1,0
88,232,44752,1,0
256,128,45180,1,4
208,40,45395,1,2
304,40,45609,1,4
256,128,45823,1,0
256,128,46037,5,4
160,304,46466,1,4
360,304,46894,1,4
424,152,47323,1,0
352,80,47537,1,0
256,48,47751,1,0
160,80,47965,1,0
88,152,48180,1,0
176,336,48609,6,2,B|272:272,1,100
344,336,49037,2,2,B|248:272,1,100
160,224,49466,6,4,B|256:160|352:224,1,200
424,160,50109,1,2
344,96,50323,2,4,B|256:144|152:96,3,200
72,160,51823,1,0
152,224,52037,1,0
72,280,52252,1,0
152,344,52466,1,4
256,168,52895,5,0
168,120,53109,1,0
208,32,53323,1,0
304,32,53537,1,0
352,120,53752,1,4
256,256,54180,1,0
208,344,54395,1,0
304,344,54609,1,4
160,208,55037,2,4,B|256:136|352:208,3,200
256,192,56537,12,0,62752
144,256,63180,5,0
208,336,63395,1,0
304,336,63609,1,0
360,256,63823,1,2
256,224,64037,2,0,B|256:104,1,100,8|0
160,80,64466,2,0,B|216:40|304:40|360:88,1,200
424,152,65109,1,0
336,200,65323,1,0
424,256,65537,1,2
336,304,65752,1,8
144,256,66180,1,8
144,56,66609,5,0
200,136,66823,1,0
256,56,67037,1,0
312,136,67252,1,2
368,56,67466,1,8
352,256,67895,1,0
304,344,68109,1,0
208,344,68323,1,0
160,256,68537,1,0
256,232,68752,1,0
256,136,68966,1,2
160,64,69180,2,0,B|256:32|360:64,3,200,8|2|2|8
456,120,70680,5,0
384,192,70895,1,0
456,264,71109,1,2
384,336,71323,1,8
312,264,71537,1,0
256,184,71752,1,0
192,264,71966,1,2
120,336,72180,1,8
48,264,72395,1,0
120,192,72609,1,8
256,48,73037,1,4
160,280,73466,6,0,B|256:360|352:272,1,200
408,200,74109,1,2
336,128,74323,1,8
256,64,74537,1,0
176,128,74752,1,0
112,200,74966,1,0
256,232,75180,2,0,B|256:368,4,100,0|0|0|2|8
256,128,76252,1,2
256,128,76466,1,2
160,304,76895,6,0,B|256:368|352:304,3,200,0|0|8|0
400,216,78395,1,0
328,144,78609,1,0
256,216,78823,1,0
192,144,79037,1,0
120,216,79252,1,2
176,296,79466,2,0,B|256:400|352:288,1,200,8|0
256,72,80323,5,0
208,160,80537,1,0
304,160,80752,1,2
304,160,80966,1,2
352,248,81180,2,0,B|256:304|160:248,3,200,8|0|0|8
104,168,82680,1,0
168,88,82895,1,0
256,40,83109,1,0
344,88,83323,1,0
408,168,83537,1,2
344,240,83752,6,0,B|240:304,1,100,8|0
176,240,84180,2,0,B|264:296,1,100,2|0
260,293,84609,1,0
256,192,84823,1,2
256,192,85037,1,8
168,160,85252,1,0
168,64,85466,1,0
256,24,85680,1,0
344,64,85895,1,0
344,160,86109,1,2
256,192,86323,1,8
256,368,86752,1,4
120,152,87180,5,0
120,152,87395,1,0
160,64,87609,1,0
256,40,87823,1,2
256,40,88037,1,8
352,64,88252,1,0
392,152,88466,1,0
392,152,88680,1,2
352,248,88895,2,0,B|256:296|160:248,3,200,8|0|2|0
72,200,90395,5,0
72,104,90609,1,4
160,152,90823,1,0
160,56,91037,1,0
256,32,91252,1,0
352,48,91466,1,8
352,144,91680,1,0
440,96,91895,1,0
440,200,92109,1,2
352,248,92323,2,0,B|256:312|136:232,1,200,8|0
104,168,92966,1,2
168,88,93180,1,8
256,32,93395,1,0
336,88,93609,1,0
392,168,93823,1,0
256,176,94037,6,0,B|256:320,3,100,0|0|0|2
160,336,94895,2,0,B|256:376|360:336,1,200,8|0
440,280,95537,1,0
360,216,95752,1,0
424,136,95966,1,0
344,80,96180,1,0
256,40,96395,1,2
168,80,96609,1,8
88,136,96824,1,0
152,216,97037,5,0
72,280,97252,1,0
160,352,97466,2,0,B|256:296|352:352,3,200,4|0|2|8
448,336,98966,1,0
384,264,99180,1,0
304,200,99395,1,0
336,104,99609,1,0
256,48,99823,1,0
168,104,100037,1,2
208,200,100252,1,4
128,264,100466,1,2
64,344,100680,1,8
256,192,100895,12,2,104323
152,256,118037,5,0
208,336,118252,1,0
304,336,118466,1,0
360,256,118680,1,2
256,232,118895,2,0,B|256:96,1,100,8|0
160,80,119323,2,0,B|272:32,1,100
344,80,119752,2,0,B|232:32,1,100
256,144,120180,1,0
192,216,120395,1,2
168,312,120609,1,8
256,352,120823,1,0
352,312,121037,1,0
312,216,121252,1,2
352,120,121466,6,0,B|256:64|152:120,3,200,4|0|8|2
72,168,122966,1,0
120,256,123180,1,0
216,288,123395,1,0
256,200,123609,1,2
256,200,123823,1,8
296,288,124037,1,0
392,256,124252,1,0
440,168,124466,1,0
360,104,124680,6,0,B|224:96,1,100,2|4
160,104,125109,2,0,B|264:96,1,100
256,96,125537,1,0
256,144,125645,1,0
256,192,125752,1,8
400,240,125966,5,0
344,328,126180,1,0
256,280,126395,1,2
168,328,126609,1,8
168,328,126823,1,0
112,240,127037,1,0
112,240,127252,1,0
160,152,127466,2,0,B|256:112|376:160,3,200,8|0|8|0
456,176,128966,5,2
416,88,129180,1,8
336,32,129395,1,0
256,96,129609,1,0
184,32,129823,1,0
104,88,130037,1,2
56,176,130252,1,0
168,256,130466,2,0,B|256:336|352:256,3,200,8|0|0|4
432,192,131966,5,2
360,120,132180,1,0
256,144,132395,1,2
136,120,132609,1,8
72,192,132823,1,0
136,264,133037,1,0
208,336,133252,1,2
304,336,133466,1,0
368,264,133680,1,2
352,168,133895,2,8,B|256:112|160:168,2,200,0|2|4
96,248,135180,5,8
192,272,135394,1,0
256,344,135608,1,0
320,272,135823,1,2
416,248,136037,1,8
416,248,136252,1,0
256,192,136466,12,2,138180
456,192,138609,5,2
400,272,138823,1,0
312,232,139037,1,0
256,312,139252,1,2
200,232,139466,1,8
112,272,139680,1,0
56,192,139895,1,0
56,192,140109,1,0
136,128,140323,2,0,B|248:56,3,100,0|0|0|2
288,72,141180,2,0,B|400:144,3,100,8|0|0|0
432,192,142037,5,2
392,280,142252,1,0
304,328,142466,1,0
256,240,142680,1,2
208,328,142895,1,8
120,280,143109,1,0
64,192,143323,1,0
160,168,143537,1,0
256,128,143752,1,0
352,168,143966,1,0
256,240,144180,2,0,B|256:360,4,100,0|0|2|0|2
256,136,145252,1,8
256,32,145466,1,4
128,104,162609,6,0,B|192:32|320:32|400:104,1,300,0|2
352,200,163466,2,0,B|240:240,1,100,8|0
160,200,163895,2,0,B|272:240,1,100,2|0
160,296,164323,2,0,B|256:360|368:288,3,200,0|0|8|2
152,288,166037,6,0,B|64:192|168:112,1,200
256,72,166680,1,2
328,144,166895,2,0,B|416:240|312:320,1,200,8|0
256,352,167537,1,0
208,264,167752,1,0
304,264,167966,1,2
304,264,168180,1,8
256,176,168395,1,0
176,112,168609,1,2
256,48,168823,1,0
336,112,169037,1,2
336,112,169252,1,2
352,208,169466,2,0,B|256:264|144:200,3,200,0|0|8|2
416,176,171180,5,2
376,88,171395,1,0
296,152,171609,1,0
256,56,171823,1,2
224,152,172037,1,8
152,88,172252,1,0
104,176,172466,1,0
104,176,172680,1,0
168,256,172895,2,0,B|256:336|360:248,3,200,4|2|4|8
424,184,174395,1,0
344,128,174609,1,0
256,80,174823,1,2
168,128,175037,1,8
80,184,175252,1,2
176,232,175466,2,0,B|280:304,1,100,8|0
336,232,175895,2,0,B|232:304,1,100,8|2
256,192,176323,12,0,178037
72,160,178466,5,0
136,80,178680,1,2
208,152,178895,1,8
256,64,179109,1,0
296,152,179323,1,0
360,72,179537,1,0
416,160,179752,1,2
344,344,180180,2,2,B|240:248|144:368,3,200
64,168,181895,5,0
152,216,182109,1,2
208,128,182323,1,8
256,40,182537,1,0
304,128,182752,1,0
344,216,182966,1,2
432,168,183180,1,8
336,344,183609,1,0
256,288,183823,1,2
168,344,184037,1,8
120,152,184466,5,2
192,80,184680,1,0
256,160,184895,1,2
320,80,185109,1,0
384,152,185323,1,8
256,304,185752,1,0
256,304,185966,1,2
256,304,186180,1,8
256,192,186609,12,4,190037
