osu file format v9

[General]
AudioFilename: 05.Polyushko-Pole.mp3
AudioLeadIn: 0
PreviewTime: 118037
Countdown: 1
SampleSet: Soft
StackLeniency: 0.7
Mode: 0
LetterboxInBreaks: 1

[Editor]
Bookmarks: 28895,56323,63180,90609,100895,104323,114609,118037,131752,145466,155752,159180,162609,200323,203752
DistanceSpacing: 1
BeatDivisor: 4
GridSize: 8

[Metadata]
Title:Polyushko-Pole
Artist:Origa
Creator:Nekoroll
Version:Normal
Source:
Tags:russian dkun

[Difficulty]
HPDrainRate:4
CircleSize:4
OverallDifficulty:4
ApproachRate:5
SliderMultiplier:1.4
SliderTickRate:2

[Events]
//Background and Video events
0,0,"--52100-motorcycle-scenic-sky.jpg"
//Break Periods
2,56523,61980
2,145665,154552
//Storyboard Layer 0 (Background)
//Storyboard Layer 1 (Fail)
//Storyboard Layer 2 (Pass)
//Storyboard Layer 3 (Foreground)
//Storyboard Sound Samples
//Background Colour Transformations
3,100,163,162,255

[TimingPoints]
1466,428.571428571429,4,2,0,60,1,0
63180,-100,4,2,0,40,0,0
70787,-100,4,2,0,30,0,0
71002,-100,4,2,0,40,0,0
71645,-100,4,2,0,30,0,0
71859,-100,4,2,0,40,0,0
72502,-100,4,2,0,30,0,0
72716,-100,4,2,0,40,0,0
73787,-100,4,2,0,30,0,0
74002,-100,4,2,0,40,0,0
74645,-100,4,2,0,30,0,0
74859,-100,4,2,0,40,0,0
75502,-100,4,2,0,30,0,0
75716,-100,4,2,0,40,0,0
79787,-100,4,2,0,20,0,0
80002,-100,4,2,0,40,0,0

[Colours]
Combo1 : 255,230,255
Combo2 : 189,230,253
Combo3 : 182,243,180
Combo4 : 250,254,197

[HitObjects]
208,48,28895,2,0,B|256:64|256:160|208:176,1,140,2|0
96,112,29752,2,0,B|48:128|48:224|96:240,1,140,8|0
184,328,30609,1,2
320,344,31037,1,0
456,328,31466,1,8
464,192,31895,5,4
328,224,32323,2,0,B|360:176|344:112|297:96,1,140,2|0
257,50,32966,1,0
207,99,33180,2,0,B|170:110|154:174|186:222,1,140,2|0
136,272,33823,1,0
256,336,34252,1,0
384,272,34680,1,0
256,104,35323,5,0
256,176,35537,1,0
200,224,35752,2,0,B|208:272|304:272|312:224,1,140
368,272,36395,1,0
368,272,36609,2,0,B|344:344|256:360|168:344|144:272,1,280,8|0
80,152,37895,5,0
176,56,38323,1,8
224,40,38537,1,0
288,40,38752,1,4
336,56,38966,1,0
328,128,39180,6,0,B|328:232|184:168|184:272,2,210,2|0|2
184,128,40895,2,0,B|184:232|328:168|328:272,2,210,2|0|2
152,48,42609,6,0,B|56:48|56:144,2,140,4|0|8
360,48,44109,2,0,B|456:48|456:144,2,140,2|0|2
256,232,45609,5,2
256,160,45823,1,0
256,88,46037,2,0,B|368:88|368:160,1,140
256,88,46895,2,0,B|144:88|144:160,1,140
168,216,47537,1,2
256,320,47966,1,0
352,216,48395,1,2
464,280,49037,5,2
456,208,49252,1,2
408,152,49466,2,0,B|312:153|312:56,1,140,0|2
256,32,50109,1,0
200,72,50323,2,0,B|200:152|104:152,1,140,8|0
120,288,51180,1,0
256,264,51609,1,0
384,200,52037,2,0,B|416:168|408:120,2,70,8|0|0
256,144,52895,6,0,B|232:224|120:224|96:144,2,210,0|2|0
256,288,54609,2,0,B|280:208|392:208|416:288,2,210,0|2|0
256,144,56323,1,4
192,192,63180,6,0,B|144:192|112:240|144:304,2,140,2|0|8
256,96,64466,1,0
320,192,64895,2,0,B|368:192|400:240|368:304,2,140,2|0|8
256,288,66180,1,0
192,192,66609,6,0,B|128:144,2,70,2|0|8
256,72,67466,2,0,B|256:-8,2,70,2|0|8
320,192,68323,2,0,B|384:144,2,70,2|0|8
256,288,69180,1,0
256,176,69609,1,2
256,64,70037,1,8
144,96,70466,6,0,B|96:96|64:112,2,70,2|0|8
112,208,71323,2,0,B|70:231|50:261,2,70,2|0|8
192,288,72180,2,0,B|168:329|165:365,2,70,2|0|8
256,192,73038,1,8
320,288,73466,6,0,B|344:329|346:365,2,70,0|0|8
400,208,74323,2,0,B|441:231|461:261,2,70,0|0|8
368,96,75180,2,0,B|416:96|448:112,2,70,0|0|8
320,192,76037,1,2
208,192,76466,1,8
128,128,76895,6,0,B|192:64|240:64|296:144|336:144|384:112,1,280,4|8
400,224,78180,1,2
400,224,78609,2,0,B|336:288|288:288|232:208|192:208|144:240,1,280,8|8
144,240,79895,1,4
144,128,80323,6,0,B|208:176,1,70,2|0
240,128,80752,2,0,B|304:176,1,70,2|0
256,208,81180,2,0,B|320:256,1,70,2|0
352,208,81609,2,0,B|416:256,2,70,0|0|2
448,160,82466,5,0
368,80,82895,1,8
256,48,83323,1,0
256,48,83537,1,2
256,48,83752,1,8
256,192,84180,12,4,86752
256,192,87180,12,4,90180
144,96,90609,6,0,B|224:112|272:192,1,140,2|0
372,96,91466,2,0,B|292:112|244:192,1,140,2|2
256,240,92109,1,8
184,360,92538,1,8
320,360,92966,1,8
408,248,93395,5,0
384,184,93609,2,0,B|320:40,1,140,0|2
184,56,94466,2,0,B|120:200,1,140,8|2
256,128,95323,1,8
256,200,95537,1,2
192,320,95966,2,0,B|336:320,1,140,2|8
256,128,97037,5,0
256,128,97252,1,2
256,128,97466,1,8
256,272,97895,5,0
256,272,98109,1,2
256,272,98323,1,8
256,192,98752,12,8,100466
184,112,100895,6,0,B|120:128|104:192|120:256|200:272,2,210,0|2|8
328,112,102609,2,0,B|392:128|408:192|392:256|312:272,2,210,0|2|12
416,64,104323,5,0
320,112,104752,1,8
256,192,105180,2,0,B|256:288,2,70,0|0|2
256,192,105823,1,2
176,112,106252,1,8
80,64,106680,1,2
144,224,107323,6,0,B|96:288,2,70,2|0|8
256,256,108180,2,0,B|256:336,2,70,2|0|8
368,224,109037,2,0,B|416:288,2,70,2|0|8
256,176,109895,1,2
256,176,110323,1,8
185,55,110752,5,0
185,55,110966,1,2
185,55,111180,2,0,B|257:32|329:55,1,140,8|0
324,123,111823,1,2
324,121,112037,2,0,B|252:144|180:121,2,140,8|0|0
256,240,113323,1,2
256,240,113752,2,0,B|256:320,2,70,2|0|8
256,192,114609,12,0,117609
256,80,118037,6,0,B|256:240,2,140,2|0|8
256,80,119323,1,2
208,208,119752,2,0,B|176:272|256:320|336:272|304:208,2,210,8|0|8
200,68,121466,6,0,B|271:119,1,70,8|0
313,67,121895,2,0,B|242:118,1,70,2|0
256,180,122323,1,8
160,272,122752,2,0,B|224:320|304:320|352:272,2,210,0|0|8
256,176,124466,1,0
256,176,124895,6,0,B|256:24,1,140,2|0
144,112,125752,1,8
184,248,126180,1,0
328,248,126609,1,2
368,112,127037,1,0
256,192,127466,6,0,B|256:336,1,140,8|0
368,256,128323,1,2
328,120,128751,1,0
184,120,129180,1,8
144,256,129608,1,0
256,344,130037,1,0
256,200,130466,2,0,B|256:48,2,140,0|8|0
192,72,131752,6,0,B|256:112|328:72,2,140,2|0|8
192,72,133037,1,0
256,192,133466,2,0,B|200:256,1,70,0|2
256,192,133895,2,0,B|312:256,2,70,0|2|0
256,336,134752,1,8
160,232,135180,6,0,B|216:184,1,70,2|0
272,216,135609,2,0,B|328:168,1,70,2|0
376,128,136037,1,8
256,192,136466,12,0,138609
323,88,139037,5,0
352,226,139466,1,8
216,256,139895,1,0
187,120,140323,1,2
320,88,140752,1,0
320,88,141180,2,0,B|392:96|440:184|392:280|320:288,1,280,8|2
199,244,142466,5,0
251,111,142895,1,8
380,164,143324,1,0
329,292,143752,1,2
191,292,144180,1,0
191,292,144608,2,4,B|119:284|71:196|119:100|191:92,1,280,8|6
72,176,155752,6,0,B|134:113|196:176,1,140
134,215,156395,2,0,B|196:277|258:215,1,140,2|0
196,176,157037,2,0,B|258:113|320:175,1,140,0|0
258,215,157680,2,0,B|320:277|382:215,1,140,2|0
320,176,158323,2,0,B|382:113|444:176,1,140,0|2
256,192,159180,12,4,162609
256,272,163037,6,0,B|256:368,2,70,0|0|8
256,128,163895,1,2
120,128,164323,2,0,B|184:168|256:128,1,140,0|2
392,128,165180,1,0
392,128,165609,2,0,B|328:168|256:128,1,140,0|8
128,184,166466,6,0,B|72:224,1,70,2|8
168,328,167109,1,0
344,328,167537,1,8
440,224,167966,2,0,B|384:184,1,70,2|8
256,120,168609,5,2
256,120,168823,1,0
256,192,169037,1,8
256,192,169252,1,0
320,224,169466,2,0,B|256:280|192:224,1,140,2|0
136,256,170109,2,0,B|184:320|256:336|328:320|376:256,1,280,2|8
256,184,171395,5,2
256,184,171609,1,0
120,176,172037,2,0,B|128:104|224:104,1,140,2|0
292,104,172680,2,0,B|384:104|396:184,1,140,8|0
336,304,173537,1,8
256,192,173966,1,0
176,304,174395,1,8
256,192,174823,5,2
256,192,175037,1,0
184,72,175466,1,2
253,72,175680,2,0,B|253:136,2,35,2|0|0
323,72,176109,1,0
312,144,176323,6,0,B|391:146|416:70,2,140,8|0|2
256,272,177609,1,2
200,144,178037,2,0,B|120:146|95:70,2,140,8|0|0
256,272,179323,1,2
256,128,179752,6,0,B|120:216,1,140,8|0
138,204,180395,1,2
256,272,180823,1,2
376,200,181252,2,8,B|240:112,1,140
258,123,181895,1,8
152,216,182323,5,0
216,240,182537,1,8
288,240,182752,1,4
352,216,182966,1,0
320,152,183180,2,0,B|176:152,1,140,2|0
128,104,183823,2,0,B|200:40|312:40|384:112,1,280,2|0
256,160,185109,5,2
256,160,185323,1,0
192,280,185752,2,0,B|256:312|328:280,1,140
384,240,186395,2,0,B|416:168|256:96|112:168|136:248,2,350
184,312,189180,1,8
328,312,189609,1,0
256,192,190037,1,4
