osu file format v9

[General]
AudioFilename: 05.Polyushko-Pole.mp3
AudioLeadIn: 0
PreviewTime: 118037
Countdown: 1
SampleSet: Soft
StackLeniency: 0.7
Mode: 0
LetterboxInBreaks: 1

[Editor]
Bookmarks: 28895,56323,63180,90609,100895,104323,114609,118037,131752,145466,155752,159180,162609,190037,200323,203752
DistanceSpacing: 0.8
BeatDivisor: 4
GridSize: 8

[Metadata]
Title:Polyushko-Pole
Artist:Origa
Creator:Nekoroll
Version:Easy
Source:
Tags:russian dkun

[Difficulty]
HPDrainRate:2
CircleSize:3
OverallDifficulty:3
ApproachRate:3
SliderMultiplier:1.4
SliderTickRate:2

[Events]
//Background and Video events
0,0,"--52100-motorcycle-scenic-sky.jpg"
//Break Periods
2,56523,61740
2,145666,154312
//Storyboard Layer 0 (Background)
//Storyboard Layer 1 (Fail)
//Storyboard Layer 2 (Pass)
//Storyboard Layer 3 (Foreground)
//Storyboard Sound Samples
//Background Colour Transformations
3,100,163,162,255

[TimingPoints]
1466,428.571428571429,4,2,0,40,1,0
63180,-100,4,2,0,30,0,0

[Colours]
Combo1 : 255,230,255
Combo2 : 189,230,253
Combo3 : 182,243,180
Combo4 : 250,254,197

[HitObjects]
208,224,28895,2,0,B|152:160|208:96,1,140,2|0
304,48,29752,2,0,B|360:112|304:176,1,140,2|0
296,288,30609,1,2
192,320,31037,1,0
96,264,31466,1,4
144,48,32323,6,0,B|248:48|256:144,1,140,2|0
360,48,33180,2,0,B|256:48|248:144,1,140,2|0
328,200,34037,2,0,B|256:232|184:200,2,140,2|0|8
184,32,35752,6,0,B|256:64|328:32,1,140
392,120,36609,2,0,B|256:184|112:120,2,280,8|2|8
256,296,39180,5,2
144,288,39609,2,0,B|160:184|224:176,1,140,0|8
256,72,40466,1,2
296,176,40895,2,0,B|351:182|367:286,2,140
400,144,42180,1,4
328,64,42609,6,0,B|256:40|184:64,1,140
256,152,43466,1,8
184,320,44109,2,0,B|256:344|328:320,1,140
256,232,44966,1,8
256,64,45609,5,2
320,152,46037,2,2,B|176:152,1,140
184,264,46895,2,2,B|328:264,1,140
424,208,47752,1,8
360,120,48180,1,2
256,80,48609,1,8
328,296,49466,6,2,B|256:320|184:296,1,140
152,192,50323,2,0,B|224:240|288:240|352:192,2,210,0|8|8
256,144,52037,2,0,B|256:56,2,70,0|0|4
200,240,52895,6,0,B|80:192|128:64,2,210
312,240,54609,2,0,B|432:192|384:64,2,210
256,144,56323,1,4
144,184,63180,6,0,B|144:288|232:288,2,140,0|0|8
256,160,64466,1,0
368,184,64895,2,0,B|368:288|280:288,2,140,0|0|8
368,72,66180,1,2
256,48,66609,5,2
200,144,67037,1,0
312,144,67466,1,2
320,256,67895,2,0,B|256:304|192:256,2,140,8|0|8
256,160,69180,1,0
192,64,69609,2,0,B|256:16|320:64,1,140
256,192,70466,12,8,73037
256,192,73466,12,2,76466
160,136,76895,6,0,B|112:160|112:224|160:248,1,140,8|2
256,304,77752,1,2
256,192,78180,1,2
352,136,78609,2,0,B|400:160|400:224|352:248,2,140,0|0|2
256,80,79895,1,8
256,192,80323,5,0
312,288,80752,1,0
368,192,81180,1,8
312,96,81609,1,0
200,96,82037,5,2
136,192,82466,1,0
200,288,82895,1,2
256,192,83323,1,10
256,192,83752,1,0
256,192,84180,12,2,86752
256,192,87180,12,2,90180
200,57,90609,5,2
312,57,91037,1,8
360,160,91466,2,0,B|256:112|152:160,1,210,2|2
200,264,92537,1,8
312,264,92966,1,2
256,104,93609,5,0
344,176,94037,2,0,B|424:200|448:280,2,140
176,176,95537,2,0,B|96:200|72:280,2,140
312,80,97037,5,0
304,192,97466,1,2
208,128,97895,1,0
200,240,98323,1,8
256,192,98752,12,0,100466
160,136,100895,6,0,B|112:160|112:232|168:256,2,140,0|2|0
256,192,102180,1,8
352,136,102609,2,0,B|400:160|400:232|344:256,2,140,0|2|2
256,192,103895,1,4
200,96,104323,5,0
312,96,104752,1,2
416,136,105180,2,0,B|392:272|320:216|312:312,1,210,8|8
256,208,106252,1,2
199,309,106680,2,0,B|192:216|120:272|96:136,1,210,8|8
168,56,107752,6,0,B|256:80|256:176,1,140,8|2
344,56,108609,2,0,B|256:80|256:176,1,140,8|2
192,248,109466,2,8,B|256:288|256:288|312:248,2,140
256,160,110752,5,2
320,72,111180,2,0,B|256:40|184:72,1,140,8|0
136,176,112037,2,0,B|144:280|256:320|360:280|376:168,2,350,8|10|4
56,256,114609,1,0
56,144,115037,6,0,B|96:72|176:96,1,140
256,168,115895,1,0
337,95,116323,2,0,B|416:72|456:144,2,140
256,168,117609,1,0
192,264,118037,6,0,B|224:272|256:240|256:240|288:272|320:264,2,140,8|0|8
88,312,119323,1,2
104,200,119752,2,2,B|184:168|264:64|264:64|344:168|424:200,1,420,2|8
352,288,121466,5,0
256,232,121895,1,2
160,288,122323,1,8
256,192,122752,12,8,124895
176,176,125323,5,0
144,72,125752,1,0
256,104,126180,1,0
360,72,126609,1,0
328,176,127037,1,0
256,264,127466,2,0,B|256:336,2,70,8|0|0
336,192,128323,5,0
368,296,128752,1,0
256,264,129180,1,0
152,296,129609,1,0
184,192,130037,1,0
256,104,130466,2,0,B|256:32,2,70,8|0|0
256,216,131323,1,0
176,296,131752,6,2,B|128:272|128:208|176:184,1,140
256,112,132609,1,0
256,112,133037,1,8
344,184,133466,2,2,B|392:208|392:272|344:296,2,140
424,104,134752,1,8
312,88,135180,5,0
200,88,135609,1,0
144,184,136037,1,0
208,280,136466,1,0
320,280,136894,5,0
384,192,137323,1,0
320,104,137752,1,0
256,200,138180,1,2
256,200,138609,1,8
256,192,139037,12,2,141609
256,192,142037,12,4,145466
192,336,155752,6,0,B|56:280,1,140,2|0
168,248,156609,2,0,B|111:112,1,140,2|0
216,168,157466,2,0,B|272:32,1,140,2|0
304,144,158323,2,0,B|440:88,1,140,2|2
256,192,159180,12,4,162180
168,328,162609,6,0,B|256:304|256:208,1,140,0|2
344,328,163466,2,0,B|256:304|256:208,1,140,8|0
200,136,164323,2,0,B|133:171|133:171|139:239,2,140,2|0|8
256,232,165609,1,0
312,136,166037,2,0,B|378:171|378:171|372:239,2,140,0|0|8
256,296,167537,1,0
256,184,167966,2,0,B|256:104,1,70
360,80,168609,6,0,B|432:216,1,140,2|0
368,304,169466,1,0
312,208,169895,1,0
200,208,170323,1,8
136,304,170752,1,0
86,203,171180,2,0,B|152:80,1,140,2|0
256,120,172037,1,0
256,232,172466,2,0,B|256:320,1,70
256,192,172895,12,4,175895
152,224,176323,6,0,B|112:296|112:296|160:352,2,140,2|0|8
256,184,177609,1,0
368,160,178037,2,0,B|408:88|408:88|360:32,2,140,2|0|8
360,272,179323,1,0
256,312,179752,5,2
152,272,180180,1,0
256,232,180609,1,2
216,128,181037,2,0,B|208:56,1,70,8|2
296,128,181680,2,0,B|304:56,1,70,8|2
408,88,182323,5,0
368,192,182752,1,0
313,289,183180,1,2
201,289,183609,1,0
144,192,184037,1,2
144,80,184466,2,0,B|208:32,1,70
312,40,185109,2,0,B|368:82,1,70
256,104,185752,1,0
256,216,186180,2,0,B|256:288,2,70,0|0|8
184,304,187037,5,0
120,216,187465,1,2
160,112,187894,1,0
256,56,188322,1,2
352,112,188751,1,0
384,216,189179,1,8
304,296,189608,1,8
256,192,190037,5,4
