osu file format v6

[General]
AudioFilename: Shoreline.mp3
AudioLeadIn: 1500
PreviewTime: 70701
Countdown: 1
SampleSet: Soft
StackLeniency: 0.7
Mode: 0
LetterboxInBreaks: 1

[Editor]
DistanceSpacing: 0.800000011920929
BeatDivisor: 4
GridSize: 16

[Metadata]
Title:Shoreline
Artist:Oriental ST8
Creator:supergarlic
Version:Hard Style
Source:
Tags:DJMAX ztrot

[Difficulty]
HPDrainRate:7
CircleSize:4
OverallDifficulty:7
SliderMultiplier:1.6
SliderTickRate:1

[Events]
//Background and Video events
0,0,"Shoreline.jpg"
//Break Periods
//Storyboard Layer 0 (Background)
//Storyboard Layer 1 (Fail)
//Storyboard Layer 2 (Pass)
//Storyboard Layer 3 (Foreground)
//Storyboard Sound Samples
//Background Colour Transformations
3,100,163,162,255

[TimingPoints]
34,444.444444444444,4,2,1,48,1,0
12367,-100,4,1,0,38,0,0
14034,-100,4,1,1,48,0,0
24812,-100,4,2,0,42,0,0
25701,-100,4,1,0,42,0,0
25923,-100,4,2,0,54,0,0
26145,-100,4,2,0,42,0,0
27256,-100,4,2,0,51,0,0
27701,-100,4,2,0,62,0,0
28145,-100,4,1,0,49,0,0
28479,-100,4,2,0,76,0,0
28590,-100,4,2,0,40,0,0
42590,-100,4,1,0,40,0,0
42590,-100,4,1,0,40,0,0
42812,-100,4,2,0,51,0,0
55034,-100,4,1,0,41,0,0
55979,-100,4,2,0,65,0,0
56902,-100,4,1,0,56,0,0
81812,-100,4,1,0,42,0,0
85367,-100,4,2,0,69,0,0
85479,-100,4,2,0,0,0,0

[Colours]
Combo1 : 228,163,228
Combo2 : 162,32,32
Combo3 : 3,3,173
Combo4 : 240,5,5

[HitObjects]
160,64,34,5,0
208,208,368,1,0
208,224,479,1,0
256,112,701,1,0
304,224,923,1,0
304,208,1034,1,0
352,64,1367,1,0
128,64,1812,6,0,B|48:144|144:224,1,160,0|4
384,320,2701,2,0,B|464:240|368:160,1,160,0|4
256,80,3590,6,0,B|256:224,1,120
256,200,4034,1,0
256,304,4256,1,0
160,256,4479,1,0
160,256,4590,1,0
64,304,4812,1,0
64,304,4923,1,0
64,48,5367,6,0,B|144:128|224:32,1,160,0|4
448,336,6256,2,0,B|368:256|288:352,1,160,0|4
48,128,7145,5,0
80,272,7479,1,0
96,256,7590,1,0
144,352,7812,1,0
208,272,8034,1,0
192,256,8145,1,0
240,128,8479,1,0
336,320,8923,6,0,B|416:240|384:144,1,160,0|4
176,64,9812,2,0,B|96:144|128:240,1,160,0|4
176,304,10701,5,0
320,240,11034,1,0
304,240,11145,1,0
208,192,11367,1,0
304,144,11590,1,0
320,144,11701,1,0
176,80,12034,1,0
232,336,12479,5,0
280,320,12590,1,0
232,304,12701,1,0
280,288,12812,1,0
232,272,12923,1,0
280,256,13034,1,0
232,240,13145,1,0
280,224,13256,1,0
232,208,13367,1,0
280,192,13479,1,0
232,176,13590,1,0
280,160,13701,1,0
232,144,13812,1,4
96,272,14256,6,0,B|32:208|128:144,1,120,0|0
97,167,14701,1,8
192,224,14923,1,0
192,320,15145,1,0
288,272,15367,1,0
288,176,15590,1,8
496,128,16034,6,0,B|496:64|416:64,1,80
368,160,16479,2,0,B|368:224|448:224,1,80,8|0
256,96,17145,2,0,B|256:160|320:160,1,80,0|8
128,320,17812,5,0
128,320,18145,1,0
128,304,18256,1,8
208,240,18479,1,0
176,160,18701,1,0
80,160,18923,1,0
48,240,19145,1,8
336,320,19590,5,0
432,320,19812,1,0
336,256,20034,1,8
432,256,20256,1,0
336,192,20479,1,0
384,192,20590,1,8
432,192,20701,1,0
384,112,20923,1,8
48,96,21368,5,0
48,256,21701,1,0
64,272,21812,1,8
176,272,22034,2,0,B|208:320|240:272,1,80
208,176,22479,2,0,B|240:128|272:176,1,80,0|8
416,64,23145,6,0,B|480:64|464:144,1,80
464,224,23590,2,0,B|464:288|384:272,1,80,8|0
304,272,24034,2,0,B|240:272|256:192,1,80
256,96,24479,1,8
256,112,24590,1,8
256,128,24701,1,8
160,192,24923,5,0
352,192,25145,1,0
256,288,25367,2,0,B|256:320,3,20
432,192,25701,5,0
80,192,26034,1,4
256,192,26256,5,0
256,96,26479,2,0,B|256:64,4,20
256,288,26923,1,0
256,288,27034,1,0
256,288,27145,1,0
160,128,27367,1,0
160,128,27479,1,0
160,128,27590,1,0
352,128,27812,1,0
352,128,27923,1,0
352,128,28034,1,0
256,192,28256,6,0,B|256:224,4,20,0|0|0|0|4
176,304,28812,1,0
336,304,29145,1,0
400,192,29479,1,0
336,80,29812,1,0
176,80,30145,1,0
96,192,30479,1,0
176,304,30812,1,0
336,304,31145,1,0
400,192,31479,1,0
336,80,31812,5,0
176,80,32145,1,0
96,192,32479,1,0
176,304,32812,1,0
336,304,33145,1,0
400,192,33479,1,0
336,80,33812,5,0
176,80,34145,1,0
96,192,34479,1,0
176,304,34812,1,0
256,192,35145,1,0
256,192,35367,1,0
320,304,35590,5,0
400,192,35923,1,0
336,80,36256,1,0
176,80,36589,1,0
96,192,36923,1,0
176,304,37256,1,0
320,304,37590,5,0
400,192,37923,1,0
336,80,38256,1,0
176,80,38589,1,0
96,192,38923,1,0
176,304,39256,1,0
336,304,39590,5,0
400,192,39923,1,0
336,80,40256,1,0
176,80,40589,1,0
96,192,40923,1,0
176,304,41256,1,0
336,304,41590,1,0
400,192,41923,1,0
256,192,42256,1,0
256,192,42479,1,0
256,192,42701,5,0
176,64,43034,1,0
336,64,43367,1,0
256,192,43701,1,0
176,304,44034,1,0
336,304,44367,1,0
256,192,44701,1,0
256,192,45034,1,0
256,192,45367,1,0
256,192,45701,1,0
176,64,46034,5,0
336,64,46367,1,0
256,304,46701,6,0,B|304:336,1,40,2|0
256,64,47034,2,0,B|208:32,1,40,2|2
320,256,47367,2,0,B|368:272,1,40,2|0
192,112,47701,2,0,B|144:96,1,40,2|2
368,192,48034,2,0,B|416:192,1,40,2|0
144,192,48367,2,0,B|64:192,1,40,2|2
336,112,48701,2,0,B|400:80,1,40,2|0
192,272,49034,2,2,B|128:304,1,40,2|2
256,192,49367,6,0,B|256:144,1,40,2|0
256,192,49590,2,2,B|256:272,1,40
256,304,49812,6,0,B|208:336,1,40,2|0
256,64,50145,2,0,B|304:32,1,40,2|2
192,256,50478,2,0,B|144:272,1,40,2|0
320,112,50812,2,0,B|368:96,1,40,2|2
144,192,51145,2,0,B|96:192,1,40,2|0
368,192,51478,2,0,B|448:192,1,40,2|2
176,112,51812,2,0,B|112:80,1,40,2|0
336,272,52145,2,0,B|384:304,1,40,2|2
256,80,52479,6,0,B|256:144,1,40,2|0
256,304,52812,2,0,B|256:256,1,40,2|2
176,112,53145,2,0,B|224:160,1,40,2|0
336,272,53479,2,0,B|304:240,1,40,2|2
144,192,53812,2,0,B|192:192,1,40,2|0
368,192,54145,2,0,B|320:192,1,40,2|2
176,272,54479,2,0,B|208:240,1,40,2|0
336,112,54812,2,0,B|288:160,1,40,2|2
224,80,55145,5,0
256,96,55256,1,0
224,112,55367,1,0
256,128,55479,1,0
224,144,55590,1,0
256,160,55701,1,0
224,176,55812,1,0
256,192,55923,1,0
256,256,56034,6,0,B|256:288,4,20
256,192,56367,1,0
288,176,56479,1,0
256,160,56590,1,0
288,144,56701,1,0
256,128,56812,1,0
288,112,56923,1,4
64,240,57590,6,0,B|80:384|160:384|160:192,1,240
112,160,58479,1,0
136,200,58590,1,0
158,240,58701,2,0,B|174:96|254:96|254:288,1,240,0|0
304,320,59590,1,0
368,256,59812,1,0
416,176,60034,6,0,B|416:128,2,40
336,96,60479,2,0,B|336:48,2,40,4|0|0
256,160,60923,2,0,B|256:208,2,40
176,96,61367,2,0,B|176:32,2,40,4|0|0
96,176,61812,2,0,B|96:112,2,40
128,320,62256,6,0,B|192:384|256:288,1,120,4|0
232,318,62701,2,0,B|160:240|256:144,1,160
288,240,63367,2,0,B|384:240,1,80
368,240,63812,1,0
368,240,64034,6,0,B|448:160|352:96,1,160,0|0
304,176,64701,2,0,B|224:112|320:32,1,160
365,104,65367,1,0
365,104,65590,1,0
365,104,65812,5,0
160,102,66256,1,0
186,208,66479,2,0,B|266:288|332:196,1,160
432,208,67145,2,0,B|432:304|320:336,1,160
256,336,67812,1,0
174,329,68034,2,0,B|81:306|76:192,1,160
77,214,68590,1,0
77,214,68701,1,0
77,214,68812,1,0
77,214,68923,1,0
256,80,69367,5,0
192,256,69701,1,4
352,144,70034,1,0
160,144,70367,1,4
320,256,70701,1,0
256,176,70923,1,4
256,176,71145,5,4
64,144,71590,6,0,B|64:64|112:64|160:64|160:144,1,160
128,192,72256,1,0
160,272,72479,2,0,B|160:336|240:336,1,80
240,256,72923,6,0,B|288:256|288:128|352:144,1,160
416,192,73590,2,0,B|480:192|480:80|400:80,1,160
340,142,74256,1,0
340,142,74479,1,0
340,142,74701,6,0,B|256:80|208:176,1,160
288,208,75367,1,0
288,208,75812,1,0
336,272,76034,2,0,B|304:320|256:272,1,80
176,288,76479,5,0
112,112,76923,1,0
208,112,77145,1,0
272,288,77590,1,0
368,288,77812,1,0
336,192,78034,1,0
411,137,78256,6,0,B|331:57|235:153,1,160
267,125,78923,1,0
267,125,79145,1,0
176,128,79367,2,0,B|176:176|112:192,1,80
128,224,79701,1,0
160,224,79812,1,0
208,304,80034,6,0,B|256:304|256:224|304:224,1,120
292,225,80479,1,0
384,224,80701,1,0
400,224,80812,2,0,C|416:224|416:176|400:176,1,80
384,176,81145,1,0
304,112,81367,1,0
304,112,81590,1,0
208,112,81812,5,0
208,272,82256,1,0
112,224,82479,1,0
352,208,82923,1,0
384,112,83145,1,0
288,128,83367,1,0
272,176,83479,1,0
256,224,83590,6,0,C|288:256,3,40
256,288,84034,6,0,C|224:320,3,40
192,288,84479,6,0,C|160:256,3,40
192,224,84923,6,0,C|240:176,3,40
256,160,85367,5,4
256,192,85479,12,0,87590
