osu file format v6

[General]
AudioFilename: Dear my Lady.mp3
AudioLeadIn: 0
PreviewTime: 61276
Countdown: 1
SampleSet: Normal
StackLeniency: 0.3
Mode: 0
LetterboxInBreaks: 1

[Editor]
DistanceSpacing: 0.800000011920929
BeatDivisor: 2
GridSize: 16

[Metadata]
Title:Dear My Lady
Artist:Oriental ST8
Creator:supergarlic
Version:Hard Style
Source:
Tags:DJMAX Black Square orz

[Difficulty]
HPDrainRate:7
CircleSize:4
OverallDifficulty:7
SliderMultiplier:1.8
SliderTickRate:0.5

[Events]
//Background and Video events
0,0,"djmax_bs_wall_053.jpg"
//Break Periods
//Storyboard Layer 0 (Background)
//Storyboard Layer 1 (Fail)
//Storyboard Layer 2 (Pass)
//Storyboard Layer 3 (Foreground)
//Storyboard Sound Samples
//Background Colour Transformations
3,100,163,162,255

[TimingPoints]
1980,468.75,4,1,0,60,1,0
15105,-100,4,1,0,40,0,0
15573,-100,4,1,0,51,0,0
16042,-100,4,1,0,60,0,0
16980,-100,4,1,0,69,0,1
29870,-100,4,1,0,69,0,0
31042,-100,4,1,0,61,0,0
31511,-100,4,1,0,51,0,0
31980,-100,4,1,0,70,0,0
46980,-200,4,1,0,72,0,0
55065,-200,4,1,0,0,0,0
55183,-200,4,1,0,72,0,0
55651,-200,4,1,0,0,0,0
56237,-200,4,1,0,69,0,0
56940,-200,4,1,0,0,0,0
57058,-200,4,1,0,71,0,0
60925,-100,4,1,0,0,0,0
61862,-100,4,1,0,70,0,0
61980,-100,4,1,0,70,0,1
63034,-100,4,2,0,68,0,1
63855,-100,4,1,0,68,0,1
67605,-100,4,2,0,68,0,1
69362,-100,4,1,0,68,0,1
76980,-100,4,1,0,68,0,0
91980,-100,4,1,0,68,0,1

[Colours]
Combo1 : 255,169,83
Combo2 : 128,255,0
Combo3 : 255,255,0
Combo4 : 0,168,0

[HitObjects]
64,64,1980,1,0
160,96,2214,1,0
64,144,2448,1,0
64,160,2565,1,0
64,256,2800,5,0
160,224,3034,1,0
160,208,3151,1,0
256,128,3386,1,0
352,160,3620,1,0
352,176,3737,1,0
352,192,3855,5,0
352,288,4089,2,0,B|304:288,2,45
256,224,4558,2,0,B|192:224,2,45
160,160,5026,2,0,B|96:160,2,45
176,144,5378,1,0
192,128,5495,1,0
208,112,5612,1,0
224,96,5730,5,0
320,128,5964,1,0
416,176,6198,1,0
416,192,6315,1,0
320,240,6550,1,0
224,272,6784,1,0
224,288,6901,1,0
128,240,7136,5,0
128,256,7253,1,0
128,272,7370,1,0
128,288,7487,1,0
128,304,7605,6,0,B|32:304,2,90
352,80,8542,5,0
352,80,8659,2,0,B|496:80,1,135
256,288,9480,5,0
256,96,9714,5,0
160,176,9948,1,0
160,160,10065,1,0
160,48,10300,1,0
64,96,10534,1,0
64,112,10651,1,0
64,224,10886,5,0
64,208,11003,1,0
64,192,11120,1,0
64,176,11237,1,0
64,160,11355,5,0
272,96,11589,6,0,B|224:48,1,45,2|0
240,288,11940,6,0,B|288:336,1,45,2|0
176,128,12292,6,0,B|112:128,1,45,2|0
336,256,12644,6,0,B|400:256,1,45,2|0
128,208,12995,6,0,B|80:256,1,45,2|0
384,176,13347,6,0,B|432:128,1,45,2|2
176,288,13698,6,0,B|176:352,1,45,2|0
336,96,14050,6,0,B|336:32,1,45,2|2
256,320,14402,6,0,B|304:368,1,45,2|0
256,64,14753,6,0,B|208:16,1,45,2|2
208,256,15105,6,0,B|256:256,1,45
304,224,15339,2,0,B|224:224,1,45
208,192,15573,2,0,B|256:192,1,45
304,160,15808,2,0,B|240:160,1,45
208,128,16042,2,0,B|256:128,1,45
304,96,16276,2,0,B|240:96,1,45
208,64,16511,2,0,B|256:64,1,45
304,32,16745,2,0,B|224:32,2,45,0|0|0
400,64,17214,5,0
448,144,17448,1,8
352,144,17683,1,0
400,224,17917,1,0
448,304,18151,1,0
352,304,18386,1,8
304,224,18620,1,0
192,304,18855,6,0,B|192:208,2,90,0|0|8
96,304,19558,2,0,B|96:240,1,45
96,224,19792,1,0
96,128,20026,6,0,B|144:128,1,45
176,128,20261,1,8
272,128,20495,6,0,B|272:176,1,45
272,208,20730,1,0
272,304,20964,6,0,B|400:304,1,90,0|8
240,80,21433,6,0,B|144:80,1,90
384,176,21901,6,0,B|384:64,1,90,0|8
144,208,22370,6,0,B|144:320,1,90
144,298,22722,1,2
144,298,22839,1,2
144,298,22956,1,2
144,298,23073,1,10
272,304,23308,6,0,B|224:256,1,45,0|10
240,160,23659,6,2,B|288:112,3,45,2|2|2|10
336,208,24245,1,0
416,144,24480,6,0,B|416:48,1,90
352,80,24948,2,0,B|272:0,1,90,8|0
256,80,25417,2,0,B|144:80,1,90
192,144,25886,2,0,B|112:224,1,90,8|0
192,240,26355,2,0,B|192:336,1,90
256,304,26823,2,0,B|336:384,1,90,8|0
352,304,27292,2,0,B|464:304,1,90
416,240,27761,2,0,B|496:160,1,90,8|0
384,64,28230,5,0
288,64,28464,1,0
208,144,28698,1,8
304,144,28933,1,0
224,224,29167,1,0
128,224,29401,1,0
64,304,29636,1,8
160,304,29870,6,0,B|192:304,2,22.5
208,304,30105,1,0
224,304,30222,1,0
240,304,30339,1,0
256,304,30456,1,0
272,272,30573,5,0
288,272,30690,1,0
304,272,30808,1,0
320,272,30925,1,0
336,240,31042,5,0
352,240,31159,1,0
368,240,31276,1,0
384,240,31393,1,0
400,208,31510,5,0
416,208,31627,1,0
432,208,31745,1,0
448,208,31862,1,0
464,176,31980,5,0
368,176,32214,5,0
368,80,32449,1,2
272,80,32683,1,0
272,176,32917,1,2
176,128,33151,1,0
176,128,33269,1,2
48,48,33620,5,0
144,208,34089,5,0
144,304,34324,1,2
240,304,34558,1,0
240,208,34792,1,2
336,256,35026,1,0
336,256,35144,1,2
240,208,35378,1,0
240,256,35495,1,2
240,304,35612,1,2
208,32,35964,5,0
304,32,36198,1,2
304,128,36433,1,0
208,128,36667,1,2
256,208,36901,1,0
256,208,37019,1,2
112,320,37605,6,0,B|320:320,1,180,4|0
400,48,38542,6,4,B|176:48,1,180,4|0
220,48,39245,1,0
368,208,39714,5,0
368,304,39949,1,2
272,304,40183,1,0
272,208,40417,1,2
176,256,40651,1,0
176,256,40769,1,2
48,336,41120,5,0
144,176,41589,5,0
144,80,41824,1,2
240,80,42058,1,0
240,176,42292,1,2
336,128,42526,1,0
336,128,42644,1,2
240,176,42878,1,0
240,128,42995,1,2
240,80,43112,1,2
208,80,43230,6,0,B|208:288,1,180
208,304,43815,1,2
208,352,43933,1,0
240,352,44050,1,2
272,352,44167,6,0,B|272:224,1,90,2|0
272,224,44519,2,0,B|272:64,1,135,2|0
304,96,44987,1,0
336,96,45105,5,2
368,96,45222,1,0
400,96,45339,1,0
432,96,45456,1,0
448,128,45573,5,2
416,128,45690,1,0
384,128,45808,1,0
352,128,45925,1,0
368,160,46042,5,2
400,160,46159,1,0
432,160,46276,1,0
464,160,46394,1,0
480,192,46511,5,2
448,192,46628,1,0
416,192,46745,1,0
384,192,46862,1,0
392,224,46980,6,0,B|253:352|104:224,1,315,0|0
96,160,48737,6,0,B|243:32|412:164,1,337.5,0|0
457,201,50612,1,0
392,224,50730,6,0,B|253:352|104:224,1,315
96,160,52487,6,0,B|243:32|412:164,1,337.5
480,208,54480,6,0,B|480:336,1,112.5,0|0
416,352,55183,2,0,B|416:160,1,180,0|0
304,320,56355,6,0,B|304:192,1,112.5,0|0
240,197,57058,2,0,B|240:341,1,135,0|0
64,192,58230,5,0
128,80,58464,1,0
256,48,58698,1,0
384,80,58933,1,0
448,192,59167,1,0
384,304,59401,1,0
256,336,59636,1,0
128,304,59870,1,0
256,192,60105,12,0,61042
256,64,61276,5,0
128,192,61511,1,0
256,320,61745,1,0
384,192,61980,5,0
256,192,62448,5,0
128,192,62917,5,0
160,288,63151,5,0
256,320,63386,1,0
352,288,63620,1,4
256,192,64089,5,0
256,192,64558,1,0
384,192,65026,5,0
352,96,65260,1,0
256,64,65495,1,0
160,96,65729,1,0
256,192,66198,5,0
128,192,66667,5,0
160,288,66901,1,0
256,320,67136,1,0
352,288,67370,1,0
256,80,67839,6,0,B|160:80,1,90,0|2
256,80,68308,2,0,B|256:176,1,90,0|2
256,80,68776,2,0,B|368:80,1,90,2|2
256,224,69245,1,2
256,336,69480,5,0
112,96,69948,1,0
400,96,70417,1,0
256,192,70886,1,0
256,192,71120,1,0
176,320,71589,5,0
256,256,71823,1,0
336,320,72058,1,0
256,256,72292,5,0
176,176,72526,1,0
256,96,72761,1,0
336,176,72995,1,0
336,176,73230,6,0,B|252:100|172:181,1,180
256,256,73933,1,0
336,336,74167,2,0,B|252:412|172:331,1,180
134,239,74870,2,0,B|262:127|393:251,1,270
456,128,75808,5,0
328,64,76042,1,0
184,64,76276,1,0
56,128,76511,1,0
208,192,76980,6,0,L|128:272,1,90
256,240,77448,2,0,L|352:336,1,90,8|0
304,192,77917,2,0,L|384:112,1,90
256,144,78386,2,0,L|160:48,1,90,8|0
304,192,78855,6,0,L|384:272,1,90
256,240,79323,2,0,L|176:320,1,90,8|0
208,192,79792,2,0,L|128:112,1,90
256,144,80261,2,0,L|336:64,1,90,8|0
208,192,80730,6,0,L|96:192,1,90
256,240,81198,2,0,L|256:336,1,90,8|0
304,192,81667,2,0,L|416:192,1,90
256,144,82136,2,0,L|256:48,1,90,8|0
256,144,82605,5,0
160,240,82839,1,2
176,240,82956,1,2
192,240,83073,1,10
336,240,83308,1,0
320,240,83425,1,10
256,352,83659,1,2
256,336,83776,1,2
256,320,83894,1,2
256,304,84011,1,10
256,176,84245,1,0
80,176,84480,6,0,B|176:176,1,90,0|0
128,304,84948,2,0,B|208:224,1,90,8|0
256,352,85417,2,0,B|256:240,1,90
384,304,85886,2,0,B|304:224,1,90,8|0
432,176,86355,6,0,B|336:176,1,90
384,48,86823,2,0,B|304:128,1,90,8|0
256,0,87292,2,0,B|256:112,1,90
128,48,87761,2,0,B|208:128,1,90,8|0
256,176,88230,5,0
191,257,88464,1,0
255,337,88698,1,8
319,257,88933,1,0
255,145,89167,5,0
159,257,89401,1,0
255,369,89636,1,8
352,256,89870,6,0,B|352:288,2,22.5
320,240,90105,1,0
352,224,90222,1,0
320,208,90339,1,0
352,192,90456,1,0
320,176,90573,5,0
288,160,90690,1,0
320,144,90808,1,0
288,128,90925,1,0
256,112,91042,5,0
288,96,91159,1,0
256,80,91276,1,0
288,64,91394,1,0
256,48,91511,5,0
256,336,91980,5,4
