osu file format v14

[General]
AudioFilename: God only knows -Secrets of the Goddess-.mp3
AudioLeadIn: 2007
PreviewTime: 83832
Countdown: 0
SampleSet: Soft
StackLeniency: 0.5
Mode: 0
LetterboxInBreaks: 0
WidescreenStoryboard: 0

[Editor]
Bookmarks: 1658,61244,129714,209293,289641,368605,438085,478570,574945,682570,743320,764438
DistanceSpacing: 1
BeatDivisor: 4
GridSize: 4
TimelineZoom: 1

[Metadata]
Title:God only knows -Secrets of the Goddess-
TitleUnicode:God only knows -Secrets of the Goddess-
Artist:Oratorio The World God Only Knows
ArtistUnicode:Oratorio The World God Only Knows
Creator:ktgster
Version:Goddess
Source:神のみぞ知るセカイ 女神篇
Tags:season 3 opening Saori Hayami TWGOK OP Kami nomi zo Shiru Sekai: Megami-hen
BeatmapID:689521
BeatmapSetID:107800

[Difficulty]
HPDrainRate:6
CircleSize:4.5
OverallDifficulty:8
ApproachRate:8.7
SliderMultiplier:1.7
SliderTickRate:1

[Events]
//Background and Video events
0,0,"ABCD.jpg",0,0
//Break Periods
2,130266,131186
2,133090,134716
2,277841,288433
2,431295,437440
2,556770,572800
2,727394,742675
//Storyboard Layer 0 (Background)
//Storyboard Layer 1 (Fail)
//Storyboard Layer 2 (Pass)
//Storyboard Layer 3 (Foreground)
//Storyboard Sound Samples

[TimingPoints]
1658,413.793103448276,6,2,1,30,1,0
1658,-200,6,2,1,30,0,0
21520,-166.666666666667,6,2,1,40,0,0
40347,-166.666666666667,6,2,1,30,0,0
40968,-166.666666666667,6,2,1,40,0,0
41382,-142.857142857143,6,2,1,50,0,0
61051,-142.857142857143,6,2,1,50,0,0
61244,352.941176470588,4,1,1,60,1,0
61332,-125,4,2,1,60,0,0
65567,-125,4,2,1,40,0,0
66891,-100,4,1,1,60,0,0
69626,-100,4,1,1,70,0,0
72538,-100,4,1,1,80,0,0
82596,-100,4,1,1,90,0,0
83832,-100,4,1,1,100,0,1
83920,-100,4,1,1,80,0,1
106420,-100,4,1,1,90,0,0
117802,-100,4,1,1,60,0,0
123714,352.941176470588,5,2,1,60,1,0
123714,-200,5,2,1,40,0,0
127861,-200,5,2,1,20,0,0
128302,-200,5,2,1,40,0,0
128919,-200,5,2,1,20,0,0
129184,-200,5,2,1,40,0,0
129714,352.941176470588,4,1,1,60,1,0
139243,-100,4,1,1,35,0,0
141008,-100,4,3,1,35,0,0
149566,-100,4,2,1,40,0,0
152302,-100,4,3,1,40,0,0
159361,-100,4,1,1,30,0,0
160066,-100,4,1,1,60,0,0
160419,-100,4,1,1,50,0,0
174890,-100,4,1,1,55,0,0
176302,-125,4,1,1,60,0,0
177096,-100,4,1,1,50,0,0
180802,-100,4,1,1,30,0,0
181155,-100,4,1,1,40,0,0
181508,-100,4,1,1,50,0,0
181861,-100,4,1,1,60,0,0
187596,-100,4,1,1,70,0,1
198890,352.941176470588,7,1,1,70,1,0
200390,-100,7,1,1,30,0,0
200566,-100,7,1,1,40,0,0
201272,-111.111111111111,7,1,1,70,0,0
202860,-111.111111111111,7,1,1,30,0,0
203037,-111.111111111111,7,1,1,40,0,0
203742,-125,7,1,1,70,0,0
205331,-125,7,1,1,60,0,0
205860,-125,7,1,1,50,0,0
206213,-142.857142857143,7,1,1,70,0,0
206742,-142.857142857143,7,1,1,40,0,0
207272,-142.857142857143,7,1,1,70,0,0
208772,521.739130434783,3,2,1,30,1,0
209032,-133.333333333333,3,2,1,20,0,0
218293,-133.333333333333,3,2,1,5,0,0
221293,-133.333333333333,3,2,1,20,0,0
222728,-125,3,2,1,25,0,0
235511,-111.111111111111,3,3,1,25,0,0
248032,-111.111111111111,3,2,1,25,0,0
277641,375,4,1,1,25,1,0
289641,-100,4,1,1,40,0,0
313641,-100,4,1,1,60,0,0
326016,-111.111111111111,4,3,1,40,0,0
336047,-111.111111111111,4,3,1,50,0,0
337641,-100,4,3,1,60,0,0
349641,-100,4,2,1,60,0,0
360891,428.571428571429,4,1,1,70,1,0
367855,-125,4,2,1,40,0,0
379855,-125,4,2,1,45,0,0
381355,-100,4,1,1,50,0,0
388319,-100,4,1,1,60,0,0
391855,-100,4,3,1,40,0,0
393462,-100,4,3,1,50,0,0
395176,-100,4,3,1,60,0,0
396891,-100,4,3,1,70,0,0
397533,-100,4,3,1,75,0,0
397962,-100,4,3,1,80,0,0
398391,-100,4,3,1,85,0,0
398605,375,4,2,1,60,1,0
399167,-200,4,2,1,30,0,0
399917,375,4,2,1,40,1,0
399917,-125,4,1,1,40,0,0
411917,-125,4,1,1,50,0,0
416417,-111.111111111111,4,1,1,60,0,0
425863,875.912408759124,4,2,1,60,1,0
427614,863.309352517986,4,2,1,60,1,0
429340,888.888888888889,4,2,1,60,1,0
431095,582.52427184466,3,2,1,30,1,0
438085,291.26213592233,3,1,1,60,1,0
438085,-111.111111111111,3,1,1,60,0,0
444784,291.26213592233,3,1,1,60,1,0
444784,-111.111111111111,3,1,1,60,0,0
451483,291.26213592233,3,1,1,60,1,0
451483,-111.111111111111,3,1,1,60,0,0
458182,291.26213592233,3,1,1,60,1,0
458182,-111.111111111111,3,1,1,60,0,0
464881,291.26213592233,3,1,1,60,1,0
464881,-111.111111111111,3,1,1,60,0,0
471580,291.26213592233,3,1,1,60,1,0
471580,-111.111111111111,3,1,1,60,0,0
478570,375,4,1,1,70,1,0
490663,-100,4,1,1,60,0,0
501632,-100,4,1,1,70,0,0
502101,-100,4,1,1,80,0,0
502288,-100,4,1,1,70,0,0
514570,-125,4,1,1,70,0,0
514663,-125,4,1,1,60,0,0
523570,-100,4,1,1,70,0,0
527976,-100,4,1,1,60,0,0
528351,-100,4,1,1,65,0,0
528726,-100,4,1,1,70,0,0
529195,-100,4,1,1,75,0,0
529570,-83.3333333333333,4,1,1,80,0,1
547570,-100,4,1,1,80,0,0
547663,-100,4,1,1,70,0,0
552163,-100,4,1,1,30,0,0
553570,-100,4,1,1,70,0,0
556570,375,3,2,1,30,1,0
573445,-100,3,3,1,30,0,0
574570,-188.679245283019,3,2,1,40,0,0
626132,-200,3,2,1,30,0,0
628570,-158.730158730159,3,2,1,50,0,0
644413,-158.730158730159,3,2,1,40,0,0
645445,-166.666666666667,3,2,1,30,0,0
646570,-142.857142857143,3,2,1,60,0,0
664570,-125,3,2,1,55,0,0
673476,-111.111111111111,3,2,1,60,0,0
680976,-111.111111111111,3,2,1,40,0,0
682570,-100,3,1,1,70,0,1
718570,-200,3,2,1,70,0,0
718616,-200,3,2,1,40,0,0
727195,-200,3,2,1,5,0,0
743320,352.941176470588,4,2,1,50,1,0
743672,-100,4,2,1,20,0,0
744114,-100,4,2,1,25,0,0
744290,-100,4,2,1,30,0,0
744467,-100,4,2,1,35,0,0
745790,-100,4,2,1,40,0,0
746672,-100,4,2,1,30,0,0
746937,-100,4,2,1,25,0,0
747114,-100,4,2,1,30,0,0
747290,-100,4,2,1,35,0,0
748261,-100,4,2,1,30,0,0
748878,-100,4,1,1,45,0,0
763084,387.096774193548,4,2,1,60,1,0

[Colours]
Combo1 : 221,221,0
Combo2 : 255,155,155
Combo3 : 153,94,213
Combo4 : 225,225,225

[HitObjects]
45,329,1244,5,0,0:2:0:0:
118,286,1658,1,2,0:2:0:0:
200,304,2071,1,0,0:2:0:0:
200,304,2692,1,0,0:2:0:0:
266,287,2899,2,0,P|292:209|260:126,1,170,2|0,0:2|0:2,0:2:0:0:
200,102,3933,1,0,0:2:0:0:
141,136,4140,6,0,L|133:225,2,85,2|0|0,0:2|0:2|0:2,0:2:0:0:
76,79,5382,1,2,0:2:0:0:
76,79,6209,1,0,0:2:0:0:
31,151,6623,5,2,0:2:0:0:
71,225,7037,1,0,0:2:0:0:
71,225,7658,1,0,0:2:0:0:
131,193,7864,2,0,P|178:181|281:239,1,170,2|0,0:2|0:2,0:2:0:0:
296,302,8899,1,0,0:2:0:0:
267,363,9106,5,2,0:2:0:0:
351,368,9520,1,0,0:2:0:0:
433,347,9933,1,0,0:2:0:0:
475,273,10347,2,0,P|480:223|472:175,1,85,2|0,0:2|0:2,0:2:0:0:
431,136,10968,1,0,0:2:0:0:
371,169,11175,2,0,P|341:174|323:172,1,42.5,0|0,0:2|0:2,0:2:0:0:
271,135,11589,5,2,0:2:0:0:
271,135,12002,1,0,0:2:0:0:
190,39,12623,1,0,0:2:0:0:
190,39,12830,2,0,P|170:61|42:58,1,170,2|0,0:2|0:2,0:2:0:0:
16,120,13864,1,0,0:2:0:0:
52,177,14071,6,0,P|59:223|47:266,2,85,2|0|0,0:2|0:2|0:2,0:2:0:0:
120,125,15313,2,0,B|168:85|232:165|296:117,1,170,2|0,0:2|0:2,0:2:0:0:
334,56,16554,5,2,0:2:0:0:
334,56,16968,1,0,0:2:0:0:
454,96,17589,1,0,0:2:0:0:
454,96,17795,2,0,P|484:175|444:259,1,170,2|0,0:2|0:2,0:2:0:0:
389,274,18830,1,0,0:2:0:0:
325,250,19037,5,2,0:2:0:0:
361,173,19451,1,0,0:2:0:0:
325,250,19864,1,0,0:2:0:0:
276,180,20278,1,2,0:2:0:0:
200,140,20692,1,0,0:2:0:0:
179,135,20795,1,0,0:2:0:0:
157,133,20899,1,0,0:2:0:0:
135,134,21002,1,0,0:2:0:0:
115,141,21106,1,2,0:2:0:0:
94,145,21210,1,0,0:2:0:0:
72,146,21313,1,0,0:2:0:0:
50,144,21417,1,0,0:2:0:0:
29,139,21520,6,0,P|23:229|124:233,1,203.999993774414,4|0,0:2|0:2,0:2:0:0:
208,193,22761,2,0,P|300:201|296:293,1,203.999993774414,2|2,3:2|0:2,0:2:0:0:
243,341,23795,1,0,0:2:0:0:
173,325,24002,5,0,3:2:0:0:
146,226,24416,1,2,0:2:0:0:
294,264,25037,1,0,3:2:0:0:
294,264,25140,1,0,3:2:0:0:
294,264,25244,1,0,3:2:0:0:
321,165,25658,1,0,0:2:0:0:
283,70,26071,1,0,0:2:0:0:
283,70,26278,1,0,3:2:0:0:
338,25,26485,6,0,P|430:20|438:113,1,203.999993774414,2|0,3:2|0:2,0:2:0:0:
360,178,27726,2,0,L|151:168,1,203.999993774414,2|2,3:2|0:2,0:2:0:0:
84,162,28761,1,0,0:2:0:0:
12,157,28968,5,0,3:2:0:0:
32,256,29382,1,2,0:2:0:0:
150,351,30002,1,0,3:2:0:0:
150,351,30106,1,0,3:2:0:0:
150,351,30209,1,2,3:2:0:0:
170,252,30623,1,0,0:2:0:0:
247,318,31037,1,0,3:2:0:0:
272,321,31140,1,0,3:2:0:0:
297,324,31244,1,0,3:2:0:0:
322,327,31347,1,0,3:2:0:0:
347,331,31451,5,2,3:2:0:0:
416,256,31864,1,0,3:2:0:0:
376,161,32278,1,0,0:2:0:0:
313,194,32485,1,0,0:2:0:0:
313,194,32589,1,0,0:2:0:0:
313,194,32692,2,0,P|225:186|241:91,1,203.999993774414,2|2,3:2|0:2,0:2:0:0:
286,40,33726,1,0,0:2:0:0:
216,25,33933,5,0,3:2:0:0:
119,56,34347,1,0,3:2:0:0:
115,81,34451,1,0,0:2:0:0:
111,106,34554,1,0,0:2:0:0:
107,131,34658,1,0,0:2:0:0:
103,156,34761,1,2,0:2:0:0:
57,211,34968,1,0,0:2:0:0:
57,211,35071,1,0,0:2:0:0:
57,211,35175,1,2,3:2:0:0:
137,274,35589,1,0,3:2:0:0:
238,280,36002,1,0,3:2:0:0:
238,280,36209,1,0,3:2:0:0:
301,246,36416,5,2,3:2:0:0:
402,240,36830,1,0,3:2:0:0:
478,307,37244,1,0,0:2:0:0:
505,241,37451,1,0,0:2:0:0:
505,241,37554,1,0,0:2:0:0:
505,241,37658,2,0,P|486:151|386:146,1,203.999993774414,2|2,3:2|0:2,0:2:0:0:
321,168,38692,1,0,0:2:0:0:
341,237,38899,5,0,3:2:0:0:
289,325,39313,1,2,3:2:0:0:
239,235,39726,1,2,0:2:0:0:
205,171,39933,1,0,0:2:0:0:
205,171,40037,1,0,0:2:0:0:
205,171,40140,1,0,3:2:0:0:
306,184,40554,1,0,3:2:0:0:
331,179,40658,1,0,3:2:0:0:
356,175,40761,1,0,3:2:0:0:
381,171,40864,1,0,3:2:0:0:
403,183,40968,1,0,3:2:0:0:
428,178,41072,1,0,3:2:0:0:
453,174,41175,1,0,3:2:0:0:
478,170,41278,1,0,3:2:0:0:
501,180,41382,5,4,3:1:0:0:
478,296,41795,2,0,P|412:328|303:280,1,178.499994552612,2|0,0:2|0:2,0:2:0:0:
279,234,42623,1,0,3:2:0:0:
279,234,43037,1,2,1:2:0:0:
342,170,43244,1,2,1:2:0:0:
255,148,43451,1,2,1:2:0:0:
255,58,43658,1,2,1:2:0:0:
178,103,43864,6,0,P|121:108|68:77,2,118.999996368408,2|0|0,1:2|3:2|0:2,0:2:0:0:
236,61,44899,1,0,0:2:0:0:
239,65,45002,1,0,0:2:0:0:
242,69,45106,1,0,3:2:0:0:
352,36,45520,1,0,0:2:0:0:
457,90,45933,1,2,0:2:0:0:
457,90,46140,1,0,3:2:0:0:
408,142,46347,5,0,3:2:0:0:
459,249,46761,2,0,P|377:237|314:320,1,178.499994552612,2|0,3:2|0:2,0:2:0:0:
294,370,47589,1,2,3:2:0:0:
294,370,48002,1,0,0:2:0:0:
230,338,48209,1,2,0:2:0:0:
160,352,48416,1,0,0:2:0:0:
95,322,48623,1,2,0:2:0:0:
59,260,48830,5,0,3:2:0:0:
177,266,49244,1,0,3:2:0:0:
122,160,49658,1,2,0:2:0:0:
159,99,49864,1,0,0:2:0:0:
159,99,49968,1,0,0:2:0:0:
159,99,50071,2,0,P|205:84|276:93,1,118.999996368408,2|0,3:2|3:2,0:2:0:0:
337,126,50692,1,0,0:2:0:0:
401,155,50899,2,0,P|441:161|480:150,1,59.4999981842042,2|0,3:2|0:2,0:2:0:0:
505,103,51313,5,4,1:0:0:0:
505,103,51726,1,2,3:2:0:0:
341,30,52347,1,0,0:2:0:0:
363,97,52554,1,2,3:2:0:0:
363,97,52968,1,2,1:2:0:0:
274,86,53175,1,2,1:2:0:0:
309,168,53382,1,2,1:2:0:0:
238,223,53589,1,2,1:2:0:0:
319,257,53795,6,0,P|383:269|443:258,2,118.999996368408,2|0|0,1:2|3:2|0:2,0:2:0:0:
261,214,54830,1,0,0:2:0:0:
261,214,54933,1,0,0:2:0:0:
261,214,55037,1,2,3:2:0:0:
216,324,55451,2,0,L|137:317,1,59.4999981842042,0|0,3:2|0:2,0:2:0:0:
85,309,55864,1,2,0:2:0:0:
129,253,56071,1,0,3:2:0:0:
90,192,56278,5,0,3:2:0:0:
90,192,56692,1,2,3:2:0:0:
263,235,57313,1,0,0:2:0:0:
243,166,57520,1,2,3:2:0:0:
243,166,57933,2,0,P|279:164|314:142,1,59.4999981842042,0|2,0:2|0:2,0:2:0:0:
347,100,58347,1,0,0:2:0:0:
347,100,58554,1,2,0:2:0:0:
380,36,58761,5,0,3:2:0:0:
466,117,59175,1,0,3:2:0:0:
403,218,59589,1,2,0:2:0:0:
460,320,60002,2,0,P|400:336|334:311,1,118.999996368408,2|0,0:2|0:2,0:2:0:0:
298,267,60623,1,0,0:2:0:0:
313,197,60830,1,2,0:2:0:0:
313,197,61244,5,4,1:0:0:0:
313,197,62302,1,2,0:2:0:0:
238,231,62479,1,0,1:2:0:0:
246,150,62655,6,0,P|339:119|394:200,1,204,2|0,1:2|0:2,0:2:0:0:
357,266,63361,2,0,B|280:240|240:312|144:280,1,204,2|0,0:2|0:2,0:2:0:0:
199,197,64067,5,4,1:0:0:0:
199,197,65125,1,2,0:2:0:0:
274,231,65302,1,0,1:2:0:0:
266,150,65478,5,2,1:2:0:0:
249,132,65566,1,0,0:2:0:0:
229,120,65654,1,0,0:2:0:0:
206,115,65744,1,0,0:2:0:0:
182,116,65832,1,0,0:2:0:0:
160,124,65919,1,0,0:2:0:0:
140,138,66007,1,0,0:2:0:0:
126,157,66096,1,0,0:2:0:0:
118,179,66185,1,2,0:2:0:0:
116,203,66272,1,0,0:2:0:0:
121,226,66360,1,0,0:2:0:0:
133,247,66449,1,0,0:2:0:0:
150,263,66538,1,0,0:2:0:0:
171,274,66626,1,0,0:2:0:0:
194,279,66713,1,0,0:2:0:0:
218,277,66801,1,0,0:2:0:0:
240,268,66891,6,0,L|261:170,1,85,4|0,0:0|2:2,0:2:0:0:
277,101,67244,2,0,P|325:85|415:166,1,170,8|0,0:2|0:2,0:2:0:0:
371,227,67773,1,0,2:2:0:0:
416,298,67949,1,8,0:2:0:0:
358,360,68126,1,8,0:2:0:0:
358,360,68214,1,0,0:2:0:0:
358,360,68302,6,0,L|169:336,1,170,4|8,0:0|0:2,0:2:0:0:
168,255,68832,1,0,0:2:0:0:
197,258,68920,1,0,2:2:0:0:
227,262,69008,1,0,0:2:0:0:
256,266,69096,1,0,0:2:0:0:
286,269,69184,1,0,0:2:0:0:
348,211,69361,1,8,0:2:0:0:
307,135,69538,1,0,2:2:0:0:
391,137,69714,6,0,L|501:140,2,85,4|0|8,1:0|2:2|0:2,0:2:0:0:
349,61,70244,1,0,3:2:0:0:
349,61,70332,1,0,3:2:0:0:
349,61,70420,1,4,1:0:0:0:
307,135,70596,1,0,2:2:0:0:
232,177,70773,2,0,P|186:182|137:169,1,85,8|0,0:2|0:2,0:2:0:0:
25,328,71126,5,0,0:2:0:0:
55,313,71214,1,0,0:2:0:0:
88,308,71302,1,0,0:2:0:0:
122,308,71391,1,0,0:2:0:0:
154,316,71479,1,0,0:2:0:0:
186,324,71567,1,0,0:2:0:0:
220,324,71656,1,0,0:2:0:0:
253,319,71744,1,0,0:2:0:0:
283,304,71832,1,2,0:2:0:0:
254,273,71920,1,2,0:2:0:0:
251,231,72008,1,2,0:2:0:0:
271,194,72096,1,2,0:2:0:0:
310,178,72185,1,2,0:2:0:0:
352,181,72273,1,0,0:2:0:0:
386,206,72361,1,2,0:2:0:0:
397,246,72449,1,0,0:2:0:0:
387,287,72538,6,0,L|479:275,1,85,4|0,1:0|2:2,0:2:0:0:
501,196,72891,2,0,P|504:145|395:120,1,170,8|0,0:2|0:2,0:2:0:0:
329,144,73420,1,0,2:2:0:0:
287,70,73596,1,8,0:2:0:0:
287,70,73773,1,0,2:2:0:0:
160,154,73949,5,2,0:2:0:0:
244,143,74126,1,0,2:2:0:0:
213,221,74302,2,0,L|189:313,1,85,10|0,0:2|2:2,2:2:0:0:
121,351,74655,1,0,0:2:0:0:
121,351,74832,1,0,2:2:0:0:
115,266,75008,1,8,0:2:0:0:
267,342,75185,1,0,2:2:0:0:
267,342,75273,1,0,3:2:0:0:
267,342,75361,6,0,P|343:333|350:232,1,170,0|8,0:2|0:2,0:2:0:0:
345,167,75891,1,0,2:2:0:0:
268,202,76067,2,0,P|261:157|285:106,1,85,0|0,0:2|2:2,0:2:0:0:
350,82,76420,1,8,0:2:0:0:
350,82,76596,1,0,2:2:0:0:
154,19,76773,6,0,L|135:199,1,170,2|8,0:2|0:2,0:2:0:0:
123,272,77302,1,0,2:2:0:0:
56,218,77479,2,0,P|53:172|72:134,1,85,0|0,0:2|2:2,0:2:0:0:
205,245,77832,2,0,P|208:291|189:329,1,85,8|0,0:2|0:2,0:2:0:0:
262,373,78185,6,0,L|436:356,1,170,0|8,0:2|0:2,0:2:0:0:
475,283,78714,1,0,2:2:0:0:
426,212,78891,2,0,P|421:169|437:110,1,85,0|0,0:2|2:2,0:2:0:0:
480,61,79243,1,8,0:2:0:0:
512,140,79420,1,0,3:2:0:0:
301,20,79596,6,0,P|239:13|232:117,1,170,0|8,0:2|0:2,0:2:0:0:
289,145,80126,1,0,2:2:0:0:
289,145,80214,1,0,2:2:0:0:
289,145,80302,1,2,0:2:0:0:
313,226,80479,1,0,2:2:0:0:
270,299,80655,2,0,L|160:317,1,85,10|0,0:2|2:2,0:2:0:0:
22,336,81008,6,0,P|43:264|137:255,1,170,0|8,0:2|0:2,0:2:0:0:
206,215,81538,1,0,2:2:0:0:
206,215,81626,1,0,3:2:0:0:
206,215,81714,1,0,0:2:0:0:
165,139,81891,1,0,2:2:0:0:
239,97,82067,2,0,L|329:111,1,85,8|0,0:2|2:2,0:2:0:0:
496,133,82420,5,2,0:2:0:0:
468,213,82596,1,0,0:2:0:0:
392,253,82773,1,0,0:2:0:0:
308,239,82949,1,0,0:2:0:0:
242,184,83126,1,0,0:2:0:0:
215,163,83214,1,0,0:2:0:0:
181,156,83302,1,0,0:2:0:0:
146,159,83391,1,0,0:2:0:0:
115,174,83479,1,2,0:2:0:0:
131,134,83567,1,2,0:2:0:0:
137,92,83655,1,2,0:2:0:0:
127,50,83743,1,2,0:2:0:0:
99,16,83832,6,0,P|57:13|16:44,1,85,4|0,1:0|0:2,0:2:0:0:
11,169,84185,2,0,L|193:155,1,170,10|0,0:2|0:2,0:2:0:0:
265,151,84714,1,0,0:2:0:0:
217,79,84891,1,8,0:2:0:0:
226,227,85067,6,0,L|236:328,1,85,2|0,0:2|0:2,0:2:0:0:
357,347,85420,2,0,L|347:246,1,85,2|8,0:2|0:2,0:2:0:0:
265,151,85773,2,0,P|187:151|144:242,1,170,2|0,0:2|0:2,0:2:0:0:
226,227,86302,1,10,0:2:0:0:
180,299,86479,1,0,0:2:0:0:
38,345,86655,5,0,0:2:0:0:
78,269,86832,1,0,0:2:0:0:
31,198,87008,2,0,P|24:155|39:109,1,85,10|0,0:2|0:2,0:2:0:0:
94,54,87361,2,0,P|145:36|212:133,1,170,2|8,0:2|0:2,0:2:0:0:
180,189,87891,1,0,0:2:0:0:
225,260,88067,5,0,0:2:0:0:
305,232,88243,2,0,P|347:229|396:240,1,85,2|8,0:2|0:2,0:2:0:0:
495,147,88596,2,0,P|403:142|328:93,1,170,2|0,0:2|0:2,0:2:0:0:
293,29,89126,1,10,0:2:0:0:
224,79,89302,1,0,0:2:0:0:
145,45,89479,5,0,0:2:0:0:
145,45,89832,2,0,L|132:137,1,85,10|0,0:2|0:2,0:2:0:0:
58,169,90185,2,0,P|117:213|204:175,1,170,2|8,0:2|0:2,0:2:0:0:
221,98,90714,6,0,L|232:13,1,85,2|0,0:2|0:2,0:2:0:0:
305,139,91067,2,0,L|316:54,1,85,2|8,0:2|0:2,0:2:0:0:
386,181,91420,2,0,P|310:227|234:195,1,170,0|0,0:2|0:2,0:2:0:0:
167,246,91949,2,0,L|175:349,1,85,10|0,0:2|0:2,0:2:0:0:
32,352,92302,6,0,B|48:296|48:296|32:248|32:248|56:176,1,170,2|8,0:2|0:2,0:2:0:0:
123,143,92832,1,2,0:2:0:0:
152,147,92920,1,0,0:2:0:0:
181,151,93008,1,0,0:2:0:0:
249,99,93185,1,0,0:2:0:0:
202,28,93361,2,0,P|155:21|108:46,1,85,10|0,0:2|0:2,0:2:0:0:
259,183,93714,5,0,0:2:0:0:
335,144,93891,1,2,0:2:0:0:
418,156,94067,1,8,0:2:0:0:
478,215,94243,1,2,0:2:0:0:
499,297,94420,1,0,0:2:0:0:
470,314,94508,1,0,0:2:0:0:
437,322,94596,1,0,0:2:0:0:
402,319,94685,1,0,0:2:0:0:
370,306,94773,1,8,0:2:0:0:
332,285,94861,1,0,0:2:0:0:
290,278,94949,1,0,0:2:0:0:
247,284,95038,1,0,0:2:0:0:
216,313,95126,5,4,0:0:0:0:
216,313,95479,2,0,L|131:300,1,85,10|0,0:2|0:2,0:2:0:0:
48,284,95832,2,0,P|107:215|188:233,1,170,2|8,0:2|0:2,0:2:0:0:
227,156,96361,6,0,L|212:59,1,85,2|0,0:2|0:2,0:2:0:0:
315,177,96714,2,0,L|302:92,1,85,2|8,0:2|0:2,0:2:0:0:
395,204,97067,1,2,0:2:0:0:
395,204,97155,1,0,0:2:0:0:
395,204,97243,1,0,0:2:0:0:
382,119,97420,1,0,0:2:0:0:
331,260,97596,2,0,P|368:284|416:286,1,85,10|0,0:2|0:2,0:2:0:0:
436,279,97861,1,0,0:2:0:0:
459,261,97949,5,0,0:2:0:0:
459,261,98302,2,0,P|483:211|454:101,1,170,10|2,0:2|0:2,0:2:0:0:
379,66,98832,1,0,0:2:0:0:
307,111,99008,1,8,0:2:0:0:
229,76,99185,6,0,P|222:115|243:169,1,85,2|0,0:2|0:2,0:2:0:0:
310,196,99538,1,2,0:2:0:0:
310,196,99714,1,8,0:2:0:0:
239,243,99891,2,0,L|54:251,1,170,2|0,0:2|0:2,0:2:0:0:
11,313,100420,1,10,0:2:0:0:
93,332,100596,1,0,0:2:0:0:
45,168,100773,5,2,0:2:0:0:
45,168,101126,2,0,L|160:163,1,85,10|0,0:2|0:2,0:2:0:0:
215,159,101479,1,2,0:2:0:0:
177,235,101655,1,0,0:2:0:0:
168,88,101832,1,8,0:2:0:0:
299,152,102008,6,0,P|322:237|277:320,1,170,2|0,0:2|0:2,0:2:0:0:
208,335,102538,1,8,0:2:0:0:
182,254,102714,2,0,L|191:157,1,85,2|0,0:2|0:2,0:2:0:0:
158,89,103067,1,0,0:2:0:0:
74,105,103243,2,0,P|80:53|107:20,1,85,10|0,0:2|0:2,0:2:0:0:
307,72,103596,6,0,B|291:128|291:128|307:176|307:176|283:248,1,170,2|8,0:2|0:2,0:2:0:0:
227,294,104126,1,0,0:2:0:0:
227,294,104214,1,0,0:2:0:0:
227,294,104302,1,0,0:2:0:0:
153,250,104479,1,0,0:2:0:0:
82,297,104655,2,0,P|35:297|-5:269,1,85,10|0,0:2|0:2,0:2:0:0:
153,164,105008,5,0,0:2:0:0:
226,207,105185,1,2,0:2:0:0:
293,156,105361,1,8,0:2:0:0:
372,126,105538,1,0,0:2:0:0:
400,118,105626,1,0,0:2:0:0:
429,121,105714,1,0,0:2:0:0:
416,147,105802,1,0,0:2:0:0:
412,176,105891,1,2,0:2:0:0:
416,205,105979,1,0,0:2:0:0:
435,227,106067,1,10,0:2:0:0:
423,267,106155,1,0,0:2:0:0:
389,293,106243,1,0,0:2:0:0:
348,305,106332,1,0,0:2:0:0:
306,296,106420,5,4,0:0:0:0:
267,201,106596,1,0,0:2:0:0:
205,282,106773,1,0,0:2:0:0:
205,282,107126,1,2,2:2:0:0:
58,98,107479,5,2,0:2:0:0:
97,193,107655,1,0,0:2:0:0:
159,112,107832,1,2,0:2:0:0:
159,112,108185,1,0,2:2:0:0:
454,98,108538,5,2,0:2:0:0:
415,193,108714,1,2,0:2:0:0:
353,112,108891,1,2,0:2:0:0:
160,336,109243,5,0,0:2:0:0:
257,300,109420,1,0,0:2:0:0:
352,336,109596,1,0,0:2:0:0:
352,336,109949,1,0,2:2:0:0:
256,156,110302,5,2,0:2:0:0:
205,66,110479,1,0,0:2:0:0:
307,66,110655,2,0,P|356:115|465:87,1,170,2|0,0:2|2:2,0:2:0:0:
500,33,111185,1,0,2:2:0:0:
455,246,111361,5,2,0:2:0:0:
354,228,111538,1,2,0:2:0:0:
388,323,111714,1,2,0:2:0:0:
57,246,112067,5,0,0:2:0:0:
158,228,112244,1,0,0:2:0:0:
124,323,112420,1,0,0:2:0:0:
124,323,112773,1,0,2:2:0:0:
357,153,113126,5,2,0:2:0:0:
256,135,113303,1,0,0:2:0:0:
290,230,113479,1,2,0:2:0:0:
290,230,113832,1,0,2:2:0:0:
51,66,114185,5,2,0:2:0:0:
152,48,114362,1,2,0:2:0:0:
118,143,114538,1,2,0:2:0:0:
461,66,114891,5,2,0:2:0:0:
360,48,115068,1,2,0:2:0:0:
394,143,115244,1,0,0:2:0:0:
394,143,115596,2,0,L|282:173,1,85,0|0,2:2|2:2,0:2:0:0:
229,186,115949,1,2,0:2:0:0:
173,272,116126,1,2,0:2:0:0:
274,278,116302,6,0,P|333:284|429:347,1,170,2|0,0:2|2:2,0:2:0:0:
491,287,116832,1,0,2:2:0:0:
443,216,117008,1,2,0:2:0:0:
493,127,117185,1,2,0:2:0:0:
422,53,117361,2,0,L|319:60,1,85,2|0,0:2|2:2,0:2:0:0:
114,30,117714,6,0,L|198:24,1,85,4|0,1:0|0:2,0:2:0:0:
251,90,118067,1,8,0:2:0:0:
220,169,118243,2,0,P|146:198|57:126,1,170,2|0,0:2|0:2,0:2:0:0:
43,76,118773,1,8,0:2:0:0:
27,292,118949,6,0,L|111:286,1,85,4|0,1:0|0:2,0:2:0:0:
168,350,119302,2,0,L|376:364,2,170,2|4|2,0:2|0:0|0:2,0:2:0:0:
195,268,120185,1,8,0:2:0:0:
224,270,120273,1,0,0:2:0:0:
254,272,120361,1,0,0:2:0:0:
284,274,120449,1,0,0:2:0:0:
313,276,120538,6,0,P|323:229|313:177,1,85,4|0,0:0|0:2,0:2:0:0:
256,134,120891,1,8,0:2:0:0:
184,179,121067,2,0,P|172:116|252:49,1,170,2|2,0:2|0:2,0:2:0:0:
323,80,121596,1,8,0:2:0:0:
335,164,121773,6,0,L|323:260,1,85,4|0,0:0|0:2,0:2:0:0:
397,291,122126,2,0,L|407:206,1,85,2|8,0:2|0:2,0:2:0:0:
323,80,122479,2,0,P|260:123|277:224,1,170,4|0,0:0|0:2,0:2:0:0:
219,281,123008,2,0,L|127:265,1,85,10|8,0:2|0:2,0:2:0:0:
256,56,123714,6,0,L|384:40,2,127.500004863739,0|0|2,0:2|0:2|0:2,0:2:0:0:
235,138,125125,1,2,0:2:0:0:
256,220,125478,2,0,L|128:204,2,127.500004863739,2|0|2,0:2|0:2|0:2,0:2:0:0:
299,293,126890,1,0,0:2:0:0:
361,235,127243,6,0,B|409:229|439:259|439:259|435:218|470:174,1,170,2|0,0:2|0:2,0:2:0:0:
498,115,128125,1,0,0:2:0:0:
500,100,128214,1,0,0:2:0:0:
501,89,128302,2,0,B|433:29|381:69|325:121|252:44,1,255,2|0,0:2|2:0,0:2:0:0:
96,120,129714,5,0,0:2:0:0:
24,192,129890,1,0,0:2:0:0:
96,264,130066,1,0,0:2:0:0:
256,32,131831,5,0,0:2:0:0:
256,32,132008,2,0,L|256:228,1,170,4|0,0:0|2:2,0:2:0:0:
180,272,132537,5,0,0:2:0:0:
256,340,132714,1,0,0:2:0:0:
332,272,132890,1,0,0:2:0:0:
416,264,135361,5,0,0:2:0:0:
488,192,135537,1,0,0:2:0:0:
416,120,135713,1,0,0:2:0:0:
256,352,137478,5,0,0:2:0:0:
256,352,137655,2,0,L|256:156,1,170,4|0,0:0|2:2,0:2:0:0:
180,112,138184,5,0,0:2:0:0:
256,44,138361,1,0,0:2:0:0:
332,112,138537,1,0,0:2:0:0:
332,112,139243,5,2,3:2:0:0:
326,141,139331,1,0,3:2:0:0:
320,170,139419,1,0,3:2:0:0:
314,199,139508,1,0,3:2:0:0:
309,228,139596,1,0,0:2:0:0:
359,295,139772,1,8,0:2:0:0:
393,216,139949,1,0,3:2:0:0:
274,305,140125,1,8,0:2:0:0:
274,305,140214,1,8,0:2:0:0:
274,305,140302,1,0,3:2:0:0:
237,183,140478,1,0,0:2:0:0:
202,260,140655,1,8,0:2:0:0:
172,265,140743,1,8,0:2:0:0:
142,270,140831,1,8,0:2:0:0:
112,276,140919,1,8,0:2:0:0:
82,282,141008,5,2,1:2:0:0:
82,282,141361,1,8,1:2:0:0:
21,221,141538,2,0,P|32:171|141:140,1,170,0|0,0:2|0:2,0:2:0:0:
204,185,142066,1,8,1:2:0:0:
172,265,142243,1,0,0:2:0:0:
236,320,142419,6,0,L|333:311,1,85,2|0,1:2|0:2,0:2:0:0:
371,243,142772,1,8,1:2:0:0:
434,299,142949,2,0,P|452:221|382:158,1,170,2|0,0:2|0:2,0:2:0:0:
364,158,143390,1,0,0:2:0:0:
335,166,143478,1,8,1:2:0:0:
286,236,143655,1,0,0:2:0:0:
286,236,143743,1,0,0:2:0:0:
286,236,143831,6,0,P|252:151|308:85,1,170,2|8,1:2|1:2,0:2:0:0:
220,45,144361,2,0,L|117:64,1,85,0|0,0:2|1:2,0:2:0:0:
60,21,144714,1,0,0:2:0:0:
30,100,144890,1,10,1:2:0:0:
48,182,145066,1,0,0:2:0:0:
108,241,145243,6,0,L|211:260,1,85,2|0,1:2|0:2,0:2:0:0:
228,333,145596,1,10,1:2:0:0:
297,187,145772,2,0,L|129:156,1,170,2|2,0:2|0:2,0:2:0:0:
48,182,146302,1,10,1:2:0:0:
30,100,146478,1,2,0:2:0:0:
30,100,146566,1,0,0:2:0:0:
30,100,146655,6,0,P|70:64|150:77,1,127.5,0|0,1:2|0:2,0:2:0:0:
163,87,147008,1,8,1:2:0:0:
240,120,147184,1,0,0:2:0:0:
305,66,147361,1,0,1:2:0:0:
389,91,147538,1,0,0:2:0:0:
455,38,147714,1,10,1:2:0:0:
495,112,147890,1,0,0:2:0:0:
487,140,147978,1,0,0:2:0:0:
480,168,148066,5,2,1:2:0:0:
404,207,148243,1,0,0:2:0:0:
404,207,148331,1,0,0:2:0:0:
404,207,148420,1,8,1:2:0:0:
371,285,148596,1,0,0:2:0:0:
341,281,148684,1,0,0:2:0:0:
311,277,148772,1,2,1:2:0:0:
281,273,148861,1,0,0:2:0:0:
251,270,148949,1,0,0:2:0:0:
184,322,149125,1,8,1:2:0:0:
233,185,149302,1,2,0:0:0:0:
263,189,149390,1,2,0:0:0:0:
293,193,149478,5,0,1:2:0:0:
320,112,149655,1,2,3:2:0:0:
376,174,149831,1,0,3:2:0:0:
403,93,150008,1,2,0:2:0:0:
459,156,150184,1,0,3:2:0:0:
434,237,150361,1,0,0:2:0:0:
425,256,150449,1,0,0:2:0:0:
423,277,150537,1,0,3:2:0:0:
402,273,150625,1,0,0:2:0:0:
380,271,150714,1,0,0:2:0:0:
358,272,150802,1,0,0:2:0:0:
337,277,150890,5,0,3:2:0:0:
279,339,151066,1,2,0:2:0:0:
257,334,151155,1,0,0:2:0:0:
236,329,151243,1,0,3:2:0:0:
183,262,151419,1,0,0:2:0:0:
161,267,151508,1,0,0:2:0:0:
140,272,151596,1,0,3:2:0:0:
91,341,151772,1,8,1:2:0:0:
70,320,151860,1,0,0:2:0:0:
57,293,151948,1,0,3:2:0:0:
55,263,152036,1,0,3:2:0:0:
63,235,152124,1,8,1:2:0:0:
80,211,152213,1,8,1:2:0:0:
104,194,152302,6,0,L|249:210,1,127.5,2|0,1:2|0:2,0:2:0:0:
257,194,152655,1,8,1:2:0:0:
230,113,152831,1,0,0:2:0:0:
314,127,153008,1,0,1:2:0:0:
344,205,153184,2,0,P|381:177|398:131,1,85,0|8,0:2|0:2,0:2:0:0:
368,61,153537,1,0,0:2:0:0:
368,61,153625,1,0,0:2:0:0:
368,61,153714,6,0,P|454:76|482:155,1,170,2|8,1:2|1:2,0:2:0:0:
449,224,154243,1,0,0:2:0:0:
373,185,154419,1,0,1:2:0:0:
373,185,154508,2,0,B|311:183|311:183|229:216,1,127.5,8|8,0:2|0:2,0:2:0:0:
184,261,154949,1,0,0:2:0:0:
192,345,155125,5,2,1:2:0:0:
192,345,155478,2,0,L|297:357,1,85,8|0,1:2|0:2,0:2:0:0:
361,364,155831,1,0,1:2:0:0:
361,364,156008,1,0,0:2:0:0:
326,286,156184,1,8,1:2:0:0:
410,295,156361,1,0,0:2:0:0:
375,217,156537,5,0,1:2:0:0:
459,225,156713,1,0,0:2:0:0:
452,195,156802,1,0,0:2:0:0:
445,166,156890,1,8,1:2:0:0:
367,132,157066,2,0,P|328:146|292:195,1,85,2|0,0:2|1:2,0:2:0:0:
303,262,157419,1,0,0:2:0:0:
227,222,157596,1,8,1:2:0:0:
154,265,157772,1,2,0:2:0:0:
74,234,157949,6,0,L|57:129,1,85,0|0,1:2|0:2,0:2:0:0:
142,171,158302,2,0,L|125:66,1,85,8|0,1:2|0:2,0:2:0:0:
210,110,158655,2,0,L|193:5,1,85,0|0,1:2|0:2,0:2:0:0:
280,38,159008,1,8,0:2:0:0:
293,121,159184,1,0,0:2:0:0:
293,121,159272,1,0,0:2:0:0:
293,121,159361,5,4,3:0:0:0:
250,195,159537,1,4,3:0:0:0:
303,260,159713,1,4,3:0:0:0:
256,331,159890,1,4,3:0:0:0:
256,331,159978,1,0,3:0:0:0:
256,331,160066,1,4,0:0:0:0:
422,295,160243,1,2,0:2:0:0:
422,295,160772,5,4,1:0:0:0:
379,220,160949,1,0,2:2:0:0:
456,184,161125,2,0,P|466:149|449:83,1,85,8|0,2:2|0:2,0:2:0:0:
398,41,161478,1,2,0:2:0:0:
315,18,161655,1,0,0:2:0:0:
234,43,161831,1,0,2:2:0:0:
175,104,162008,1,2,0:2:0:0:
175,104,162361,5,0,0:2:0:0:
257,125,162537,1,0,2:2:0:0:
257,125,162713,1,0,0:2:0:0:
196,185,162890,2,0,P|121:170|95:79,1,170,10|0,0:2|0:2,0:2:0:0:
146,23,163419,1,0,2:2:0:0:
257,125,163596,5,2,0:2:0:0:
257,125,163772,2,0,L|435:113,1,170,2|0,2:2|0:2,0:2:0:0:
478,182,164302,1,8,0:2:0:0:
431,252,164478,1,2,0:2:0:0:
485,317,164655,1,0,2:2:0:0:
413,362,164831,1,0,2:2:0:0:
413,362,164919,1,0,2:2:0:0:
413,362,165008,6,0,L|312:342,1,85,4|0,1:0|2:2,0:2:0:0:
246,326,165361,1,8,0:2:0:0:
304,264,165537,2,0,L|387:280,1,85,0|0,0:2|2:2,0:2:0:0:
258,168,165890,2,0,L|341:184,1,85,0|0,0:2|2:2,0:2:0:0:
214,70,166243,6,0,L|410:108,1,170,4|0,1:0|0:2,0:2:0:0:
463,122,166772,1,2,2:2:0:0:
405,184,166949,1,0,0:2:0:0:
441,260,167125,1,2,0:2:0:0:
441,260,167478,2,0,L|340:272,1,85,0|2,0:2|2:2,0:2:0:0:
272,281,167831,6,0,P|183:304|125:363,1,170,0|0,0:2|2:2,0:2:0:0:
56,309,168361,1,2,0:2:0:0:
99,236,168537,1,8,0:2:0:0:
47,168,168713,2,0,P|32:124|45:73,1,85,0|2,2:2|1:2,0:2:0:0:
97,26,169066,1,0,2:2:0:0:
259,45,169243,6,0,P|283:118|217:210,1,170,0|10,0:2|0:2,0:2:0:0:
275,274,169772,1,0,0:2:0:0:
351,311,169949,1,8,0:2:0:0:
435,303,170125,1,2,0:2:0:0:
492,239,170302,1,0,0:2:0:0:
492,239,170655,6,0,B|476:183|476:183|492:135|492:135|468:63,1,170,4|2,0:0|2:2,0:2:0:0:
391,50,171184,1,0,0:2:0:0:
331,110,171361,2,0,P|288:124|234:117,1,85,4|0,0:0|0:2,0:2:0:0:
180,71,171713,1,0,1:2:0:0:
154,213,171890,1,8,0:2:0:0:
163,240,171978,1,8,0:2:0:0:
173,267,172066,5,2,0:2:0:0:
173,267,172419,2,0,P|145:309|23:314,2,170,8|0|8,0:2|0:2|0:2,0:2:0:0:
233,206,173302,1,2,2:2:0:0:
315,185,173478,5,0,0:2:0:0:
383,235,173655,2,0,P|428:242|472:236,1,85,2|8,2:2|0:2,0:2:0:0:
506,161,174008,1,2,0:2:0:0:
465,86,174184,1,8,0:2:0:0:
435,81,174272,1,0,0:2:0:0:
405,76,174361,1,0,0:2:0:0:
375,71,174449,1,0,2:2:0:0:
345,66,174537,1,8,0:2:0:0:
273,111,174713,1,2,2:2:0:0:
256,28,174890,5,4,0:0:0:0:
172,44,175066,1,0,0:2:0:0:
145,65,175155,1,0,3:2:0:0:
130,95,175243,1,0,0:2:0:0:
106,176,175419,1,2,0:2:0:0:
101,260,175595,1,2,0:2:0:0:
86,290,175683,1,2,0:2:0:0:
59,311,175772,1,10,0:2:0:0:
90,325,175861,1,10,0:2:0:0:
123,328,175949,1,10,0:2:0:0:
156,327,176037,1,2,0:2:0:0:
189,321,176125,1,2,0:2:0:0:
219,305,176213,1,2,0:2:0:0:
241,279,176302,6,0,B|277:208|224:147|224:147|301:172|362:123,1,272,4|0,0:0|2:2,0:2:0:0:
348,133,177361,2,0,L|443:142,1,85,8|0,0:2|2:2,0:2:0:0:
489,293,177713,6,0,P|442:348|344:347,1,170,4|0,0:0|2:2,0:2:0:0:
280,299,178243,2,0,P|197:296|140:355,1,170,2|0,0:2|0:2,0:2:0:0:
71,306,178772,1,8,0:2:0:0:
107,228,178949,1,0,0:2:0:0:
41,173,179125,5,4,0:0:0:0:
41,173,179655,1,0,2:2:0:0:
120,144,179831,2,0,L|290:158,1,170,2|0,2:2|2:2,0:2:0:0:
368,125,180361,1,2,2:2:0:0:
481,249,180537,6,0,B|425:265|425:265|377:249|377:249|305:273,1,170,4|0,0:0|0:2,0:2:0:0:
290,348,181066,1,8,0:2:0:0:
256,224,181243,1,8,0:2:0:0:
213,352,181419,1,8,0:2:0:0:
182,204,181596,1,8,0:2:0:0:
136,356,181772,1,8,0:2:0:0:
107,184,181949,5,4,1:0:0:0:
178,112,182125,1,0,0:2:0:0:
276,138,182302,1,0,0:2:0:0:
347,66,182478,1,4,0:0:0:0:
347,66,182831,1,8,0:2:0:0:
405,200,183008,5,4,0:0:0:0:
334,272,183184,1,0,0:2:0:0:
236,246,183361,1,0,0:2:0:0:
165,318,183537,1,4,0:0:0:0:
165,318,183890,1,8,0:2:0:0:
137,220,184066,1,8,0:2:0:0:
137,220,184155,1,8,0:2:0:0:
137,220,184243,1,8,0:2:0:0:
264,344,184419,1,8,0:2:0:0:
264,344,184508,1,8,0:2:0:0:
264,344,184596,6,0,P|358:360|448:315,1,170,2|8,0:2|0:2,0:2:0:0:
477,266,185125,1,2,0:2:0:0:
475,257,185478,1,8,0:2:0:0:
473,248,185831,1,8,0:2:0:0:
471,239,186184,6,0,P|399:211|308:260,1,170,2|8,0:2|0:2,0:2:0:0:
255,304,186713,1,0,0:2:0:0:
228,325,186801,1,0,0:2:0:0:
197,337,186889,1,0,0:2:0:0:
163,339,186977,1,0,0:2:0:0:
130,330,187065,1,0,0:2:0:0:
102,311,187154,1,0,0:2:0:0:
80,284,187243,1,10,0:2:0:0:
111,255,187331,1,2,0:2:0:0:
125,215,187419,1,2,0:2:0:0:
119,172,187508,1,2,0:2:0:0:
97,135,187596,6,0,P|54:129|11:124,1,85,4|0,0:0|0:2,0:2:0:0:
51,48,187949,2,0,L|249:73,1,170,8|0,0:2|0:2,0:2:0:0:
303,86,188478,1,0,0:2:0:0:
247,150,188655,2,0,P|235:193|246:230,1,85,10|0,0:2|0:2,0:2:0:0:
439,358,189008,6,0,P|447:316|437:276,1,85,2|0,0:2|0:2,0:2:0:0:
364,319,189361,1,8,0:2:0:0:
363,234,189537,1,2,0:2:0:0:
290,277,189713,2,0,L|277:373,1,85,0|0,0:2|0:2,0:2:0:0:
195,378,190066,1,8,0:2:0:0:
123,331,190243,1,0,0:2:0:0:
123,331,190331,1,0,0:2:0:0:
123,331,190419,5,0,0:2:0:0:
123,331,190772,2,0,L|110:235,1,85,8|0,0:2|0:2,0:2:0:0:
26,243,191125,1,2,0:2:0:0:
30,213,191213,1,0,0:2:0:0:
34,184,191301,1,0,0:2:0:0:
108,142,191478,1,8,0:2:0:0:
191,156,191655,1,2,0:2:0:0:
187,126,191743,1,0,0:2:0:0:
183,97,191831,5,0,0:2:0:0:
247,40,192008,1,0,0:2:0:0:
247,40,192096,1,0,0:2:0:0:
247,40,192184,1,10,0:2:0:0:
317,87,192361,1,2,0:2:0:0:
396,57,192537,1,0,0:2:0:0:
396,57,192625,1,0,0:2:0:0:
396,57,192713,1,2,0:2:0:0:
456,117,192890,1,8,0:2:0:0:
460,147,192978,1,0,0:2:0:0:
464,176,193066,1,0,0:2:0:0:
423,297,193243,5,4,0:0:0:0:
324,273,193419,1,0,0:2:0:0:
233,320,193596,1,0,0:2:0:0:
134,296,193772,1,4,0:0:0:0:
134,296,194125,1,8,0:2:0:0:
39,124,194302,5,4,0:0:0:0:
138,148,194478,1,0,0:2:0:0:
229,101,194655,1,0,0:2:0:0:
328,125,194831,1,4,0:0:0:0:
328,125,195184,1,8,0:2:0:0:
410,102,195361,2,4,L|392:279,1,170,6|8,0:0|0:2,0:0:0:0:
453,331,195890,1,0,0:2:0:0:
291,294,196066,5,4,0:0:0:0:
206,236,196243,1,0,0:2:0:0:
298,192,196419,1,0,0:2:0:0:
199,338,196596,1,4,0:0:0:0:
199,338,196949,1,0,0:2:0:0:
114,192,197125,5,4,0:0:0:0:
199,134,197302,1,0,0:2:0:0:
107,90,197478,1,0,0:2:0:0:
206,236,197655,1,4,0:0:0:0:
206,236,198008,1,0,0:2:0:0:
290,180,198184,1,2,0:2:0:0:
324,155,198272,1,0,0:2:0:0:
366,149,198361,1,0,0:2:0:0:
408,153,198449,1,0,0:2:0:0:
446,169,198537,1,10,0:2:0:0:
475,199,198625,1,8,0:2:0:0:
491,238,198713,1,8,0:2:0:0:
500,279,198802,1,8,0:2:0:0:
494,321,198890,6,0,P|421:317|317:363,1,170,4|8,0:0|0:2,0:2:0:0:
368,162,199419,2,0,P|313:210|272:316,1,170,4|0,0:0|0:2,0:2:0:0:
169,152,199948,2,0,P|165:225|211:329,1,170,4|8,0:0|0:2,0:2:0:0:
135,371,200478,1,0,0:2:0:0:
56,338,200654,1,0,0:2:0:0:
18,261,200831,2,0,P|10:180|61:105,1,170,0|0,0:2|0:2,0:2:0:0:
226,66,201360,5,4,0:0:0:0:
294,115,201537,1,2,0:2:0:0:
366,72,201713,1,10,0:2:0:0:
431,126,201890,2,0,P|467:187|411:269,1,152.999995330811,4|0,0:0|0:2,0:2:0:0:
365,288,202419,2,0,L|179:268,1,152.999995330811,4|8,0:0|0:2,0:2:0:0:
160,215,202948,1,8,0:3:0:0:
96,257,203125,1,0,0:2:0:0:
96,257,203478,1,0,0:2:0:0:
31,62,203831,6,0,L|194:44,1,136,4|8,0:0|0:2,0:2:0:0:
195,130,204360,2,0,L|59:144,1,136,4|0,0:0|0:2,0:2:0:0:
38,230,204890,2,0,P|112:288|221:253,2,204,4|2|0,0:0|0:2|0:2,0:2:0:0:
22,77,206301,5,4,0:0:0:0:
198,110,206831,1,2,0:2:0:0:
367,54,207360,1,4,0:0:0:0:
256,192,207448,12,2,208772,0:2:0:0:
37,284,209293,5,0,0:2:0:0:
88,340,209554,1,0,0:2:0:0:
161,359,209815,1,0,0:2:0:0:
234,338,210076,1,0,0:2:0:0:
286,282,210337,2,0,P|333:254|420:269,2,127.500004863739,0|0|0,0:2|0:2|0:2,0:2:0:0:
165,240,211902,2,0,P|156:102|310:102,1,318.750012159348,2|0,0:2|0:2,0:2:0:0:
303,95,214250,5,0,0:2:0:0:
346,158,214511,1,0,0:2:0:0:
285,204,214772,1,0,0:2:0:0:
333,262,215032,2,0,L|473:285,2,127.500004863739,0|0|0,0:2|0:2|0:2,0:2:0:0:
245,168,216598,1,0,0:2:0:0:
162,264,217119,2,0,P|103:282|26:262,1,127.500004863739,0|0,0:2|0:2,0:2:0:0:
13,144,218163,2,0,P|137:46|347:88,1,382.500014591218,2|0,0:2|0:2,0:2:0:0:
340,61,221815,5,2,0:2:0:0:
292,120,222076,1,0,0:2:0:0:
278,195,222337,1,0,0:2:0:0:
312,263,222598,1,0,0:2:0:0:
378,309,222858,2,0,P|422:326|508:304,2,136,0|2|0,0:2|0:2|0:2,0:2:0:0:
296,166,224424,1,0,0:2:0:0:
208,303,224945,1,2,0:2:0:0:
296,166,225989,5,0,0:2:0:0:
208,303,226510,1,2,0:2:0:0:
243,229,226772,1,0,0:2:0:0:
161,236,227032,2,0,P|130:241|78:237,1,68,0|0,0:2|0:2,0:2:0:0:
36,181,227554,6,0,P|15:114|44:35,2,136,0|2|0,0:2|0:2|0:2,0:2:0:0:
164,226,229119,1,0,0:2:0:0:
281,157,229641,1,2,0:2:0:0:
350,200,229902,1,0,0:2:0:0:
294,259,230163,2,0,P|288:295|303:339,1,68,0|0,0:2|0:2,0:2:0:0:
361,373,230685,5,0,0:2:0:0:
469,289,231206,1,2,0:2:0:0:
406,168,231728,1,0,0:2:0:0:
487,59,232250,2,2,B|386:-9|302:78|210:178|104:101,2,408,6|2|6,0:2|0:2|0:2,0:2:0:0:
451,126,235641,5,0,0:2:0:0:
482,195,235902,1,0,0:2:0:0:
446,262,236163,1,2,0:2:0:0:
374,233,236424,1,0,0:2:0:0:
299,248,236685,1,0,0:2:0:0:
243,300,236945,2,0,P|201:317|98:289,1,152.999995330811,2|0,3:2|0:2,0:2:0:0:
100,291,238511,6,0,P|66:203|181:200,1,229.499992996216,2|2,0:2|3:2,0:2:0:0:
239,218,239554,1,0,0:2:0:0:
311,193,239815,1,0,0:2:0:0:
370,241,240076,2,0,L|359:328,2,76.4999976654053,2|0|0,0:2|0:2|0:2,0:2:0:0:
467,123,241119,1,2,0:2:0:0:
344,31,241641,5,2,0:2:0:0:
344,31,241902,1,0,0:2:0:0:
302,95,242163,1,0,0:2:0:0:
234,59,242424,2,0,P|174:48|85:100,1,152.999995330811,2|0,0:2|0:2,0:2:0:0:
80,111,243076,1,0,0:2:0:0:
70,135,243206,1,2,0:2:0:0:
114,281,243728,1,2,0:2:0:0:
256,331,244250,1,2,0:2:0:0:
398,281,244772,5,2,0:2:0:0:
398,281,245032,1,0,0:2:0:0:
359,214,245293,1,0,0:2:0:0:
322,281,245554,2,0,P|264:296|177:269,1,152.999995330811,2|0,0:2|0:2,0:2:0:0:
114,103,246337,5,2,0:2:0:0:
114,103,246597,1,0,0:2:0:0:
153,170,246858,1,0,0:2:0:0:
190,103,247119,2,0,P|248:88|335:115,1,152.999995330811,2|0,0:2|0:2,0:2:0:0:
374,180,247902,5,2,0:2:0:0:
374,180,248163,1,0,0:2:0:0:
340,248,248424,1,0,0:2:0:0:
416,244,248685,2,0,P|456:245|490:258,2,76.4999976654053,2|0|0,0:2|0:2|0:2,0:2:0:0:
340,248,249467,2,0,P|252:246|183:212,2,152.999995330811,2|0|0,0:2|0:2|0:2,0:2:0:0:
481,188,251032,6,0,P|454:131|359:132,1,152.999995330811,2|0,0:2|0:2,0:2:0:0:
309,169,251815,1,2,0:2:0:0:
248,122,252076,2,0,L|261:41,1,76.4999976654053,0|0,0:2|0:2,0:2:0:0:
190,13,252598,2,0,L|164:174,1,152.999995330811,2|2,0:2|0:2,0:2:0:0:
165,164,254163,5,2,0:2:0:0:
98,201,254424,1,0,0:2:0:0:
98,201,254685,1,0,0:2:0:0:
163,240,254945,2,0,L|316:224,1,152.999995330811,2|0,0:2|0:2,0:2:0:0:
391,216,255728,5,2,0:2:0:0:
345,154,255989,1,0,0:2:0:0:
421,146,256250,2,0,P|465:202|436:278,1,152.999995330811,2|0,0:2|0:2,0:2:0:0:
440,273,257293,5,2,0:2:0:0:
288,249,257815,1,2,0:2:0:0:
152,320,258337,1,0,0:2:0:0:
103,261,258598,1,0,0:2:0:0:
128,188,258858,5,2,0:2:0:0:
128,188,259380,2,0,L|141:136,3,38.2499988327027,8|0|0|0,0:2|0:2|0:2|0:2,0:2:0:0:
143,120,259902,1,4,0:3:0:0:
175,139,260032,1,4,0:3:0:0:
212,145,260163,1,4,0:3:0:0:
249,140,260293,1,4,0:3:0:0:
282,120,260424,6,0,P|288:71|196:46,2,152.999995330811,4|0|2,1:0|0:2|0:2,0:2:0:0:
256,192,261728,1,0,0:2:0:0:
230,264,261989,2,0,P|224:313|316:338,2,152.999995330811,2|0|0,0:2|0:2|0:2,0:2:0:0:
185,201,263293,1,0,0:2:0:0:
108,205,263554,5,2,0:2:0:0:
31,73,264076,2,0,L|58:78,3,25.4999992218018,0|0|0|0,0:2|0:2|0:2|0:2,0:2:0:0:
133,84,264598,1,0,0:2:0:0:
204,110,264858,1,0,0:2:0:0:
243,175,265119,5,2,0:2:0:0:
243,175,265250,1,0,0:2:0:0:
243,175,265380,1,0,0:2:0:0:
303,128,265641,2,0,P|348:113|438:160,1,152.999995330811,0|0,0:2|0:2,0:2:0:0:
422,233,266424,1,0,0:2:0:0:
471,291,266685,5,2,0:2:0:0:
332,355,267206,1,2,0:2:0:0:
314,351,267293,1,0,0:2:0:0:
296,348,267380,1,0,0:2:0:0:
278,345,267467,2,0,L|224:335,2,38.2499988327027,0|0|0,0:2|0:2|0:2,0:2:0:0:
297,270,267989,1,0,0:2:0:0:
372,281,268250,5,2,0:2:0:0:
343,209,268511,1,0,0:2:0:0:
404,163,268772,1,2,0:2:0:0:
421,159,268859,1,0,0:2:0:0:
438,156,268946,1,0,0:2:0:0:
455,154,269032,2,0,L|448:127,3,25.4999992218018,0|0|0|0,0:2|0:2|0:2|0:2,0:2:0:0:
407,64,269554,1,0,0:2:0:0:
332,48,269815,5,2,0:2:0:0:
263,185,270337,1,2,0:2:0:0:
245,187,270424,1,0,0:2:0:0:
227,190,270511,1,0,0:2:0:0:
209,193,270598,1,0,0:2:0:0:
133,206,270858,1,0,0:2:0:0:
159,134,271119,1,0,0:2:0:0:
122,66,271380,5,2,0:2:0:0:
256,352,272945,1,0,0:2:0:0:
390,66,274511,1,2,0:2:0:0:
256,192,276076,1,0,0:2:0:0:
256,192,276206,12,4,277641,0:0:0:0:
256,192,289078,5,0,0:2:0:0:
256,192,289265,1,8,0:2:0:0:
48,336,289641,5,0,0:2:0:0:
121,293,289828,1,0,0:2:0:0:
197,330,290016,2,0,P|235:337|286:324,1,85,8|0,0:2|0:2,0:2:0:0:
318,250,290391,1,0,0:2:0:0:
256,192,290578,1,8,0:2:0:0:
256,192,290953,1,2,0:2:0:0:
406,84,291141,5,0,0:2:0:0:
411,112,291234,1,8,0:2:0:0:
416,141,291328,1,0,0:2:0:0:
371,213,291516,2,0,P|408:224|465:209,1,85,8|0,0:2|0:2,0:2:0:0:
501,285,291891,1,0,0:2:0:0:
460,359,292078,1,0,0:2:0:0:
378,332,292266,2,0,P|335:329|285:340,1,85,8|0,0:2|0:2,0:2:0:0:
152,371,292641,5,0,0:2:0:0:
196,299,292828,1,0,0:2:0:0:
110,297,293016,2,0,P|126:248|159:222,1,85,8|0,0:2|0:2,0:2:0:0:
196,299,293391,1,0,0:2:0:0:
47,217,293578,1,8,0:2:0:0:
47,217,293953,6,0,P|70:168|52:68,1,127.5,2|8,0:2|0:2,0:2:0:0:
55,68,294328,1,0,0:2:0:0:
127,23,294516,1,8,0:2:0:0:
189,80,294703,1,0,0:2:0:0:
259,32,294891,1,0,0:2:0:0:
287,37,294984,1,8,0:2:0:0:
316,43,295078,1,0,0:2:0:0:
393,8,295266,1,8,0:2:0:0:
473,112,295453,1,8,0:2:0:0:
445,117,295546,1,8,0:2:0:0:
416,123,295641,6,0,L|234:156,1,170,0|8,0:2|0:2,0:2:0:0:
241,238,296203,2,0,L|408:207,1,170,0|0,0:2|0:2,0:2:0:0:
313,65,296766,1,2,0:2:0:0:
272,316,296953,6,0,L|113:344,1,127.5,0|8,0:2|0:2,0:2:0:0:
117,346,297328,1,0,0:2:0:0:
52,290,297516,1,8,0:2:0:0:
117,235,297703,1,0,0:2:0:0:
139,152,297891,1,0,0:2:0:0:
113,71,298078,1,0,0:2:0:0:
35,34,298266,2,0,P|26:76|40:117,1,85,8|0,0:2|0:2,0:2:0:0:
240,183,298641,6,0,L|416:164,1,170,0|8,0:2|0:2,0:2:0:0:
445,241,299203,2,0,L|275:259,1,170,0|0,0:2|0:2,0:2:0:0:
322,95,299766,1,2,0:2:0:0:
398,338,299953,6,0,L|245:354,1,127.5,0|8,0:2|0:2,0:2:0:0:
241,355,300328,1,0,0:2:0:0:
156,367,300516,1,0,0:2:0:0:
156,367,300891,1,0,0:2:0:0:
151,339,300984,1,8,0:2:0:0:
145,310,301078,1,0,0:2:0:0:
180,233,301266,1,8,0:2:0:0:
26,212,301453,1,8,0:2:0:0:
21,240,301546,1,8,0:2:0:0:
15,269,301641,5,2,0:2:0:0:
66,337,301828,1,0,0:2:0:0:
145,310,302016,2,0,P|188:313|241:335,1,85,8|0,0:2|0:2,0:2:0:0:
305,361,302391,1,0,0:2:0:0:
376,315,302578,1,8,0:2:0:0:
376,315,302953,1,2,0:2:0:0:
249,215,303141,5,0,0:2:0:0:
277,207,303234,1,8,0:2:0:0:
305,199,303328,1,0,0:2:0:0:
346,124,303516,1,8,0:2:0:0:
390,195,303703,2,0,P|421:158|428:108,1,85,0|0,0:2|0:2,0:2:0:0:
386,49,304078,1,0,0:2:0:0:
346,124,304266,1,8,0:2:0:0:
390,195,304453,1,0,0:2:0:0:
349,270,304641,5,0,0:2:0:0:
305,199,304828,1,0,0:2:0:0:
227,163,305016,2,0,P|188:155|124:170,1,85,8|0,0:2|0:2,0:2:0:0:
74,210,305391,1,0,0:2:0:0:
44,86,305578,1,8,0:2:0:0:
44,86,305953,6,0,P|96:96|185:60,1,127.5,0|8,0:2|0:2,0:2:0:0:
187,54,306328,1,0,0:2:0:0:
269,31,306516,1,8,0:2:0:0:
347,62,306703,1,0,0:2:0:0:
399,129,306891,1,0,0:2:0:0:
406,157,306984,1,8,0:2:0:0:
400,186,307078,1,0,0:2:0:0:
349,255,307266,1,8,0:2:0:0:
470,371,307453,1,8,0:2:0:0:
463,343,307546,1,8,0:2:0:0:
469,314,307641,6,0,L|279:338,1,170,4|8,0:0|0:2,0:2:0:0:
263,259,308203,2,0,P|300:183|393:180,1,170,0|0,0:2|0:2,0:2:0:0:
349,255,308766,1,2,0:2:0:0:
235,129,308953,6,0,L|72:117,1,127.5,0|8,0:2|0:2,0:2:0:0:
78,117,309328,1,0,0:2:0:0:
63,32,309516,2,0,L|175:40,1,85,8|0,0:2|0:2,0:2:0:0:
232,44,309891,1,0,0:2:0:0:
240,214,310078,1,0,0:2:0:0:
155,207,310266,2,0,L|70:200,1,85,8|0,0:2|0:2,0:2:0:0:
232,44,310641,6,0,B|288:28|288:28|336:44|336:44|408:20,1,170,0|8,0:2|0:2,0:2:0:0:
461,76,311203,1,0,0:2:0:0:
424,153,311391,1,0,0:2:0:0:
479,217,311578,2,0,P|487:262|472:315,1,85,8|0,0:2|0:2,0:2:0:0:
337,358,311953,6,0,B|308:284|308:284|326:234,1,127.5,2|8,0:2|0:2,0:2:0:0:
337,211,312328,1,0,0:2:0:0:
276,150,312516,1,8,0:2:0:0:
276,150,312891,1,0,0:2:0:0:
246,155,312984,1,8,0:2:0:0:
216,160,313078,1,0,0:2:0:0:
155,99,313266,1,8,0:2:0:0:
10,229,313453,1,8,0:2:0:0:
40,234,313546,1,8,0:2:0:0:
70,239,313640,5,4,0:0:0:0:
171,230,313828,1,2,0:2:0:0:
263,272,314016,1,8,0:2:0:0:
325,352,314203,2,0,P|416:368|498:295,1,170,4|0,0:0|0:2,0:2:0:0:
424,262,314766,1,0,0:2:0:0:
491,210,314953,6,0,L|475:110,1,85,4|0,0:0|0:2,0:2:0:0:
378,99,315328,2,0,L|391:182,1,85,0|8,0:0|0:2,0:2:0:0:
322,258,315703,2,0,P|262:275|170:200,1,170,2|0,0:2|0:2,0:2:0:0:
208,121,316266,1,8,0:2:0:0:
37,38,316453,1,0,0:2:0:0:
37,38,316547,1,0,0:2:0:0:
37,38,316641,6,0,L|53:146,1,85,4|0,0:0|0:2,0:2:0:0:
140,168,317016,1,10,0:2:0:0:
63,235,317203,2,0,P|126:271|226:222,1,170,4|0,0:0|0:2,0:2:0:0:
238,140,317766,2,0,L|233:48,1,85,14|0,0:2|0:2,0:2:0:0:
407,26,318141,5,0,0:2:0:0:
405,68,318234,1,0,0:2:0:0:
402,111,318328,1,0,0:2:0:0:
392,212,318516,1,8,0:2:0:0:
392,212,318891,1,0,0:2:0:0:
353,194,318984,1,0,0:2:0:0:
310,195,319078,1,0,0:2:0:0:
271,212,319172,1,0,0:2:0:0:
243,244,319266,1,8,0:2:0:0:
198,316,319453,1,0,0:2:0:0:
170,348,319547,1,0,0:2:0:0:
131,365,319641,5,4,0:0:0:0:
59,293,319828,1,2,0:2:0:0:
104,201,320016,1,0,0:2:0:0:
32,129,320203,2,0,P|54:91|175:81,1,170,4|0,0:0|0:2,0:2:0:0:
238,126,320766,1,8,0:2:0:0:
259,207,320953,6,0,L|246:325,1,85,4|0,0:0|0:2,0:2:0:0:
347,184,321328,1,2,0:2:0:0:
337,268,321515,1,8,0:2:0:0:
438,164,321703,2,0,B|433:208|433:208|479:225|493:275|465:323,1,170,2|0,0:2|0:2,0:2:0:0:
403,365,322266,1,8,0:2:0:0:
403,365,322359,1,0,0:2:0:0:
403,365,322453,1,0,0:2:0:0:
259,207,322641,6,0,L|79:193,1,170,4|8,0:0|0:2,0:2:0:0:
68,111,323203,2,0,L|178:119,1,85,2|0,0:2|0:2,0:2:0:0:
237,125,323578,1,0,0:2:0:0:
282,50,323766,2,0,P|242:38|201:47,1,85,4|0,0:0|0:2,0:2:0:0:
253,207,324141,5,0,0:2:0:0:
282,204,324234,1,8,0:2:0:0:
312,202,324328,1,0,0:2:0:0:
398,196,324516,1,8,0:2:0:0:
470,333,324703,1,0,0:2:0:0:
440,331,324796,1,8,0:2:0:0:
411,329,324890,1,0,0:2:0:0:
382,327,324984,1,8,0:2:0:0:
353,325,325078,1,8,0:2:0:0:
237,125,325266,1,8,0:2:0:0:
267,123,325359,1,8,0:2:0:0:
296,121,325453,1,8,0:2:0:0:
325,119,325547,1,8,0:2:0:0:
354,117,325641,5,4,0:0:0:0:
354,117,326016,1,0,0:2:0:0:
327,188,326203,1,0,0:2:0:0:
402,176,326391,1,0,0:2:0:0:
420,178,326484,1,0,0:2:0:0:
439,180,326578,1,0,0:2:0:0:
308,260,326766,5,4,1:0:0:0:
335,331,326953,1,0,0:2:0:0:
260,319,327141,1,0,0:2:0:0:
242,321,327234,1,0,0:2:0:0:
223,323,327328,1,0,0:2:0:0:
196,251,327516,1,0,0:2:0:0:
214,249,327609,1,0,0:2:0:0:
233,247,327703,1,0,0:2:0:0:
246,171,327891,1,0,0:2:0:0:
228,173,327984,1,0,0:2:0:0:
209,175,328078,1,0,0:2:0:0:
182,103,328266,1,0,0:2:0:0:
200,101,328359,1,0,0:2:0:0:
219,99,328453,1,0,0:2:0:0:
238,97,328547,1,0,0:2:0:0:
257,95,328641,5,4,1:0:0:0:
311,41,328828,1,0,0:2:0:0:
329,43,328921,1,0,0:2:0:0:
348,45,329015,1,0,0:2:0:0:
367,47,329109,1,0,0:2:0:0:
386,49,329203,1,0,0:2:0:0:
435,107,329391,1,0,0:2:0:0:
435,107,329484,1,0,0:2:0:0:
435,107,329578,1,0,0:2:0:0:
293,163,329766,5,4,1:0:0:0:
247,223,329953,1,0,0:2:0:0:
323,229,330140,1,0,0:2:0:0:
342,227,330234,1,0,0:2:0:0:
361,225,330328,1,0,0:2:0:0:
388,296,330516,1,0,0:2:0:0:
369,298,330610,1,0,0:2:0:0:
350,300,330704,1,0,0:2:0:0:
286,342,330891,1,0,0:2:0:0:
267,340,330985,1,0,0:2:0:0:
248,338,331079,1,0,0:2:0:0:
190,287,331266,1,0,0:2:0:0:
171,289,331360,1,0,0:2:0:0:
152,291,331454,1,0,0:2:0:0:
133,294,331547,1,0,0:2:0:0:
114,297,331641,6,0,L|33:280,1,76.4999976654053,4|0,1:0|0:2,0:2:0:0:
32,263,331922,1,0,0:0:0:0:
32,243,332016,1,0,0:2:0:0:
38,225,332109,1,0,0:2:0:0:
49,209,332203,1,0,0:2:0:0:
107,158,332391,1,0,0:2:0:0:
117,142,332484,1,0,0:2:0:0:
120,123,332578,1,0,0:2:0:0:
256,24,332766,5,4,1:0:0:0:
295,89,332953,1,0,0:2:0:0:
218,90,333141,1,0,0:2:0:0:
212,108,333234,1,0,0:2:0:0:
206,126,333328,1,0,0:2:0:0:
259,180,333516,1,0,0:2:0:0:
253,198,333609,1,0,0:2:0:0:
247,216,333703,1,0,0:2:0:0:
295,275,333891,1,0,0:2:0:0:
289,293,333984,1,0,0:2:0:0:
283,311,334078,1,0,0:2:0:0:
334,367,334266,1,0,0:2:0:0:
334,367,334359,1,0,0:2:0:0:
334,367,334453,1,0,0:2:0:0:
492,331,334641,6,0,L|481:247,1,76.4999976654053,4|0,1:0|0:2,0:2:0:0:
427,201,335016,1,0,0:2:0:0:
429,182,335109,1,0,0:2:0:0:
432,163,335203,1,0,0:2:0:0:
347,85,335391,1,0,0:2:0:0:
349,104,335484,1,0,0:2:0:0:
352,123,335578,1,0,0:2:0:0:
301,226,335766,5,4,1:0:0:0:
282,224,335859,1,0,0:2:0:0:
263,221,335953,1,0,0:2:0:0:
186,215,336141,1,8,0:2:0:0:
114,241,336328,1,0,0:2:0:0:
71,305,336516,1,8,0:2:0:0:
66,323,336609,1,0,0:2:0:0:
61,341,336703,1,0,0:2:0:0:
186,215,336891,1,8,0:2:0:0:
194,189,336984,1,0,0:2:0:0:
193,162,337078,1,8,0:2:0:0:
182,137,337172,1,0,0:2:0:0:
163,118,337266,1,8,0:2:0:0:
141,103,337360,1,8,0:2:0:0:
130,78,337454,1,8,0:2:0:0:
129,51,337548,1,8,0:2:0:0:
137,25,337641,5,4,1:0:0:0:
207,53,337828,1,0,0:2:0:0:
233,46,337922,1,0,0:2:0:0:
259,39,338016,1,8,3:2:0:0:
314,91,338203,1,0,0:2:0:0:
340,98,338297,1,0,0:2:0:0:
366,105,338391,1,8,0:2:0:0:
427,59,338578,1,0,0:2:0:0:
427,59,338672,1,0,0:2:0:0:
427,59,338766,5,8,0:2:0:0:
463,167,338953,1,0,0:2:0:0:
397,261,339141,1,8,0:2:0:0:
371,254,339235,1,0,0:2:0:0:
345,247,339329,1,0,0:2:0:0:
302,183,339516,1,8,0:2:0:0:
276,190,339610,1,0,0:2:0:0:
250,197,339704,1,0,0:2:0:0:
200,255,339891,1,8,0:2:0:0:
174,248,339985,1,0,0:2:0:0:
148,241,340079,1,0,0:2:0:0:
86,286,340266,1,8,0:2:0:0:
57,136,340453,1,0,0:2:0:0:
83,143,340547,1,0,0:2:0:0:
109,150,340641,5,10,1:2:0:0:
172,107,340828,1,0,0:2:0:0:
165,81,340922,1,0,0:2:0:0:
158,55,341016,1,8,0:2:0:0:
252,119,341203,1,0,0:2:0:0:
245,145,341297,1,0,0:2:0:0:
238,171,341391,1,8,0:2:0:0:
231,196,341484,1,0,0:2:0:0:
224,222,341578,1,0,0:2:0:0:
320,283,341766,5,10,1:2:0:0:
313,257,341860,1,0,0:2:0:0:
306,231,341954,1,0,0:2:0:0:
407,283,342141,2,0,L|383:370,1,85,8|0,0:2|0:2,0:2:0:0:
489,276,342516,1,8,0:2:0:0:
482,250,342610,1,0,0:2:0:0:
475,224,342704,1,0,0:2:0:0:
403,197,342891,1,8,0:2:0:0:
410,171,342985,1,0,0:2:0:0:
417,145,343079,1,0,0:2:0:0:
488,117,343266,1,8,0:2:0:0:
481,91,343360,1,0,0:2:0:0:
474,65,343454,1,0,0:2:0:0:
288,20,343641,5,10,1:2:0:0:
234,73,343828,1,0,0:2:0:0:
241,99,343922,1,0,0:2:0:0:
248,125,344016,1,8,0:2:0:0:
194,178,344203,1,0,0:2:0:0:
139,232,344391,1,8,0:2:0:0:
132,258,344485,1,0,0:2:0:0:
125,284,344579,1,0,0:2:0:0:
224,364,344766,5,10,1:2:0:0:
278,311,344953,1,0,0:2:0:0:
271,285,345047,1,0,0:2:0:0:
264,259,345141,1,8,0:2:0:0:
318,206,345328,1,0,0:2:0:0:
373,152,345516,1,8,0:2:0:0:
380,126,345610,1,0,0:2:0:0:
387,100,345704,1,0,0:2:0:0:
417,29,345891,1,8,0:2:0:0:
342,37,346078,1,0,0:2:0:0:
462,91,346265,1,8,0:2:0:0:
469,117,346359,1,0,0:2:0:0:
476,143,346453,1,0,0:2:0:0:
510,266,346641,5,10,1:2:0:0:
453,317,346828,1,0,0:2:0:0:
427,310,346922,1,0,0:2:0:0:
401,303,347016,1,8,0:2:0:0:
376,296,347109,1,0,0:2:0:0:
350,289,347203,1,0,0:2:0:0:
295,234,347391,1,8,0:2:0:0:
269,241,347485,1,0,0:2:0:0:
243,248,347579,1,0,0:2:0:0:
218,255,347672,1,0,0:2:0:0:
192,262,347766,5,10,1:2:0:0:
166,254,347859,1,0,0:2:0:0:
140,246,347953,1,0,0:2:0:0:
230,174,348141,1,8,0:2:0:0:
256,166,348234,1,8,0:2:0:0:
282,158,348328,1,0,0:2:0:0:
183,97,348516,1,8,0:2:0:0:
157,89,348609,1,0,0:2:0:0:
131,81,348703,1,8,0:2:0:0:
230,23,348891,1,8,0:2:0:0:
256,15,348984,1,0,0:2:0:0:
282,12,349078,1,8,0:2:0:0:
308,18,349172,1,0,0:2:0:0:
329,34,349266,1,8,0:2:0:0:
361,54,349360,1,0,0:2:0:0:
399,58,349454,1,8,0:2:0:0:
435,47,349548,1,8,0:2:0:0:
460,19,349641,5,4,1:0:0:0:
496,95,349828,2,0,P|468:135|465:192,1,85,2|0,1:2|0:2,0:2:0:0:
498,246,350203,1,0,1:2:0:0:
427,293,350391,2,0,L|327:281,1,85,2|0,1:2|0:2,0:2:0:0:
302,207,350766,5,4,1:0:0:0:
248,322,350953,2,0,L|150:311,1,85,2|0,1:2|0:2,0:2:0:0:
289,197,351328,5,0,1:0:0:0:
235,312,351515,2,0,L|137:301,1,85,2|0,1:2|0:2,0:2:0:0:
278,188,351891,5,10,1:2:0:0:
151,197,352078,1,2,1:2:0:0:
224,303,352266,1,2,1:2:0:0:
207,40,352641,5,4,1:0:0:0:
144,96,352828,1,2,1:2:0:0:
73,48,353016,2,0,P|58:99|68:135,1,85,0|0,0:2|1:2,0:2:0:0:
132,180,353391,1,2,1:2:0:0:
210,147,353578,1,0,0:2:0:0:
234,272,353766,5,4,1:0:0:0:
288,157,353953,2,0,L|386:168,1,85,2|0,1:2|0:2,0:2:0:0:
247,282,354328,5,0,1:2:0:0:
301,167,354515,2,0,L|399:178,1,85,2|0,1:2|0:2,0:2:0:0:
258,291,354891,5,10,1:2:0:0:
385,282,355078,1,2,1:2:0:0:
492,351,355266,1,2,1:2:0:0:
312,176,355641,5,4,1:0:0:0:
369,62,355828,2,0,B|313:46|313:46|265:62|265:62|193:38,1,170,2|0,1:2|0:2,0:2:0:0:
126,141,356391,2,0,P|176:147|214:133,1,85,10|0,1:2|0:2,0:2:0:0:
113,50,356766,5,4,1:0:0:0:
126,141,356953,1,2,1:2:0:0:
290,95,357328,1,0,1:2:0:0:
277,186,357515,1,2,1:2:0:0:
117,245,357891,1,10,1:2:0:0:
130,336,358078,1,2,1:2:0:0:
44,301,358266,1,2,1:2:0:0:
44,301,358641,5,4,1:0:0:0:
201,280,358828,2,0,L|375:263,1,170,2|0,1:2|1:2,0:2:0:0:
429,202,359391,2,0,P|439:160|419:109,1,85,10|0,1:2|0:2,0:2:0:0:
256,28,359766,5,4,1:0:0:0:
256,112,359953,1,2,0:2:0:0:
181,70,360141,2,0,P|137:69|97:83,1,85,0|0,0:2|1:2,0:2:0:0:
62,105,360422,1,8,3:0:0:0:
38,140,360516,1,2,1:2:0:0:
22,179,360609,1,0,0:2:0:0:
19,221,360703,1,2,0:2:0:0:
28,262,360797,1,0,0:2:0:0:
51,295,360891,1,4,0:0:0:0:
376,192,361748,5,4,0:0:0:0:
292,192,361962,1,2,0:2:0:0:
334,118,362176,1,2,0:2:0:0:
334,118,362605,1,2,0:2:0:0:
84,32,363462,5,4,0:0:0:0:
24,192,363891,1,4,0:0:0:0:
84,352,364319,1,4,0:0:0:0:
376,192,365176,5,4,0:0:0:0:
292,192,365390,1,2,0:2:0:0:
334,266,365604,1,2,0:2:0:0:
334,266,366033,1,2,0:2:0:0:
342,96,366462,1,2,0:2:0:0:
184,297,366891,1,4,0:0:0:0:
196,42,367319,2,0,L|110:62,1,85,2|0,0:2|2:2,0:2:0:0:
29,77,367748,5,2,0:2:0:0:
72,129,367962,1,0,0:2:0:0:
85,195,368176,1,0,0:2:0:0:
66,260,368391,1,0,0:2:0:0:
18,308,368605,5,2,0:2:0:0:
149,274,369033,1,0,0:2:0:0:
272,331,369462,1,2,0:2:0:0:
149,274,369891,1,0,0:2:0:0:
166,139,370319,1,0,0:2:0:0:
149,274,370748,1,0,0:2:0:0:
274,222,371176,5,2,0:2:0:0:
397,40,371605,1,0,0:2:0:0:
405,260,372033,1,2,0:2:0:0:
269,86,372462,1,0,0:2:0:0:
481,147,372891,6,0,L|397:151,1,68,2|0,0:2|0:2,0:2:0:0:
349,174,373319,1,0,0:2:0:0:
284,152,373533,1,0,0:2:0:0:
234,198,373748,2,0,P|227:238|240:274,1,68,2|0,0:2|0:2,0:2:0:0:
285,307,374176,1,0,0:2:0:0:
285,307,374605,5,0,0:2:0:0:
232,350,374819,1,0,0:2:0:0:
164,354,375033,1,0,0:2:0:0:
98,334,375248,1,0,0:2:0:0:
59,278,375462,1,2,0:2:0:0:
27,145,375891,1,0,0:2:0:0:
157,184,376319,5,2,0:2:0:0:
342,100,376748,1,0,0:2:0:0:
323,303,377176,1,2,0:2:0:0:
266,178,377605,1,0,0:2:0:0:
401,192,378033,6,0,B|459:163|459:163|480:93,1,136,2|0,0:2|0:2,0:2:0:0:
367,17,378891,2,0,B|309:46|309:46|288:114,1,136,2|0,0:2|0:2,0:2:0:0:
278,249,379748,5,2,0:2:0:0:
215,221,379962,1,0,0:2:0:0:
147,223,380176,1,0,0:2:0:0:
82,246,380391,1,0,0:2:0:0:
134,289,380605,1,2,0:2:0:0:
95,179,380819,1,0,1:2:0:0:
95,179,380926,1,0,1:2:0:0:
95,179,381033,2,0,L|110:90,1,68,8|0,1:2|0:2,0:2:0:0:
256,24,381462,6,0,P|294:101|240:184,1,170,4|8,1:0|0:2,0:2:0:0:
303,244,382105,1,0,2:2:0:0:
379,206,382319,2,0,P|420:198|462:205,1,85,2|0,0:2|2:2,0:2:0:0:
507,278,382748,1,8,0:2:0:0:
422,279,382962,1,0,2:2:0:0:
445,110,383176,6,0,P|386:52|298:82,1,170,2|8,0:2|0:2,0:2:0:0:
241,123,383819,1,0,2:2:0:0:
212,202,384033,2,0,L|226:306,1,85,2|0,0:2|2:2,0:2:0:0:
174,355,384462,1,8,0:2:0:0:
174,355,384676,1,0,2:2:0:0:
39,260,384891,6,0,P|6:179|70:92,1,170,2|8,0:2|0:2,0:2:0:0:
114,68,385533,1,0,2:2:0:0:
181,119,385748,1,10,0:2:0:0:
181,119,385855,1,0,0:2:0:0:
285,46,386176,2,0,L|395:71,1,85,8|0,0:2|2:2,0:2:0:0:
450,85,386605,5,2,0:2:0:0:
396,246,387033,1,8,0:2:0:0:
317,279,387248,1,0,2:2:0:0:
384,330,387462,1,2,0:2:0:0:
384,330,387569,1,0,2:2:0:0:
384,330,387676,1,0,2:2:0:0:
327,195,387891,1,8,0:2:0:0:
249,228,388105,1,2,0:2:0:0:
317,279,388319,5,4,0:0:0:0:
194,97,388533,1,0,2:2:0:0:
186,317,388748,1,4,0:0:0:0:
322,143,388962,1,0,2:2:0:0:
110,204,389176,1,4,0:0:0:0:
110,204,389605,1,4,0:0:0:0:
231,226,389819,1,0,2:0:0:0:
322,143,390033,5,4,0:0:0:0:
69,108,390462,1,4,0:0:0:0:
355,70,390891,1,4,0:0:0:0:
51,28,391319,2,0,L|66:74,1,42.5,4|8,0:0|0:2,0:2:0:0:
109,210,391748,5,2,0:2:0:0:
81,290,391962,1,0,0:2:0:0:
72,318,392069,1,0,0:2:0:0:
64,346,392176,1,2,0:2:0:0:
173,280,392391,1,0,0:2:0:0:
164,308,392498,1,0,0:2:0:0:
156,336,392605,1,2,0:2:0:0:
266,273,392819,1,0,0:2:0:0:
257,301,392926,1,0,0:2:0:0:
249,329,393033,1,2,0:2:0:0:
358,263,393248,1,0,0:2:0:0:
349,291,393355,1,0,0:2:0:0:
341,319,393462,5,2,0:2:0:0:
455,263,393676,1,0,0:2:0:0:
446,235,393783,1,0,0:2:0:0:
438,207,393890,1,2,0:2:0:0:
344,119,394105,1,0,0:2:0:0:
335,147,394212,1,0,0:2:0:0:
327,175,394319,1,2,0:2:0:0:
441,119,394533,1,0,0:2:0:0:
432,91,394640,1,0,0:2:0:0:
424,63,394747,1,2,0:2:0:0:
302,22,394962,1,0,0:2:0:0:
302,22,395069,1,0,0:2:0:0:
302,22,395176,5,2,0:2:0:0:
262,143,395391,1,0,0:2:0:0:
253,171,395498,1,0,0:2:0:0:
245,199,395605,1,2,0:2:0:0:
189,84,395819,1,0,0:2:0:0:
180,112,395926,1,0,0:2:0:0:
172,140,396033,1,2,0:2:0:0:
109,28,396248,1,0,0:2:0:0:
100,56,396355,1,0,0:2:0:0:
92,84,396462,1,2,0:2:0:0:
12,183,396676,1,0,0:2:0:0:
12,183,396783,1,0,0:2:0:0:
12,183,396890,5,2,0:2:0:0:
52,304,397105,1,0,0:2:0:0:
61,332,397212,1,0,0:2:0:0:
69,360,397319,1,2,0:2:0:0:
125,245,397533,1,0,0:2:0:0:
134,273,397640,1,0,0:2:0:0:
142,301,397747,1,2,0:2:0:0:
205,189,397962,1,0,0:2:0:0:
214,217,398069,1,0,0:2:0:0:
222,245,398176,1,2,0:2:0:0:
279,130,398391,1,0,0:2:0:0:
287,158,398498,1,2,0:2:0:0:
287,158,399167,5,0,0:2:0:0:
296,176,399261,2,0,P|360:202|395:198,1,106.25,0|0,0:2|0:2,0:2:0:0:
459,164,399917,6,0,P|476:99|361:69,1,204,4|10,0:0|0:2,0:2:0:0:
255,137,400854,1,0,0:2:0:0:
203,200,401042,2,0,P|194:236|204:277,1,68,0|0,0:2|0:2,0:2:0:0:
257,322,401417,5,2,0:2:0:0:
101,273,401792,1,2,0:2:0:0:
101,273,401885,1,2,0:2:0:0:
101,273,401979,1,10,0:2:0:0:
22,251,402167,1,0,0:2:0:0:
80,194,402354,2,0,P|90:118|84:60,1,136,0|8,0:2|0:2,0:2:0:0:
242,48,402917,6,0,P|265:137|177:167,1,204,0|10,0:2|0:2,0:2:0:0:
59,280,403854,1,0,0:2:0:0:
117,337,404042,2,0,P|168:322|207:324,1,68,0|0,0:2|0:2,0:2:0:0:
258,352,404417,5,2,0:2:0:0:
185,205,404792,1,2,0:2:0:0:
185,205,404885,1,2,0:2:0:0:
185,205,404979,1,10,0:2:0:0:
259,238,405167,1,0,0:2:0:0:
330,198,405354,1,0,0:2:0:0:
352,188,405448,1,8,0:2:0:0:
375,184,405542,1,8,0:2:0:0:
455,194,405729,1,0,0:2:0:0:
471,340,405917,6,0,P|406:358|336:318,1,136,0|0,0:2|0:2,0:2:0:0:
287,273,406479,2,0,P|226:245|162:263,1,136,10|0,0:2|0:2,0:2:0:0:
114,329,407042,1,0,0:2:0:0:
26,170,407417,6,0,L|164:178,1,136,2|0,0:2|0:2,0:2:0:0:
243,183,407979,1,10,0:2:0:0:
265,104,408167,1,0,0:2:0:0:
201,52,408354,1,0,0:2:0:0:
320,27,408635,1,0,0:2:0:0:
320,27,408729,1,8,0:2:0:0:
392,64,408917,6,0,P|410:129|370:199,1,136,0|0,0:2|0:2,0:2:0:0:
314,233,409479,2,0,P|286:293|304:357,1,136,10|0,0:2|0:2,0:2:0:0:
382,383,410042,1,0,0:2:0:0:
209,281,410417,6,0,P|141:279|66:336,1,136,2|0,0:2|0:2,0:2:0:0:
20,260,410979,1,10,0:2:0:0:
77,202,411167,1,0,0:2:0:0:
19,144,411354,1,0,0:2:0:0:
76,86,411542,1,8,0:2:0:0:
104,68,411635,1,0,0:2:0:0:
137,61,411729,1,8,0:2:0:0:
171,62,411823,1,8,0:2:0:0:
202,74,411917,6,0,P|262:98|339:72,1,136,2|0,0:2|0:2,0:2:0:0:
393,30,412479,2,0,L|422:101,1,68,10|0,0:2|0:2,0:2:0:0:
452,167,412854,1,0,0:0:0:0:
500,100,413042,1,0,0:2:0:0:
500,100,413229,1,8,0:2:0:0:
364,134,413417,6,0,P|337:202|378:273,1,136,2|0,0:2|0:2,0:2:0:0:
303,316,413979,2,0,L|218:301,1,68,10|0,0:2|0:2,0:2:0:0:
155,289,414354,1,0,0:2:0:0:
209,227,414543,1,0,0:2:0:0:
209,227,414730,1,8,0:2:0:0:
44,316,414918,6,0,P|21:253|63:171,1,136,4|0,0:0|0:2,0:2:0:0:
115,154,415480,2,0,L|203:168,1,68,10|0,0:2|0:2,0:2:0:0:
258,135,415855,2,0,P|279:71|256:9,1,136,4|0,0:0|0:2,0:2:0:0:
42,190,416418,6,0,P|72:248|174:249,1,152.999995330811,4|0,0:0|0:2,0:2:0:0:
240,232,416980,1,8,0:2:0:0:
266,225,417074,1,8,0:2:0:0:
292,221,417168,1,8,0:2:0:0:
318,223,417261,1,8,0:2:0:0:
343,230,417355,1,0,0:2:0:0:
366,243,417449,1,0,0:2:0:0:
385,261,417543,1,0,0:2:0:0:
432,338,417730,1,8,0:2:0:0:
455,325,417824,1,8,0:2:0:0:
479,312,417918,6,0,P|515:257|462:185,1,152.999995330811,4|0,0:0|0:2,0:2:0:0:
386,163,418480,2,0,P|345:103|381:40,1,152.999995330811,8|8,0:2|0:2,0:2:0:0:
471,22,419043,1,2,0:2:0:0:
471,22,419230,1,0,0:2:0:0:
260,111,419418,6,0,L|96:97,1,152.999995330811,4|0,0:0|0:2,0:2:0:0:
31,149,419980,1,10,0:2:0:0:
98,211,420168,1,0,0:2:0:0:
36,279,420355,1,0,0:2:0:0:
36,279,420449,1,0,0:2:0:0:
36,279,420543,1,10,0:2:0:0:
97,347,420730,1,0,0:2:0:0:
290,357,420918,6,0,P|318:302|271:222,1,152.999995330811,4|0,0:0|0:2,0:2:0:0:
200,179,421480,1,8,0:2:0:0:
224,90,421668,1,0,0:2:0:0:
247,78,421761,1,8,0:2:0:0:
273,73,421855,1,0,0:2:0:0:
299,74,421949,1,8,0:2:0:0:
325,80,422043,1,2,0:2:0:0:
407,118,422230,1,8,0:2:0:0:
433,124,422324,1,0,0:2:0:0:
459,125,422418,6,0,P|487:156|447:252,1,152.999995330811,4|8,0:0|0:2,0:2:0:0:
364,276,422980,1,2,0:2:0:0:
330,258,423074,1,0,0:2:0:0:
291,254,423168,1,0,0:2:0:0:
254,264,423261,1,8,0:2:0:0:
217,273,423354,1,0,0:2:0:0:
178,269,423448,1,0,0:2:0:0:
144,251,423542,1,8,0:2:0:0:
126,216,423635,1,0,0:2:0:0:
131,180,423729,2,0,P|138:158|138:135,2,38.2499988327027,8|8|8,0:2|0:2|0:2,0:2:0:0:
96,187,424010,5,4,1:0:0:0:
256,192,424104,12,4,425863,1:0:0:0:
256,192,425972,12,4,427614,1:0:0:0:
256,192,427721,12,4,429340,1:0:0:0:
256,192,430228,5,4,1:0:0:0:
256,192,431095,5,8,1:2:0:0:
463,51,438085,6,0,P|384:57|417:180,1,229.499992996216,4|2,0:0|0:2,0:2:0:0:
472,207,438667,1,8,0:2:0:0:
459,282,438813,1,0,0:2:0:0:
459,282,438885,1,8,0:2:0:0:
459,282,438958,6,0,L|434:357,1,76.4999976654053,2|0,0:2|0:2,0:2:0:0:
371,310,439250,2,0,L|316:367,1,76.4999976654053,2|2,0:2|0:2,0:2:0:0:
280,299,439541,2,0,L|206:328,1,76.4999976654053,2|0,0:2|0:2,0:2:0:0:
141,291,439832,5,2,0:2:0:0:
184,227,439978,1,8,0:2:0:0:
184,227,440051,1,8,0:2:0:0:
184,227,440123,1,8,0:2:0:0:
134,168,440269,2,0,L|45:177,1,76.4999976654053,2|8,0:2|0:2,0:2:0:0:
12,114,440560,1,8,0:2:0:0:
12,114,440633,1,0,3:0:0:0:
12,114,440706,5,10,0:2:0:0:
150,48,440997,1,2,0:2:0:0:
294,98,441288,1,8,0:2:0:0:
359,58,441434,1,8,0:2:0:0:
359,58,441507,1,8,0:2:0:0:
359,58,441580,5,10,0:2:0:0:
423,97,441725,1,8,0:2:0:0:
498,81,441871,1,0,0:2:0:0:
474,153,442017,2,0,P|465:197|478:240,1,76.4999976654053,2|8,0:2|0:2,0:2:0:0:
504,296,442308,1,0,0:2:0:0:
443,342,442453,6,0,L|368:317,1,76.4999976654053,2|0,0:2|0:2,0:2:0:0:
304,357,442745,2,0,L|246:302,1,76.4999976654053,2|2,0:2|0:2,0:2:0:0:
177,332,443036,2,0,L|147:258,1,76.4999976654053,2|0,0:2|0:2,0:2:0:0:
120,189,443327,5,0,0:2:0:0:
174,134,443473,1,8,0:2:0:0:
201,138,443545,1,0,0:2:0:0:
227,143,443618,1,8,0:2:0:0:
281,88,443764,2,0,L|266:28,2,38.2499988327027,8|8|2,0:2|0:2|0:2,0:0:0:0:
335,142,444055,1,0,0:2:0:0:
490,107,444201,5,4,0:3:0:0:
443,168,444347,1,0,0:2:0:0:
436,243,444492,1,2,0:2:0:0:
483,302,444638,1,2,0:2:0:0:
381,356,444784,5,4,0:0:0:0:
355,349,444856,1,0,0:2:0:0:
328,342,444929,1,8,0:2:0:0:
301,336,445002,1,0,0:2:0:0:
274,329,445075,1,8,0:2:0:0:
199,314,445220,1,2,0:2:0:0:
129,346,445366,2,0,P|124:306|139:268,1,76.4999976654053,10|0,0:2|0:2,0:2:0:0:
204,237,445657,6,0,L|307:262,1,76.4999976654053,2|4,0:2|0:2,0:2:0:0:
315,187,445949,2,0,L|212:162,1,76.4999976654053,6|0,0:2|0:2,0:2:0:0:
244,92,446240,2,0,L|318:110,1,76.4999976654053,2|0,0:2|0:2,0:2:0:0:
425,67,446531,5,2,0:2:0:0:
492,102,446677,2,0,L|500:203,1,76.4999976654053,6|0,0:2|0:2,0:2:0:0:
388,211,446968,1,0,0:2:0:0:
455,246,447114,2,0,L|463:347,1,76.4999976654053,6|0,0:2|0:2,0:2:0:0:
394,359,447405,5,2,0:2:0:0:
324,328,447550,1,0,0:2:0:0:
252,354,447696,1,10,0:2:0:0:
252,354,447987,2,0,P|240:314|203:288,1,76.4999976654053,8|0,0:2|0:2,0:2:0:0:
138,279,448279,5,4,0:3:0:0:
111,277,448351,1,8,0:2:0:0:
84,275,448424,1,0,0:2:0:0:
57,273,448497,1,0,0:2:0:0:
30,271,448570,1,0,0:2:0:0:
68,204,448716,1,10,0:2:0:0:
36,134,448861,1,10,0:2:0:0:
46,109,448934,1,0,0:2:0:0:
65,91,449007,1,8,0:2:0:0:
90,83,449080,1,8,0:2:0:0:
116,82,449152,6,0,L|190:100,1,76.4999976654053,2|0,0:2|0:2,0:2:0:0:
210,174,449444,2,0,L|284:155,1,76.4999976654053,6|2,0:2|0:2,0:2:0:0:
309,83,449735,2,0,L|383:101,1,76.4999976654053,10|0,0:2|0:2,0:2:0:0:
451,64,450026,5,4,0:0:0:0:
478,135,450172,2,0,P|437:202|489:286,1,152.999995330811,8|10,0:2|0:2,0:2:0:0:
479,286,450536,1,0,0:2:0:0:
501,301,450609,1,0,0:2:0:0:
458,365,450755,1,0,0:2:0:0:
436,350,450828,1,8,0:2:0:0:
418,331,450900,5,2,0:2:0:0:
349,295,451046,1,0,0:2:0:0:
273,281,451191,1,2,0:2:0:0:
197,296,451337,1,8,0:2:0:0:
139,346,451483,5,4,0:0:0:0:
79,298,451628,1,8,0:2:0:0:
79,298,451701,1,8,0:2:0:0:
79,298,451774,1,8,0:2:0:0:
4,312,451919,1,10,0:2:0:0:
30,240,452065,1,8,0:2:0:0:
180,210,452356,5,4,0:0:0:0:
180,210,452648,2,0,L|206:128,1,76.4999976654053,8|2,0:2|0:2,0:2:0:0:
262,186,452939,2,0,L|288:104,1,76.4999976654053,8|2,0:2|0:2,0:2:0:0:
312,41,453230,5,0,0:2:0:0:
335,54,453303,1,0,0:2:0:0:
360,61,453376,1,0,0:2:0:0:
386,62,453449,1,0,0:2:0:0:
412,58,453521,1,10,0:2:0:0:
484,147,453667,1,10,0:2:0:0:
458,143,453739,1,0,0:2:0:0:
432,144,453812,1,8,0:2:0:0:
407,151,453885,1,0,0:2:0:0:
384,164,453958,1,0,0:2:0:0:
368,186,454031,1,8,0:2:0:0:
360,211,454104,6,0,B|354:237|354:237|364:275,2,50.9999984436036,0|8|8,0:2|0:2|0:2,0:2:0:0:
286,231,454395,2,0,L|274:268,3,38.2499988327027,10|0|2|0,0:2|0:2|0:2|0:2,0:2:0:0:
266,304,454686,2,0,P|226:297|174:318,1,76.4999976654053,8|0,0:2|0:2,0:2:0:0:
96,356,454978,5,4,0:0:0:0:
33,312,455123,2,0,P|13:244|62:176,1,152.999995330811,8|2,0:2|0:2,0:2:0:0:
126,151,455560,1,8,0:2:0:0:
195,182,455706,1,0,0:2:0:0:
252,131,455851,6,0,L|242:40,1,76.4999976654053,6|0,0:2|0:2,0:2:0:0:
336,147,456143,2,0,L|326:56,1,76.4999976654053,2|0,0:2|0:2,0:2:0:0:
420,162,456434,2,0,L|410:71,1,76.4999976654053,10|0,0:2|0:2,0:2:0:0:
499,182,456725,5,4,0:0:0:0:
452,243,456871,2,0,P|449:282|460:326,1,76.4999976654053,8|0,0:2|0:2,0:2:0:0:
374,188,457162,1,10,0:2:0:0:
327,249,457308,2,0,P|324:288|335:332,1,76.4999976654053,10|0,0:2|0:2,0:2:0:0:
265,362,457599,5,10,0:2:0:0:
200,321,457745,1,0,0:2:0:0:
124,311,457890,1,2,0:2:0:0:
51,336,458036,1,8,0:2:0:0:
51,336,458109,1,8,0:2:0:0:
51,336,458182,5,10,0:2:0:0:
20,266,458327,1,8,0:2:0:0:
34,243,458400,1,8,0:2:0:0:
42,217,458473,1,8,0:2:0:0:
42,190,458546,1,8,0:2:0:0:
34,164,458618,1,0,0:2:0:0:
79,101,458764,2,0,L|130:107,3,38.2499988327027,8|8|8|8,0:2|0:2|0:2|0:2,0:2:0:0:
155,108,459055,6,0,L|165:17,1,76.4999976654053,4|0,0:0|0:2,0:2:0:0:
239,93,459346,2,0,L|249:2,1,76.4999976654053,4|0,0:0|0:2,0:2:0:0:
323,77,459638,2,0,L|333:-14,1,76.4999976654053,10|0,0:2|0:2,0:2:0:0:
412,59,459929,5,4,0:0:0:0:
388,132,460075,1,8,0:2:0:0:
381,157,460148,1,0,0:2:0:0:
374,182,460220,1,0,0:2:0:0:
450,176,460366,1,10,0:2:0:0:
474,249,460512,1,0,0:2:0:0:
481,274,460585,1,8,0:2:0:0:
488,299,460657,1,0,0:2:0:0:
427,346,460803,5,8,0:2:0:0:
361,306,460948,1,2,0:2:0:0:
285,292,461094,1,2,0:2:0:0:
210,311,461240,1,2,0:2:0:0:
153,362,461385,1,10,0:2:0:0:
153,362,461531,1,8,0:2:0:0:
34,321,461677,5,4,0:0:0:0:
82,262,461822,2,0,L|135:273,2,38.2499988327027,8|8|8,0:2|0:2|0:2,0:2:0:0:
45,194,462114,1,0,0:2:0:0:
99,140,462259,2,0,P|111:100|102:50,1,76.4999976654053,10|0,0:2|0:2,0:2:0:0:
246,22,462550,6,0,L|231:124,1,76.4999976654053,2|0,0:2|0:2,0:2:0:0:
364,181,462842,2,0,L|349:79,1,76.4999976654053,10|0,0:2|0:2,0:2:0:0:
220,180,463133,2,0,L|205:282,1,76.4999976654053,10|0,0:2|0:2,0:2:0:0:
353,305,463424,5,2,0:2:0:0:
422,273,463570,1,8,0:2:0:0:
429,247,463643,1,8,0:2:0:0:
435,221,463715,1,8,0:2:0:0:
442,195,463788,1,8,0:2:0:0:
449,169,463861,1,10,0:2:0:0:
498,110,464007,1,10,0:2:0:0:
450,50,464152,1,0,0:2:0:0:
382,86,464298,5,10,0:2:0:0:
382,86,464371,1,0,0:2:0:0:
382,86,464444,1,0,0:2:0:0:
312,54,464589,2,0,L|304:16,2,38.2499988327027,10|0|0,0:2|0:2|0:2,0:2:0:0:
271,191,464881,5,10,0:2:0:0:
244,187,464953,1,8,0:2:0:0:
217,182,465026,1,0,0:2:0:0:
209,105,465172,1,0,0:2:0:0:
182,109,465244,1,0,0:2:0:0:
155,114,465317,1,10,0:2:0:0:
128,118,465390,1,0,0:2:0:0:
101,122,465463,2,0,L|94:166,3,38.2499988327027,10|8|8|8,0:2|0:2|0:2|0:2,0:2:0:0:
111,181,465754,6,0,L|104:225,3,38.2499988327027,10|8|8|8,0:2|0:2|0:2|0:2,0:2:0:0:
119,241,466046,1,10,0:2:0:0:
145,239,466118,1,0,0:2:0:0:
171,241,466191,1,0,0:2:0:0:
196,250,466264,1,0,0:2:0:0:
217,266,466337,1,10,0:2:0:0:
238,281,466410,1,0,0:2:0:0:
263,290,466483,1,8,0:2:0:0:
289,292,466556,1,8,0:2:0:0:
315,290,466628,5,10,0:2:0:0:
383,255,466774,2,0,L|396:195,3,38.2499988327027,0|8|0|8,0:2|0:2|0:2|0:2,0:2:0:0:
395,191,467065,1,0,0:2:0:0:
389,164,467138,1,8,0:2:0:0:
375,140,467211,1,2,0:2:0:0:
356,121,467283,1,8,0:2:0:0:
331,110,467356,1,0,0:2:0:0:
304,106,467429,1,8,0:2:0:0:
278,113,467502,5,2,0:2:0:0:
211,150,467647,2,0,L|171:175,2,38.2499988327027,0|0|10,0:2|0:2|0:2,0:2:0:0:
214,72,467939,1,2,0:2:0:0:
276,189,468084,2,0,L|321:261,1,76.4999976654053,10|0,0:2|0:2,0:2:0:0:
200,347,468376,6,0,P|139:358|52:304,1,152.999995330811,4|0,0:0|0:2,0:2:0:0:
31,246,468813,1,10,0:2:0:0:
75,184,468958,2,0,P|83:146|72:96,1,76.4999976654053,2|0,0:2|0:2,0:2:0:0:
196,25,469249,6,0,P|190:62|198:99,1,76.4999976654053,2|0,0:2|0:2,0:2:0:0:
259,147,469541,1,10,0:2:0:0:
284,138,469614,1,8,0:2:0:0:
309,129,469686,1,8,0:2:0:0:
335,135,469759,1,8,0:2:0:0:
360,142,469832,2,0,L|343:233,1,76.4999976654053,2|0,0:2|0:2,0:2:0:0:
466,352,470123,5,4,0:0:0:0:
476,276,470269,2,0,B|428:248|380:328|312:288,1,152.999995330811,8|0,0:2|0:2,0:2:0:0:
256,270,470706,1,10,0:2:0:0:
231,258,470779,1,8,0:2:0:0:
205,252,470851,1,8,0:2:0:0:
178,251,470924,1,8,0:2:0:0:
151,256,470997,5,4,0:0:0:0:
103,195,471143,1,0,0:2:0:0:
131,124,471288,1,10,0:2:0:0:
90,58,471434,1,0,0:2:0:0:
239,24,471580,6,0,L|229:118,1,76.4999976654053,4|0,0:0|0:2,0:2:0:0:
285,154,471871,1,8,0:2:0:0:
338,207,472016,1,10,0:2:0:0:
284,261,472162,2,0,L|292:337,1,76.4999976654053,10|0,0:2|0:2,0:2:0:0:
467,362,472453,5,2,0:2:0:0:
431,293,472599,1,8,0:2:0:0:
422,267,472672,1,8,0:2:0:0:
421,240,472745,1,10,0:2:0:0:
471,183,472890,1,8,0:2:0:0:
480,157,472963,1,8,0:2:0:0:
481,130,473036,1,2,0:2:0:0:
475,103,473109,1,8,0:2:0:0:
462,79,473181,1,8,0:2:0:0:
440,62,473254,1,8,0:2:0:0:
414,53,473327,6,0,L|325:62,1,76.4999976654053,4|0,0:0|0:2,0:2:0:0:
261,71,473618,1,8,0:2:0:0:
256,97,473691,1,8,0:2:0:0:
251,123,473764,1,2,0:2:0:0:
179,149,473910,1,10,0:2:0:0:
174,123,473983,1,0,0:2:0:0:
169,97,474056,1,0,0:2:0:0:
22,37,474201,6,0,L|39:137,1,76.4999976654053,10|0,0:2|0:2,0:2:0:0:
89,166,474492,2,0,L|106:266,1,76.4999976654053,10|0,0:2|0:2,0:2:0:0:
156,295,474783,2,0,L|173:395,1,76.4999976654053,14|0,0:2|0:2,0:2:0:0:
343,370,475075,5,4,1:0:0:0:
309,302,475220,2,0,P|372:239|435:255,1,152.999995330811,8|0,0:2|0:2,0:2:0:0:
450,264,475584,1,8,0:2:0:0:
469,282,475657,1,8,0:2:0:0:
508,216,475803,1,0,0:2:0:0:
489,198,475876,1,8,0:2:0:0:
467,184,475948,5,10,0:2:0:0:
392,165,476094,1,8,0:2:0:0:
316,175,476240,1,10,0:2:0:0:
290,182,476313,1,0,0:2:0:0:
263,184,476385,1,8,0:2:0:0:
236,181,476458,1,0,0:2:0:0:
210,171,476531,1,10,0:2:0:0:
185,160,476604,1,0,0:2:0:0:
158,157,476677,1,8,0:2:0:0:
131,159,476749,1,0,0:2:0:0:
105,166,476822,5,4,0:0:0:0:
45,214,476968,2,0,L|25:252,2,38.2499988327027,8|8|8,0:2|0:2|0:2,0:2:0:0:
116,241,477259,1,0,0:2:0:0:
192,239,477405,1,10,0:2:0:0:
261,270,477550,1,0,0:2:0:0:
336,255,477696,5,10,0:2:0:0:
338,258,477842,1,8,0:2:0:0:
340,261,477988,1,8,0:2:0:0:
342,264,478133,1,8,0:2:0:0:
344,267,478278,1,8,0:2:0:0:
346,270,478424,1,8,0:2:0:0:
348,273,478570,6,0,P|428:268|475:186,1,170,4|8,0:0|0:2,0:2:0:0:
455,115,479132,1,0,0:2:0:0:
392,56,479320,2,0,L|295:44,1,85,0|0,0:2|0:2,0:2:0:0:
223,30,479695,1,8,0:2:0:0:
223,30,479882,1,0,0:2:0:0:
138,20,480070,6,0,P|109:74|194:128,1,170,0|8,0:2|0:2,0:2:0:0:
239,193,480632,1,0,0:2:0:0:
172,246,480820,2,0,P|150:290|157:338,1,85,0|0,0:2|0:2,0:2:0:0:
230,360,481195,1,8,0:2:0:0:
256,347,481288,1,0,0:2:0:0:
285,341,481382,1,0,0:2:0:0:
314,341,481476,1,0,0:2:0:0:
343,347,481570,6,0,P|400:357|397:251,1,170,2|8,0:2|0:2,0:2:0:0:
385,189,482132,2,0,P|374:146|393:92,1,85,2|0,0:2|0:2,0:2:0:0:
429,35,482507,1,0,0:2:0:0:
346,15,482695,1,10,0:2:0:0:
267,46,482882,1,0,0:2:0:0:
250,185,483070,6,0,P|204:250|115:230,1,170,0|8,0:2|0:2,0:2:0:0:
83,162,483632,2,0,L|93:77,1,85,2|0,0:2|0:2,0:2:0:0:
167,36,484007,1,2,0:2:0:0:
250,185,484195,2,0,L|239:269,1,85,10|0,0:2|0:2,0:2:0:0:
372,362,484570,6,0,B|388:306|388:306|372:258|372:258|396:186,1,170,2|8,0:2|0:2,0:2:0:0:
468,163,485132,1,0,0:2:0:0:
468,163,485507,1,0,0:2:0:0:
427,88,485695,2,0,L|325:66,1,85,10|0,0:2|0:2,0:2:0:0:
140,22,486070,6,0,B|124:78|124:78|140:126|140:126|116:198,1,170,2|8,0:2|0:2,0:2:0:0:
44,221,486632,1,0,0:2:0:0:
44,221,487007,1,0,0:2:0:0:
85,296,487195,2,0,L|187:318,1,85,10|0,0:2|0:2,0:2:0:0:
392,288,487570,6,0,P|366:250|245:250,1,170,2|8,0:2|0:2,0:2:0:0:
176,206,488132,1,2,0:2:0:0:
176,206,488507,1,0,0:2:0:0:
216,131,488695,2,0,P|225:86|214:31,1,85,10|0,0:2|0:2,0:2:0:0:
39,37,489070,6,0,P|15:102|56:214,1,170,2|8,0:2|0:2,0:2:0:0:
105,251,489632,1,2,0:2:0:0:
122,275,489726,1,0,0:2:0:0:
125,304,489820,1,0,0:2:0:0:
152,294,489913,1,0,0:2:0:0:
181,292,490007,1,8,0:2:0:0:
209,299,490101,1,0,0:2:0:0:
236,310,490195,1,10,0:2:0:0:
261,325,490289,1,0,0:2:0:0:
289,332,490383,1,0,0:2:0:0:
318,330,490477,1,0,0:2:0:0:
345,320,490570,6,0,L|361:142,1,170,4|8,0:0|0:2,0:2:0:0:
443,132,491132,2,0,L|427:301,1,170,0|0,0:2|0:2,0:2:0:0:
402,383,491695,1,8,0:2:0:0:
256,296,491882,1,0,0:2:0:0:
127,363,492070,6,0,P|110:332|104:273,1,85,0|0,0:2|0:2,0:2:0:0:
124,200,492445,1,8,0:2:0:0:
184,140,492632,1,0,0:2:0:0:
213,144,492726,1,0,0:2:0:0:
242,148,492820,1,0,0:2:0:0:
271,152,492913,1,0,0:2:0:0:
300,156,493007,1,0,0:2:0:0:
375,116,493195,2,0,P|391:76|382:30,1,85,8|0,0:2|0:2,0:2:0:0:
192,224,493570,6,0,L|374:249,1,170,0|8,0:2|0:2,0:2:0:0:
440,216,494132,1,0,0:2:0:0:
478,292,494320,1,0,0:2:0:0:
478,292,494413,1,0,0:2:0:0:
478,292,494507,1,0,0:2:0:0:
415,349,494695,2,0,P|368:352|323:327,1,85,8|0,0:2|0:2,0:2:0:0:
192,224,495070,5,0,0:2:0:0:
114,190,495257,1,0,0:2:0:0:
43,237,495445,1,8,0:2:0:0:
114,190,495632,1,0,0:2:0:0:
132,106,495820,1,0,0:2:0:0:
132,106,495913,1,0,0:2:0:0:
132,106,496007,1,0,0:2:0:0:
152,23,496195,2,0,P|198:15|247:29,1,85,8|0,0:2|0:2,0:2:0:0:
287,90,496570,6,0,L|303:268,1,170,0|8,0:2|0:2,0:2:0:0:
385,278,497132,2,0,L|369:108,1,170,0|0,0:2|0:2,0:2:0:0:
214,133,497695,2,0,L|225:245,1,85,8|0,0:2|0:2,0:2:0:0:
228,345,498070,5,0,0:2:0:0:
147,319,498257,1,0,0:2:0:0:
65,341,498445,2,0,P|35:265|83:169,1,170,8|0,0:2|0:2,0:2:0:0:
86,166,498913,1,0,0:2:0:0:
113,153,499007,1,0,0:2:0:0:
196,134,499195,2,0,L|316:147,1,85,8|0,0:2|0:2,0:2:0:0:
465,38,499570,6,0,B|409:54|409:54|361:38|361:38|289:62,1,170,2|8,0:2|0:2,0:2:0:0:
218,52,500132,1,0,0:2:0:0:
196,134,500320,2,0,P|193:173|217:220,1,85,0|0,0:2|0:2,0:2:0:0:
289,248,500695,1,8,0:2:0:0:
366,213,500882,1,0,0:2:0:0:
417,352,501070,5,4,0:0:0:0:
95,352,501445,1,4,0:0:0:0:
256,72,501820,1,4,0:0:0:0:
282,84,501913,1,8,0:2:0:0:
308,96,502007,1,8,0:2:0:0:
334,108,502101,1,0,0:2:0:0:
360,120,502195,1,4,0:0:0:0:
334,132,502288,1,8,0:2:0:0:
308,144,502382,1,8,0:2:0:0:
282,156,502476,1,8,0:2:0:0:
256,168,502570,6,0,L|78:146,1,170,4|8,0:0|0:2,0:2:0:0:
31,211,503132,2,0,P|26:271|137:277,1,170,0|0,0:2|0:2,0:2:0:0:
191,257,503695,1,8,0:2:0:0:
271,283,503882,1,0,0:2:0:0:
324,216,504070,5,0,0:2:0:0:
356,294,504257,1,0,0:2:0:0:
389,162,504445,1,8,0:2:0:0:
440,286,504632,1,0,0:2:0:0:
464,204,504820,1,0,0:2:0:0:
464,204,504913,1,0,0:2:0:0:
464,204,505007,1,0,0:0:0:0:
389,162,505195,1,8,0:2:0:0:
462,119,505382,1,0,0:2:0:0:
315,119,505570,6,0,L|279:295,1,170,0|8,0:0|0:2,0:2:0:0:
202,316,506132,1,0,0:2:0:0:
175,302,506226,1,0,0:2:0:0:
145,298,506320,1,0,0:2:0:0:
115,299,506413,1,0,0:2:0:0:
87,309,506507,1,0,0:2:0:0:
28,246,506695,2,0,P|18:205|36:151,1,85,8|0,0:2|0:2,0:2:0:0:
204,32,507070,6,0,B|204:80|204:80|184:104|184:104|184:168,1,127.5,2|2,0:2|0:2,0:2:0:0:
214,182,507445,2,0,P|258:167|304:177,1,85,8|0,0:2|0:2,0:2:0:0:
372,209,507820,1,2,0:2:0:0:
400,202,507913,1,0,0:2:0:0:
429,195,508007,1,8,0:2:0:0:
467,119,508195,1,8,0:2:0:0:
439,112,508288,1,8,0:2:0:0:
410,105,508382,1,0,0:2:0:0:
354,40,508570,6,0,B|300:8|244:88|172:44,1,170,2|8,0:2|0:2,0:2:0:0:
127,110,509132,1,0,0:2:0:0:
177,178,509320,1,0,0:2:0:0:
206,174,509413,1,0,0:2:0:0:
235,170,509507,1,0,0:2:0:0:
300,224,509695,1,8,0:2:0:0:
263,300,509882,1,0,0:2:0:0:
444,347,510070,5,0,0:2:0:0:
407,271,510257,1,0,0:2:0:0:
491,281,510445,1,8,0:2:0:0:
358,341,510632,1,0,0:2:0:0:
457,203,510820,1,0,0:2:0:0:
473,178,510913,1,0,0:2:0:0:
489,152,511007,1,0,0:2:0:0:
478,123,511101,1,0,0:2:0:0:
465,95,511195,1,8,0:2:0:0:
418,24,511382,1,0,0:2:0:0:
379,100,511570,6,0,L|286:87,1,85,2|0,0:2|0:2,0:2:0:0:
210,74,511945,1,8,0:2:0:0:
140,24,512132,2,0,P|132:111|200:160,1,170,0|0,0:2|0:2,0:2:0:0:
272,182,512695,2,0,P|309:202|324:246,1,85,10|0,0:2|0:2,0:2:0:0:
313,324,513070,5,0,0:2:0:0:
231,300,513257,1,0,0:2:0:0:
164,353,513445,1,8,0:2:0:0:
86,318,513632,1,2,0:2:0:0:
99,291,513726,1,2,0:2:0:0:
104,261,513820,1,2,0:2:0:0:
101,231,513913,1,2,0:2:0:0:
90,202,514007,1,2,0:2:0:0:
71,178,514101,1,2,0:2:0:0:
51,155,514195,1,10,0:2:0:0:
40,126,514289,1,2,0:2:0:0:
37,96,514382,1,2,0:2:0:0:
42,66,514476,1,2,0:2:0:0:
55,39,514570,6,0,L|205:32,1,136,4|8,0:0|0:2,0:2:0:0:
247,82,515132,1,0,0:2:0:0:
203,142,515320,2,0,P|196:182|209:224,1,68,2|0,0:2|0:2,0:2:0:0:
260,254,515695,1,8,0:2:0:0:
260,254,515882,1,0,0:2:0:0:
452,218,516070,5,2,0:2:0:0:
407,158,516257,1,0,0:2:0:0:
378,227,516445,1,8,0:2:0:0:
422,286,516632,1,0,0:2:0:0:
426,291,516726,1,0,0:2:0:0:
430,296,516820,1,2,0:2:0:0:
481,149,517195,1,8,0:2:0:0:
332,168,517570,6,0,P|269:178|205:150,1,136,2|8,0:2|0:2,0:2:0:0:
157,91,518132,1,0,0:2:0:0:
114,29,518320,2,0,P|73:26|28:42,1,68,2|0,0:2|0:2,0:2:0:0:
3,93,518695,1,8,0:2:0:0:
30,162,518882,1,0,0:2:0:0:
30,162,518976,1,0,0:2:0:0:
30,162,519070,5,4,0:0:0:0:
157,91,519257,2,0,P|177:150|132:238,1,136,2|0,0:2|0:2,0:2:0:0:
98,268,519820,1,8,0:2:0:0:
135,332,520007,1,0,0:2:0:0:
203,362,520195,1,2,0:2:0:0:
277,365,520382,1,0,0:2:0:0:
344,332,520570,6,0,P|368:271|339:196,1,136,4|8,0:0|0:2,0:2:0:0:
287,162,521132,1,0,0:2:0:0:
212,173,521320,2,0,P|188:112|217:37,1,136,2|8,0:2|0:2,0:2:0:0:
276,15,521882,1,0,0:2:0:0:
299,18,521976,1,0,0:2:0:0:
322,21,522070,5,4,0:0:0:0:
385,59,522257,1,0,0:2:0:0:
421,124,522445,1,8,0:2:0:0:
421,198,522632,1,0,0:2:0:0:
372,255,522820,1,10,0:2:0:0:
349,261,522913,1,8,0:2:0:0:
325,267,523007,1,0,0:2:0:0:
271,320,523195,1,8,0:2:0:0:
248,314,523288,1,8,0:2:0:0:
224,308,523382,1,0,0:2:0:0:
87,244,523570,6,0,P|32:179|59:105,1,170,4|8,0:0|0:2,0:2:0:0:
131,63,524132,1,2,0:2:0:0:
210,93,524320,2,0,P|249:97|304:76,1,85,2|0,0:2|0:2,0:2:0:0:
363,36,524695,1,8,0:2:0:0:
438,74,524882,1,8,0:2:0:0:
445,102,524976,1,0,0:2:0:0:
452,130,525070,5,0,0:2:0:0:
395,192,525257,1,0,0:2:0:0:
478,211,525445,1,8,0:2:0:0:
421,273,525632,1,10,0:2:0:0:
392,281,525726,1,0,0:2:0:0:
362,283,525820,1,2,0:2:0:0:
334,272,525913,1,0,0:2:0:0:
309,254,526007,1,2,0:2:0:0:
293,228,526101,1,0,0:2:0:0:
277,202,526195,1,2,0:2:0:0:
252,184,526289,1,2,0:2:0:0:
224,173,526382,1,2,0:2:0:0:
194,175,526476,1,2,0:2:0:0:
165,183,526570,6,0,P|102:191|28:105,1,170,4|0,0:0|0:2,0:2:0:0:
50,38,527132,1,2,0:2:0:0:
128,4,527320,2,0,L|216:11,1,85,2|0,0:0|0:0,0:0:0:0:
266,76,527695,1,8,0:2:0:0:
182,90,527882,1,0,0:2:0:0:
37,228,528070,5,12,3:3:0:0:
90,294,528257,1,12,0:3:0:0:
172,273,528445,1,8,0:2:0:0:
204,263,528538,1,8,0:2:0:0:
237,259,528632,1,8,0:2:0:0:
270,264,528726,1,8,0:2:0:0:
301,278,528820,1,8,0:2:0:0:
288,242,528913,1,8,0:2:0:0:
288,203,529007,1,8,0:2:0:0:
300,166,529101,1,8,0:2:0:0:
328,140,529195,1,8,0:2:0:0:
286,135,529288,1,8,0:2:0:0:
248,114,529382,1,8,0:2:0:0:
227,76,529476,1,8,0:2:0:0:
221,33,529570,6,0,P|168:16|128:129,1,203.999993774414,4|8,0:0|0:2,0:2:0:0:
205,192,530132,1,0,0:2:0:0:
298,150,530320,2,0,P|345:138|413:151,1,101.999996887207,2|0,0:2|0:2,0:2:0:0:
474,212,530695,1,8,0:2:0:0:
415,295,530882,1,0,0:2:0:0:
317,264,531070,6,0,P|261:266|212:293,1,101.999996887207,2|0,0:2|0:2,0:2:0:0:
136,343,531445,1,8,0:2:0:0:
20,193,531632,1,0,0:2:0:0:
54,203,531726,1,0,0:2:0:0:
89,206,531820,1,0,0:2:0:0:
123,200,531913,1,0,0:2:0:0:
156,187,532007,1,0,0:2:0:0:
232,119,532195,2,0,L|243:16,1,101.999996887207,8|0,0:2|0:2,0:2:0:0:
468,36,532570,6,0,B|468:104|468:104|428:152|428:152|428:240,1,203.999993774414,2|8,0:2|0:2,0:2:0:0:
491,305,533132,1,0,0:2:0:0:
399,350,533320,1,2,0:2:0:0:
364,342,533413,1,0,0:2:0:0:
329,334,533507,1,0,0:2:0:0:
231,365,533695,1,8,0:2:0:0:
160,229,533882,1,0,0:2:0:0:
195,221,533975,1,0,0:2:0:0:
230,213,534069,5,0,0:2:0:0:
329,190,534257,1,0,0:2:0:0:
417,240,534445,1,8,0:2:0:0:
329,190,534632,1,0,0:2:0:0:
321,154,534726,1,0,0:2:0:0:
313,118,534820,1,0,0:2:0:0:
328,86,534913,1,0,0:2:0:0:
343,53,535007,1,0,0:2:0:0:
245,20,535195,1,8,0:2:0:0:
156,70,535382,1,0,0:2:0:0:
58,39,535570,6,0,B|58:107|58:107|98:155|98:155|98:243,1,203.999993774414,2|8,0:2|0:2,0:2:0:0:
28,303,536132,1,0,0:2:0:0:
115,356,536320,1,0,0:2:0:0:
115,356,536413,1,0,0:2:0:0:
115,356,536507,1,0,0:2:0:0:
207,313,536695,2,0,P|263:306|315:333,1,101.999996887207,8|0,0:2|0:2,0:2:0:0:
488,192,537070,6,0,L|264:165,1,203.999993774414,0|8,0:2|0:2,0:2:0:0:
183,155,537632,1,0,0:2:0:0:
175,191,537726,1,0,0:2:0:0:
167,227,537820,1,0,0:2:0:0:
182,259,537913,1,0,0:2:0:0:
197,292,538007,1,0,0:2:0:0:
115,356,538195,2,0,P|66:362|15:334,1,101.999996887207,8|0,0:2|0:2,0:2:0:0:
17,112,538570,6,0,B|85:112|85:112|133:72|133:72|221:72,1,203.999993774414,2|8,0:2|0:2,0:2:0:0:
467,103,539132,2,0,B|399:103|399:103|351:143|351:143|278:143,1,203.999993774414,2|2,0:2|0:2,0:2:0:0:
205,215,539695,1,8,0:2:0:0:
276,286,539882,1,2,0:2:0:0:
203,358,540070,5,0,0:2:0:0:
80,285,540257,1,0,0:2:0:0:
205,215,540445,1,8,0:2:0:0:
327,286,540632,1,0,0:2:0:0:
360,297,540726,1,0,0:2:0:0:
395,302,540820,1,0,0:2:0:0:
383,268,540913,1,0,0:2:0:0:
386,232,541007,1,0,0:2:0:0:
399,198,541101,1,0,0:2:0:0:
425,173,541195,1,8,0:2:0:0:
456,140,541288,1,2,0:2:0:0:
463,94,541382,1,2,0:2:0:0:
445,51,541476,1,2,0:2:0:0:
408,23,541570,5,2,0:2:0:0:
256,352,541945,1,8,0:2:0:0:
24,72,542320,2,0,B|92:72|92:72|140:112|140:112|228:112,1,203.999993774414,2|8,0:2|0:2,0:2:0:0:
278,46,542882,1,0,0:2:0:0:
278,46,542976,1,0,0:2:0:0:
278,46,543070,5,2,0:2:0:0:
379,35,543257,1,0,0:2:0:0:
466,88,543445,1,8,0:2:0:0:
502,183,543632,1,0,0:2:0:0:
478,209,543726,1,0,0:2:0:0:
466,243,543820,1,2,0:2:0:0:
431,236,543913,1,0,0:2:0:0:
395,238,544007,1,0,0:2:0:0:
362,254,544101,1,0,0:2:0:0:
342,284,544195,1,8,0:2:0:0:
256,340,544382,1,0,0:2:0:0:
170,284,544570,6,0,P|139:260|74:257,1,101.999996887207,2|0,0:2|0:2,0:2:0:0:
17,173,544945,1,8,0:2:0:0:
80,93,545132,1,0,0:2:0:0:
170,141,545320,1,0,0:2:0:0:
201,157,545413,1,0,0:2:0:0:
236,163,545507,1,0,0:2:0:0:
271,162,545601,1,0,0:2:0:0:
304,149,545695,1,2,0:2:0:0:
368,70,545882,1,2,0:2:0:0:
483,253,546070,5,0,0:2:0:0:
382,261,546257,1,0,0:2:0:0:
441,345,546445,1,8,0:2:0:0:
425,169,546632,1,0,0:2:0:0:
393,152,546726,1,0,0:2:0:0:
357,145,546820,1,0,0:2:0:0:
322,150,546913,1,0,0:2:0:0:
291,168,547007,1,0,0:2:0:0:
267,194,547101,1,8,0:2:0:0:
247,224,547195,1,0,0:2:0:0:
216,242,547289,1,0,0:2:0:0:
181,247,547382,1,0,0:2:0:0:
145,240,547476,1,0,0:2:0:0:
113,223,547570,6,0,L|103:117,1,85,4|0,0:0|0:2,0:2:0:0:
175,89,547945,1,8,0:2:0:0:
128,18,548132,2,0,P|223:17|260:95,1,170,2|0,0:2|0:2,0:2:0:0:
231,153,548695,1,10,0:2:0:0:
231,153,548882,1,0,0:2:0:0:
287,216,549070,5,4,0:1:0:0:
451,173,549445,1,8,0:2:0:0:
407,337,549820,1,2,0:2:0:0:
325,315,550007,1,0,0:2:0:0:
253,360,550195,1,0,0:2:0:0:
253,360,550570,6,0,P|199:186|454:166,1,510,4|10,0:1|0:2,0:2:0:0:
475,244,551882,1,0,0:2:0:0:
392,223,552070,5,4,0:0:0:0:
363,216,552163,1,2,0:2:0:0:
333,216,552257,1,2,0:2:0:0:
303,222,552351,1,2,0:2:0:0:
277,237,552445,1,2,0:2:0:0:
257,259,552538,1,2,0:2:0:0:
242,285,552632,1,2,0:2:0:0:
228,311,552726,1,2,0:2:0:0:
208,333,552819,1,2,0:2:0:0:
182,348,552913,1,2,0:2:0:0:
152,354,553007,1,2,0:2:0:0:
122,354,553101,1,2,0:2:0:0:
93,347,553194,1,2,0:2:0:0:
69,328,553288,1,2,0:2:0:0:
53,302,553382,1,2,0:2:0:0:
46,272,553476,1,2,0:2:0:0:
53,243,553570,5,4,0:0:0:0:
256,192,553663,12,2,556570,0:2:0:0:
443,233,573445,5,0,0:2:0:0:
356,315,573820,1,0,0:2:0:0:
336,323,573913,1,0,0:2:0:0:
314,327,574007,1,0,0:2:0:0:
292,328,574101,1,0,0:2:0:0:
270,326,574195,1,0,0:2:0:0:
248,323,574289,1,0,0:2:0:0:
226,324,574383,1,0,0:2:0:0:
204,328,574477,1,0,0:2:0:0:
184,336,574570,1,2,0:2:0:0:
184,336,574945,5,0,0:2:0:0:
96,328,575320,1,0,0:2:0:0:
147,254,575695,2,0,P|216:155|139:29,1,270.300000412445,2|0,0:2|3:2,0:2:0:0:
40,152,577570,2,0,L|146:142,2,90.1000001374817,0|0|0,0:2|0:2|0:2,0:2:0:0:
40,152,579070,1,0,0:2:0:0:
16,288,579445,6,0,L|115:308,1,90.1000001374817,0|0,0:2|0:2,0:2:0:0:
192,324,580195,2,0,P|264:232|203:101,1,270.300000412445,2|0,3:2|0:2,0:2:0:0:
259,30,581695,1,0,0:2:0:0:
348,20,582070,1,0,0:2:0:0:
400,93,582445,2,0,P|309:160|162:131,1,270.300000412445,2|0,0:2|3:2,0:2:0:0:
40,288,583945,5,0,0:2:0:0:
126,264,584320,1,0,0:2:0:0:
198,317,584695,2,0,P|308:341|464:292,1,270.300000412445,2|0,3:2|3:2,0:2:0:0:
456,297,586570,1,0,0:2:0:0:
390,234,586945,2,0,P|374:194|382:138,1,90,0|0,0:2|0:2,0:2:0:0:
378,148,588070,1,0,3:2:0:0:
322,77,588445,6,0,P|279:54|226:58,1,90.1000001374817,0|0,0:2|0:2,0:2:0:0:
256,155,589195,1,2,3:2:0:0:
384,192,590320,1,0,3:2:0:0:
306,238,590695,1,0,0:2:0:0:
382,349,591257,1,0,0:2:0:0:
382,349,591445,2,0,P|274:382|124:317,1,270.300000412445,2|8,0:2|3:2,0:2:0:0:
77,254,592945,6,0,P|64:177|152:180,1,180.200000274963,2|0,0:2|3:2,0:2:0:0:
227,208,594070,2,0,P|306:205|295:126,1,180.200000274963,2|0,0:2|3:2,0:2:0:0:
350,55,595195,1,0,0:2:0:0:
439,59,595570,1,0,0:2:0:0:
493,130,595945,2,2,P|517:215|463:292,1,180.200000274963,2|0,0:2|3:2,0:2:0:0:
387,323,597070,1,0,3:2:0:0:
297,331,597445,6,0,L|195:316,1,90.1000001374817,0|2,0:2|0:2,0:2:0:0:
28,287,598570,2,0,L|130:272,1,90.1000001374817,0|2,0:2|0:2,0:2:0:0:
197,233,599320,2,0,P|219:180|190:106,1,135.150000206223,2|0,0:2|3:2,0:2:0:0:
164,75,600070,1,0,0:2:0:0:
164,75,600445,2,0,P|250:37|405:104,1,270.300000412445,2|0,3:2|3:2,0:2:0:0:
366,184,601945,6,0,P|321:263|377:334,1,180.200000274963,2|0,0:2|3:2,0:2:0:0:
456,328,603070,2,0,L|480:136,1,180,2|0,0:2|3:2,0:2:0:0:
384,48,604382,1,0,0:2:0:0:
384,48,604570,1,0,0:2:0:0:
332,121,604945,2,2,P|252:140|156:97,1,180.200000274963,2|0,3:2|0:2,0:2:0:0:
128,22,606070,1,0,3:2:0:0:
72,88,606445,5,0,0:2:0:0:
72,88,606820,2,0,L|112:264,1,180,2|0,0:2|3:2,0:2:0:0:
192,296,607945,1,0,0:2:0:0:
264,248,608320,2,0,P|304:224|392:240,1,135,2|0,0:2|0:2,0:2:0:0:
420,269,609070,1,0,0:2:0:0:
484,206,609445,2,0,P|506:121|486:28,1,180.200000274963,2|8,0:2|0:2,0:2:0:0:
304,40,610570,6,0,P|288:80|328:176,1,135,4|0,3:0|0:2,0:2:0:0:
354,185,611320,1,2,0:2:0:0:
344,274,611695,2,2,P|226:227|86:258,1,270.300000412445,2|0,3:2|3:2,0:2:0:0:
89,255,613570,5,0,0:2:0:0:
151,319,613945,1,2,3:2:0:0:
238,341,614320,1,0,0:2:0:0:
326,326,614695,1,0,3:2:0:0:
326,326,614882,1,0,3:2:0:0:
326,326,615070,1,0,3:2:0:0:
472,216,615445,5,0,0:2:0:0:
424,136,615820,1,2,0:2:0:0:
248,96,616570,1,0,0:2:0:0:
296,176,616945,1,2,0:2:0:0:
248,256,617320,2,0,P|200:272|112:240,1,135,2|0,0:2|0:2,0:2:0:0:
100,208,618070,1,0,0:2:0:0:
68,123,618445,2,0,P|145:69|237:95,1,180.200000274963,2|0,0:2|0:2,0:2:0:0:
307,119,619570,6,0,P|371:140|443:117,1,135.150000206223,2|0,3:2|0:2,0:2:0:0:
471,97,620320,1,0,0:2:0:0:
491,184,620695,2,2,P|376:226|242:173,1,270.300000412445,2|0,3:2|3:2,0:2:0:0:
248,32,622570,5,0,0:2:0:0:
216,112,622945,1,2,3:2:0:0:
176,192,623320,1,0,0:2:0:0:
136,272,623695,1,0,0:2:0:0:
296,352,624445,6,0,L|400:344,1,90,0|2,0:2|0:2,0:2:0:0:
488,192,625570,2,0,L|384:184,1,90,0|2,0:2|0:2,0:2:0:0:
369,104,626320,5,8,3:0:0:0:
369,104,626507,1,8,3:0:0:0:
330,28,626882,1,8,3:0:0:0:
287,27,627070,1,0,3:0:0:0:
250,48,627257,1,8,3:0:0:0:
231,91,627445,6,0,L|252:182,1,85,0|2,3:2|3:0,0:2:0:0:
247,216,628007,1,2,3:0:0:0:
228,254,628195,1,2,3:0:0:0:
191,275,628382,2,0,L|169:279,3,14.1666666666667,0|0|0|4,0:0|0:3|0:0|0:3,0:0:0:0:
64,192,628945,5,0,3:2:0:0:
122,101,629320,1,0,3:2:0:0:
189,184,629695,2,0,P|243:181|288:145,1,107.099996731567,2|0,1:2|3:2,0:2:0:0:
360,74,630445,1,0,0:2:0:0:
428,103,630632,1,2,0:2:0:0:
368,148,630820,6,0,L|382:263,1,107.099996731567,2|0,3:2|0:2,0:2:0:0:
392,328,631382,1,0,0:2:0:0:
322,301,631570,2,0,P|274:293|207:318,2,107.099996731567,0|0|0,3:2|1:2|3:2,3:2:0:0:
462,352,632695,1,0,3:2:0:0:
462,352,633070,1,2,3:2:0:0:
288,352,633445,5,0,3:2:0:0:
215,273,633820,1,0,3:2:0:0:
136,345,634195,2,2,P|115:235|186:170,1,214.199993463135,2|0,1:2|3:2,0:2:0:0:
289,168,635320,5,0,3:2:0:0:
393,144,635695,1,2,0:2:0:0:
362,246,636070,1,0,3:2:0:0:
406,343,636445,2,0,L|524:320,2,107.099996731567,0|0|0,1:2|3:2|3:2,0:2:0:0:
332,358,637382,1,2,0:2:0:0:
259,376,637570,1,0,3:2:0:0:
160,256,637945,6,0,P|129:220|136:144,1,107.099996731567,0|0,3:2|3:2,0:2:0:0:
184,72,638695,1,2,1:2:0:0:
184,72,639070,1,0,3:2:0:0:
242,118,639257,1,2,0:2:0:0:
315,132,639445,1,0,3:2:0:0:
385,108,639632,1,2,0:2:0:0:
446,65,639820,6,0,L|471:183,2,107.099996731567,0|0|0,3:2|3:2|3:2,0:2:0:0:
318,29,640945,2,2,P|303:85|323:146,1,107.099996731567,2|2,1:2|3:2,3:2:0:0:
304,206,641507,1,0,0:2:0:0:
242,248,641695,1,2,3:2:0:0:
167,242,641882,1,0,0:2:0:0:
104,199,642070,1,2,3:2:0:0:
40,320,642445,6,0,L|169:313,1,107.099996731567,0|0,3:2|3:2,0:2:0:0:
253,308,643195,2,0,P|262:248|237:196,1,107.099996731567,2|2,1:2|3:2,0:2:0:0:
204,143,643757,1,0,0:2:0:0:
270,107,643945,1,2,3:2:0:0:
344,115,644132,1,0,0:2:0:0:
405,158,644320,5,0,3:2:0:0:
375,89,644507,1,8,3:0:0:0:
311,49,644695,1,0,0:2:0:0:
236,51,644882,1,8,3:0:0:0:
179,101,645070,1,8,3:0:0:0:
151,170,645257,1,0,0:2:0:0:
143,201,645351,1,0,0:2:0:0:
148,231,645445,6,0,P|157:282|125:343,1,101.999996887207,2|0,0:2|0:2,0:2:0:0:
156,349,645913,1,0,0:0:0:0:
177,366,646006,1,0,0:0:0:0:
203,374,646100,1,0,0:0:0:0:
231,373,646194,1,0,0:0:0:0:
257,364,646288,1,0,0:0:0:0:
280,349,646381,1,0,0:0:0:0:
296,325,646475,1,0,0:0:0:0:
302,297,646569,5,4,1:0:0:0:
316,142,646945,1,2,0:2:0:0:
242,166,647132,1,0,1:2:0:0:
184,113,647320,1,0,1:2:0:0:
36,159,647695,2,0,P|18:215|50:288,1,118.999996368408,8|2,1:2|0:2,0:2:0:0:
110,255,648257,1,0,0:2:0:0:
142,327,648445,1,8,1:2:0:0:
206,279,648632,1,0,0:2:0:0:
270,319,648820,1,0,1:2:0:0:
380,363,649195,5,2,0:2:0:0:
455,345,649382,1,0,1:2:0:0:
401,289,649570,1,0,1:2:0:0:
291,241,649945,2,0,P|270:189|300:125,1,118.999996368408,10|0,1:2|1:2,0:2:0:0:
350,82,650507,1,0,0:2:0:0:
283,42,650695,2,0,L|212:41,1,59.4999981842042,2|0,0:2|0:2,0:2:0:0:
146,38,651070,5,2,1:2:0:0:
146,38,651445,2,0,L|130:115,1,59.4999981842042,2|0,0:2|1:2,0:2:0:0:
74,146,651820,1,8,1:2:0:0:
216,206,652195,1,4,0:2:0:0:
307,330,652570,6,0,P|315:298|312:247,1,59.4999981842042,2|0,1:2|0:2,0:2:0:0:
293,197,652945,1,2,0:2:0:0:
368,215,653132,1,0,0:2:0:0:
426,163,653320,6,0,P|444:109|425:43,1,118.999996368408,2|0,1:2|1:2,0:2:0:0:
355,27,653882,1,0,1:2:0:0:
285,61,654070,1,8,1:2:0:0:
285,61,654445,2,0,L|290:200,2,118.999996368408,4|0|8,1:0|3:2|3:2,1:0:0:0:
221,16,655382,1,8,3:2:0:0:
144,27,655570,1,2,1:2:0:0:
96,136,655945,6,0,P|154:129|203:182,1,118.999996368408,2|0,0:2|1:2,0:2:0:0:
215,241,656507,1,0,0:2:0:0:
170,304,656695,2,0,L|96:290,1,59.4999981842042,8|0,1:2|0:2,0:2:0:0:
243,353,657070,2,0,L|317:339,1,59.4999981842042,2|0,1:2|0:2,0:2:0:0:
352,283,657445,1,2,0:2:0:0:
352,205,657632,1,0,0:2:0:0:
290,157,657820,6,0,P|268:100|310:35,1,118.999996368408,2|0,1:2|0:2,0:2:0:0:
366,30,658382,1,10,1:2:0:0:
432,70,658570,1,2,1:2:0:0:
496,248,658945,6,0,L|356:231,1,118.999996368408,4|8,1:0|3:2,0:2:0:0:
301,221,659507,1,0,0:2:0:0:
329,293,659695,1,2,0:2:0:0:
252,282,659882,1,0,0:2:0:0:
181,313,660070,1,2,1:2:0:0:
48,192,660445,6,0,L|32:264,2,59.4999981842042,4|0|2,0:2|1:2|1:2,0:2:0:0:
118,160,661007,1,0,0:2:0:0:
189,189,661195,2,0,P|243:178|285:109,1,118.999996368408,8|4,1:2|1:2,0:2:0:0:
160,32,661945,1,2,0:2:0:0:
392,32,662320,6,0,L|414:175,1,118.999996368408,2|0,1:2|0:2,0:2:0:0:
385,223,662882,1,0,0:2:0:0:
445,270,663070,1,2,3:2:0:0:
445,270,663445,2,0,P|398:300|329:277,1,118.999996368408,4|2,1:2|3:2,0:2:0:0:
250,159,664195,1,2,0:2:0:0:
222,231,664382,1,0,3:2:0:0:
222,231,664476,1,0,3:2:0:0:
222,231,664570,6,0,B|170:184|89:219,1,136,4|0,1:0|0:2,0:2:0:0:
44,143,665132,1,0,1:2:0:0:
93,69,665320,2,0,B|186:55,1,68,10|0,1:2|2:2,0:2:0:0:
247,43,665695,1,10,1:2:0:0:
394,48,666070,5,2,1:2:0:0:
361,130,666257,1,0,0:2:0:0:
450,120,666445,2,0,L|479:53,1,68,8|0,1:2|0:2,0:2:0:0:
488,216,666820,2,0,P|440:200|343:242,1,136,2|0,1:2|0:2,0:2:0:0:
327,305,667382,1,0,1:2:0:0:
327,305,667570,1,2,1:2:0:0:
168,328,667945,6,0,L|201:179,2,136,4|8|0,0:2|1:2|1:2,0:2:0:0:
55,251,669070,1,2,1:2:0:0:
72,48,669445,6,0,L|144:42,1,68,2|0,0:2|1:2,0:2:0:0:
226,37,669820,2,0,P|243:102|203:186,1,136,0|8,1:2|1:2,0:2:0:0:
148,215,670382,1,0,0:2:0:0:
143,126,670570,1,2,1:2:0:0:
227,253,670757,1,0,0:2:0:0:
74,262,670945,1,8,1:2:0:0:
148,215,671132,1,0,3:2:0:0:
306,293,671320,6,0,L|402:189,1,136,4|0,1:0|0:2,0:2:0:0:
451,122,671882,1,0,1:2:0:0:
451,122,672070,1,0,1:2:0:0:
451,122,672445,2,0,P|396:83|314:111,1,136,4|0,1:0|1:0,0:2:0:0:
162,141,673195,1,2,1:2:0:0:
162,141,673382,1,0,0:2:0:0:
101,302,673570,6,0,L|201:318,1,76.4999976654053,4|0,1:0|0:2,0:2:0:0:
248,269,673945,1,0,0:2:0:0:
173,229,674132,1,0,1:2:0:0:
246,186,674320,2,0,P|275:126|237:44,2,152.999995330811,0|4|8,1:2|1:0|1:2,0:2:0:0:
320,225,675257,1,0,0:2:0:0:
394,184,675445,1,2,0:2:0:0:
392,268,675632,1,0,0:2:0:0:
256,344,675820,6,0,L|178:335,1,76.4999976654053,4|0,1:0|1:2,0:2:0:0:
129,267,676195,1,0,3:2:0:0:
284,229,676382,1,0,1:2:0:0:
228,165,676570,2,0,P|219:124|228:84,1,76.4999976654053,10|0,1:2|0:2,0:2:0:0:
392,40,676945,6,0,L|474:53,1,76.4999976654053,8|0,0:2|0:2,0:2:0:0:
472,136,677320,2,0,L|320:112,2,152.999995330811,2|0|0,1:2|0:2|1:2,0:2:0:0:
480,328,678445,5,4,0:2:0:0:
389,342,678632,1,2,1:2:0:0:
324,276,678820,2,0,P|262:266|180:324,1,152.999995330811,0|8,1:2|1:2,0:2:0:0:
40,270,679570,2,0,L|60:182,1,76.4999976654053,4|0,1:2|0:2,0:2:0:0:
133,144,679945,1,2,0:2:0:0:
50,103,680132,1,0,0:2:0:0:
264,24,680320,6,0,P|267:67|239:126,1,76.4999976654053,10|0,1:2|3:2,0:2:0:0:
239,181,680695,1,0,0:2:0:0:
265,260,680882,1,0,3:2:0:0:
341,296,681070,1,2,0:2:0:0:
423,280,681257,1,0,3:2:0:0:
481,218,681445,5,4,1:0:0:0:
468,135,681632,1,2,3:2:0:0:
388,162,681820,1,10,3:2:0:0:
307,137,682007,1,10,3:2:0:0:
244,80,682195,1,10,3:2:0:0:
163,55,682382,1,10,3:2:0:0:
83,82,682570,6,0,P|46:159|85:239,1,170,4|10,0:0|0:2,0:2:0:0:
153,268,683132,1,0,0:2:0:0:
237,278,683320,2,0,L|339:265,1,85,10|0,0:2|0:2,0:2:0:0:
479,139,683695,6,0,P|436:122|394:70,1,85,2|0,0:2|2:2,0:2:0:0:
334,177,684070,2,0,P|315:134|322:68,1,85,10|0,0:2|0:2,0:2:0:0:
204,101,684445,2,0,P|221:58|273:16,1,85,10|0,0:2|1:2,0:2:0:0:
49,29,684820,6,0,L|62:219,1,170,2|10,0:2|0:2,0:2:0:0:
119,259,685382,1,0,0:2:0:0:
202,244,685570,1,10,0:2:0:0:
269,294,685757,1,0,0:2:0:0:
469,118,685945,6,0,L|354:144,1,85,10|0,0:2|2:2,0:2:0:0:
303,160,686320,1,10,0:2:0:0:
324,78,686507,1,0,0:2:0:0:
364,219,686695,1,14,0:2:0:0:
221,185,686882,1,2,0:2:0:0:
261,337,687070,6,0,P|206:358|93:309,1,170,2|10,0:2|0:2,0:2:0:0:
63,249,687632,1,0,0:2:0:0:
83,166,687820,2,0,P|95:117|79:66,1,85,10|0,0:2|0:2,0:2:0:0:
304,27,688195,6,0,L|266:115,1,85,2|0,0:2|0:2,0:2:0:0:
359,170,688570,2,0,L|269:205,1,85,10|0,0:2|0:2,0:2:0:0:
314,306,688945,2,0,L|220:283,1,85,10|0,0:2|2:2,0:2:0:0:
38,344,689320,5,2,0:2:0:0:
120,324,689507,1,0,0:2:0:0:
61,262,689695,1,10,0:2:0:0:
143,242,689882,1,0,0:2:0:0:
83,180,690070,1,10,0:2:0:0:
165,159,690257,1,0,0:2:0:0:
105,98,690445,5,2,0:2:0:0:
143,242,690632,1,0,0:2:0:0:
250,136,690820,1,10,0:2:0:0:
250,136,690913,1,2,0:2:0:0:
250,136,691007,1,0,0:2:0:0:
310,75,691195,2,0,P|334:118|331:167,1,85,10|0,0:2|0:2,0:2:0:0:
230,331,691570,6,0,L|411:337,1,170,4|10,0:0|0:2,0:2:0:0:
484,341,692132,1,0,0:2:0:0:
445,265,692320,2,0,P|440:221|457:179,1,85,10|0,0:2|0:2,0:2:0:0:
360,25,692695,6,0,P|365:66|351:106,1,85,2|0,0:2|2:2,0:2:0:0:
281,155,693070,2,0,L|100:140,1,170,10|10,0:2|0:2,0:2:0:0:
69,67,693632,1,0,0:2:0:0:
20,287,693820,5,4,0:0:0:0:
101,262,694007,1,0,0:2:0:0:
181,290,694195,1,10,0:2:0:0:
209,281,694288,1,0,0:2:0:0:
238,273,694382,1,0,0:2:0:0:
317,303,694570,1,10,0:2:0:0:
317,303,694757,1,0,0:2:0:0:
488,192,694945,5,2,0:2:0:0:
456,113,695132,1,0,0:2:0:0:
404,181,695320,2,0,P|359:188|302:178,1,85,14|0,0:2|0:2,0:2:0:0:
241,151,695695,1,10,0:2:0:0:
200,140,695788,1,2,0:2:0:0:
157,146,695882,1,0,0:2:0:0:
39,334,696070,6,0,L|239:352,1,170,4|14,0:0|0:2,0:2:0:0:
292,354,696632,1,0,0:2:0:0:
253,277,696820,2,0,P|252:242|275:184,1,85,10|0,0:2|0:2,0:2:0:0:
188,31,697195,6,0,P|187:73|173:112,1,85,2|0,0:2|2:2,0:2:0:0:
93,143,697570,1,10,0:2:0:0:
98,58,697757,1,0,0:2:0:0:
265,91,697945,2,0,P|307:100|370:93,1,85,10|0,0:2|2:2,0:2:0:0:
473,71,698320,5,2,0:2:0:0:
473,71,698413,1,0,0:2:0:0:
473,71,698507,1,0,0:2:0:0:
476,156,698695,1,10,0:2:0:0:
426,224,698882,1,0,0:2:0:0:
342,209,699070,1,10,0:2:0:0:
292,277,699257,1,0,0:2:0:0:
248,350,699445,5,2,0:2:0:0:
184,246,699632,1,8,0:2:0:0:
191,217,699726,1,8,0:2:0:0:
198,188,699820,1,10,0:2:0:0:
85,128,700007,1,8,0:2:0:0:
92,157,700101,1,8,0:2:0:0:
99,186,700195,1,10,0:2:0:0:
175,84,700382,1,10,0:2:0:0:
292,134,700570,6,0,L|318:238,1,85,4|0,0:0|0:2,0:2:0:0:
339,297,700945,1,10,0:2:0:0:
414,263,701132,2,0,P|412:337|313:377,1,170,0|0,0:2|0:2,0:2:0:0:
258,343,701695,6,0,P|209:331|163:337,1,85,2|0,0:2|2:2,0:2:0:0:
98,371,702070,1,10,0:2:0:0:
98,371,702257,1,0,0:2:0:0:
17,174,702445,2,0,L|115:186,1,85,10|0,0:2|2:2,0:2:0:0:
185,195,702820,5,4,0:0:0:0:
343,134,703007,1,0,0:2:0:0:
198,111,703195,1,10,0:2:0:0:
329,217,703382,1,0,0:2:0:0:
277,80,703570,1,10,0:2:0:0:
250,248,703757,1,0,0:2:0:0:
405,350,703945,6,0,P|442:281|392:194,1,170,2|10,0:2|1:2,0:2:0:0:
326,174,704507,1,0,0:2:0:0:
283,167,704601,1,0,0:2:0:0:
240,161,704695,1,10,0:2:0:0:
202,180,704788,1,0,0:2:0:0:
164,200,704882,1,2,0:2:0:0:
32,324,705070,6,0,L|119:317,1,85,2|0,0:2|0:2,0:2:0:0:
201,307,705445,1,10,0:2:0:0:
268,358,705632,2,0,P|283:297|216:223,1,170,0|0,0:2|0:2,0:2:0:0:
22,175,706195,5,2,0:2:0:0:
81,114,706382,1,0,0:2:0:0:
163,135,706570,2,0,P|209:137|254:113,1,85,10|0,0:2|0:2,0:2:0:0:
293,52,706945,1,10,0:2:0:0:
293,52,707320,5,2,0:2:0:0:
419,69,707507,1,0,0:2:0:0:
304,125,707695,1,14,0:2:0:0:
477,149,707882,1,0,0:2:0:0:
315,204,708070,1,10,0:2:0:0:
441,221,708257,1,0,0:2:0:0:
363,322,708445,6,0,L|268:341,1,85,2|0,0:2|0:2,0:2:0:0:
152,354,708820,1,14,0:2:0:0:
53,273,709007,1,8,0:2:0:0:
73,235,709101,1,8,0:2:0:0:
67,192,709195,1,10,0:2:0:0:
107,202,709288,1,8,0:2:0:0:
149,200,709382,1,8,0:2:0:0:
186,180,709476,1,8,0:2:0:0:
208,144,709570,6,0,P|221:97|119:62,2,170,4|14|10,0:0|0:2|0:2,0:2:0:0:
238,223,710507,1,0,0:2:0:0:
316,190,710695,6,0,P|356:179|397:189,1,85,2|0,0:2|2:2,0:2:0:0:
442,262,711070,1,10,0:2:0:0:
356,264,711257,1,0,0:2:0:0:
482,187,711445,2,0,L|502:99,1,85,10|0,0:2|2:2,0:2:0:0:
335,28,711820,5,4,0:0:0:0:
209,50,712007,1,0,0:2:0:0:
282,93,712195,1,2,0:2:0:0:
156,115,712382,1,0,0:2:0:0:
229,158,712570,1,10,0:2:0:0:
229,158,712757,1,0,0:2:0:0:
103,180,712945,5,2,0:2:0:0:
97,208,713038,1,0,0:2:0:0:
91,237,713132,1,0,0:2:0:0:
175,246,713320,1,10,0:2:0:0:
169,274,713413,1,0,0:2:0:0:
163,303,713507,1,0,0:2:0:0:
236,358,713695,1,10,0:2:0:0:
242,329,713789,1,0,0:2:0:0:
248,301,713882,1,0,0:2:0:0:
255,272,713976,1,0,0:2:0:0:
262,243,714070,6,0,P|341:200|417:232,1,170,4|10,1:0|0:2,0:2:0:0:
458,296,714632,1,0,0:2:0:0:
496,219,714820,1,10,0:2:0:0:
463,140,715007,1,0,0:2:0:0:
386,101,715195,6,0,L|288:118,1,85,2|0,0:2|2:2,0:2:0:0:
207,249,715570,2,0,L|241:155,1,85,10|0,0:2|0:2,0:2:0:0:
166,21,715945,2,0,L|229:97,1,85,10|0,0:2|0:2,0:2:0:0:
316,199,716320,6,0,P|343:274|282:348,1,170,4|10,0:0|0:2,0:2:0:0:
214,370,716882,1,0,0:2:0:0:
135,336,717070,1,10,0:2:0:0:
55,365,717257,1,0,0:2:0:0:
21,187,717445,6,0,P|47:141|170:140,1,170,4|10,0:0|0:2,0:2:0:0:
227,172,718007,1,0,0:2:0:0:
303,135,718195,1,10,0:2:0:0:
377,175,718382,1,2,0:2:0:0:
456,143,718570,6,0,P|426:48|280:52,1,255,2|2,0:2|0:2,0:2:0:0:
215,87,720070,1,2,0:2:0:0:
136,53,720445,1,2,0:2:0:0:
67,102,720820,2,0,P|23:213|88:340,1,255,2|0,0:2|0:2,0:2:0:0:
155,361,722320,1,2,0:2:0:0:
155,361,723070,6,0,B|232:292|331:401|403:317,1,255,2|2,0:2|0:2,0:2:0:0:
428,245,724570,1,2,0:2:0:0:
386,170,724945,1,2,0:2:0:0:
439,103,725320,2,0,P|334:100|322:228,1,255,2|2,0:2|0:2,0:2:0:0:
400,254,726820,2,0,L|485:252,1,85,0|0,0:2|0:2,0:2:0:0:
256,192,743320,5,4,1:0:0:0:
154,40,744025,5,2,0:0:0:0:
214,100,744202,1,0,0:0:0:0:
298,100,744378,1,2,0:0:0:0:
358,40,744555,1,2,0:0:0:0:
256,192,746143,5,2,0:0:0:0:
154,344,746848,5,0,0:0:0:0:
214,284,747025,1,2,0:0:0:0:
298,284,747201,1,2,0:0:0:0:
358,344,747378,1,2,0:0:0:0:
358,344,748438,1,2,0:0:0:0:
418,284,748614,1,2,0:0:0:0:
386,204,748791,1,2,0:0:0:0:
453,152,748967,6,0,L|418:43,1,85,2|0,0:2|2:0,0:0:0:0:
350,32,749320,1,10,0:2:0:0:
292,94,749496,1,0,3:0:0:0:
268,112,749584,1,0,3:0:0:0:
239,119,749672,1,0,1:0:0:0:
209,120,749761,1,0,3:0:0:0:
179,114,749849,1,2,3:2:0:0:
109,65,750025,1,10,0:2:0:0:
109,65,750202,1,2,2:0:0:0:
59,232,750378,6,0,L|94:341,1,85,0|0,0:2|2:0,0:0:0:0:
162,352,750731,1,10,0:2:0:0:
220,290,750907,1,0,3:0:0:0:
244,272,750995,1,0,3:0:0:0:
273,265,751083,1,0,1:0:0:0:
303,264,751172,1,0,3:0:0:0:
333,270,751260,1,0,3:2:0:0:
403,319,751436,1,10,0:2:0:0:
403,319,751613,1,0,2:0:0:0:
493,154,751790,6,0,L|392:169,1,85,2|0,0:2|2:0,0:0:0:0:
324,176,752143,1,10,0:2:0:0:
358,98,752320,1,0,3:0:0:0:
328,92,752408,1,0,3:0:0:0:
298,86,752496,1,0,0:0:0:0:
268,80,752584,1,0,3:0:0:0:
238,75,752672,1,2,3:2:0:0:
159,108,752849,1,10,0:2:0:0:
226,159,753025,1,2,2:0:0:0:
59,197,753202,5,0,0:0:0:0:
66,225,753290,1,0,3:0:0:0:
74,253,753378,1,0,3:0:0:0:
102,333,753555,1,10,0:2:0:0:
102,333,753908,1,0,0:0:0:0:
211,239,754084,1,2,0:2:0:0:
102,333,754261,1,10,0:2:0:0:
244,314,754437,1,2,0:2:0:0:
380,362,754614,5,2,0:2:0:0:
349,282,754790,1,0,2:0:0:0:
433,296,754967,1,10,0:2:0:0:
403,216,755143,1,0,3:0:0:0:
410,187,755231,1,0,3:0:0:0:
417,157,755320,1,0,0:2:0:0:
424,128,755408,1,0,3:0:0:0:
431,99,755496,1,2,3:2:0:0:
363,47,755672,1,10,0:2:0:0:
303,108,755849,1,2,2:0:0:0:
132,22,756025,5,0,0:2:0:0:
163,102,756201,1,0,2:0:0:0:
79,88,756378,1,10,0:2:0:0:
109,168,756554,1,0,3:0:0:0:
102,197,756642,1,0,3:0:0:0:
95,227,756731,1,0,0:2:0:0:
88,256,756819,1,0,3:0:0:0:
81,285,756907,1,0,3:2:0:0:
149,337,757083,1,10,0:2:0:0:
209,276,757260,1,0,2:0:0:0:
403,354,757437,5,2,0:2:0:0:
413,269,757614,1,0,2:0:0:0:
481,321,757790,1,8,0:2:0:0:
335,304,757967,1,0,3:0:0:0:
309,289,758055,1,0,3:0:0:0:
283,274,758143,1,0,0:0:0:0:
283,244,758231,1,0,3:0:0:0:
283,213,758320,1,2,3:2:0:0:
342,153,758496,1,10,0:2:0:0:
282,93,758672,1,2,2:2:0:0:
158,202,758849,5,0,0:0:0:0:
128,197,758937,1,0,3:0:0:0:
98,192,759025,1,0,3:0:0:0:
74,110,759202,1,8,0:2:0:0:
158,122,759378,1,0,3:0:0:0:
207,52,759555,1,0,0:0:0:0:
230,177,759731,1,10,0:2:0:0:
287,62,759908,1,2,0:2:0:0:
310,187,760084,1,2,0:0:0:0:
363,70,760261,5,2,0:2:0:0:
408,141,760437,1,0,2:0:0:0:
493,151,760614,1,10,0:2:0:0:
442,219,760790,1,0,3:0:0:0:
429,245,760878,1,0,3:0:0:0:
422,274,760967,1,0,0:0:0:0:
424,303,761055,1,0,3:0:0:0:
433,331,761143,1,2,3:2:0:0:
355,366,761320,1,10,0:2:0:0:
280,324,761496,1,2,2:0:0:0:
72,353,761672,5,0,0:0:0:0:
122,284,761849,1,0,2:0:0:0:
71,216,762025,1,10,0:2:0:0:
52,186,762114,1,0,3:0:0:0:
48,152,762202,1,0,3:0:0:0:
56,119,762290,1,0,3:0:0:0:
75,91,762378,1,2,0:2:0:0:
108,72,762467,1,0,3:0:0:0:
146,69,762555,1,0,3:0:0:0:
183,78,762643,1,0,3:0:0:0:
211,103,762731,1,10,0:2:0:0:
250,119,762820,1,0,3:0:0:0:
292,121,762908,1,0,3:0:0:0:
332,108,762996,1,0,3:0:0:0:
354,76,763084,5,2,0:0:0:0:
255,352,763664,1,2,0:0:0:0:
156,76,764245,1,2,0:0:0:0:
156,76,764438,1,2,0:0:0:0:
