osu file format v12

[General]
AudioFilename: God only knows - Secrets of the Goddess.mp3
AudioLeadIn: 500
PreviewTime: 95204
Countdown: 0
SampleSet: Soft
StackLeniency: 0.7
Mode: 0
LetterboxInBreaks: 0
WidescreenStoryboard: 0

[Editor]
Bookmarks: 8776,488777
DistanceSpacing: 1.1
BeatDivisor: 4
GridSize: 4

[Metadata]
Title:God only knows -Secrets of the Goddess-
TitleUnicode:God only knows -Secrets of the Goddess-
Artist:Oratorio The World God Only Knows
ArtistUnicode:Oratorio The World God Only Knows
Creator:Guy
Version:The World Guy Only Knows
Source:Kami Nomi zo Shiru Sekai Megami-hen
Tags:opening hayami saori haqua 神のみぞ知るセカイ 女神篇 早見沙織
BeatmapID:283252
BeatmapSetID:108296

[Difficulty]
HPDrainRate:6
CircleSize:4
OverallDifficulty:6
ApproachRate:9
SliderMultiplier:1.8
SliderTickRate:2

[Events]
//Background and Video events
0,0,"bg.jpg",0,0
//Break Periods
2,64345,66369
2,130345,131310
2,133169,134839
2,135992,136957
2,209061,221304
2,277920,288557
2,431365,437567
2,556856,574431
2,727481,742806
//Storyboard Layer 0 (Background)
//Storyboard Layer 1 (Fail)
//Storyboard Layer 2 (Pass)
//Storyboard Layer 3 (Foreground)
//Storyboard Sound Samples
//Background Colour Transformations
3,100,163,162,255

[TimingPoints]
501,413.793103448276,3,2,1,40,1,0
1742,-100,3,2,1,20,0,0
21604,-100,3,2,1,40,0,0
41466,-100,3,2,1,50,0,0
42707,-166.666666666667,3,2,1,50,0,0
43225,-100,3,2,1,50,0,0
52638,-166.666666666667,3,2,1,50,0,0
53156,-100,3,2,1,50,0,0
61322,352.941176470588,4,2,2,50,1,0
66969,-100,4,2,2,80,0,0
123792,-133.333333333333,4,2,2,50,0,0
129086,-133.333333333333,4,2,2,30,0,0
129439,-133.333333333333,4,2,2,50,0,0
129792,-100,4,2,2,80,0,0
141086,-100,4,2,3,65,0,0
160851,-100,4,2,2,65,0,0
172498,-100,4,2,2,70,0,0
176380,-133.333333333333,4,2,2,60,0,0
181145,-100,4,2,2,60,0,0
200557,-100,4,2,2,30,0,0
200821,-100,4,2,2,60,0,0
203027,-100,4,2,2,30,0,0
203292,-100,4,2,2,60,0,0
208861,521.739130434783,3,2,2,20,1,0
221904,-100,3,2,2,20,0,0
235469,-100,3,2,2,30,0,0
260513,-100,3,2,2,45,0,0
271469,-100,3,2,2,10,0,0
273034,-100,3,2,2,30,0,0
273165,-100,3,2,2,10,0,0
274600,-100,3,2,2,30,0,0
274730,-100,3,2,2,10,0,0
276165,-100,3,2,2,30,0,0
276295,-100,3,2,2,10,0,0
277720,375,4,2,2,50,1,0
289157,-100,4,2,2,35,0,0
289720,-100,4,2,2,60,0,0
325720,-100,4,3,0,60,0,0
337720,-100,4,2,3,60,0,0
349720,-100,4,2,2,65,0,0
360972,428.571428571429,4,2,2,50,1,0
368257,-100,4,2,2,30,0,0
381543,-100,4,2,1,50,0,0
391829,-100,4,2,3,35,0,0
391829,-100,4,2,3,50,0,0
393543,-100,4,2,3,40,0,0
395257,-100,4,2,3,45,0,0
396972,-100,4,2,3,50,0,0
398900,-100,4,2,3,35,0,0
399224,800,4,2,1,30,1,0
399980,375,4,2,1,60,1,0
400167,375,3,2,1,60,1,0
424209,434.782608695652,4,2,2,50,1,0
431177,291.26213592233,3,2,2,50,1,0
438167,-100,3,2,2,60,0,0
444866,291.26213592233,3,2,1,40,1,0
451565,291.26213592233,3,2,1,40,1,0
458264,291.26213592233,3,2,1,40,1,0
464963,291.26213592233,3,2,1,40,1,0
465545,-100,3,2,1,25,0,0
466128,-100,3,2,1,40,0,0
466710,-100,3,2,1,25,0,0
467584,-100,3,2,1,40,0,0
471662,291.26213592233,3,2,1,40,1,0
472681,-100,3,2,1,25,0,0
473409,-100,3,2,1,40,0,0
475545,-100,3,2,1,25,0,0
476030,-100,3,2,1,40,0,0
476613,-100,3,2,1,25,0,0
476904,-100,3,2,1,40,0,0
478652,375,4,2,2,60,1,0
501527,-90.9090909090909,4,2,2,60,0,0
501902,-83.3333333333333,4,2,2,60,0,0
502277,-76.9230769230769,4,2,2,60,0,0
502652,-100,4,2,2,60,0,0
523652,-100,4,2,2,70,0,0
529652,-100,4,2,2,80,0,0
556656,375,3,2,2,40,1,0
575031,-100,3,2,2,25,0,0
628656,-100,3,2,4,45,0,0
645531,-133.333333333333,3,2,1,45,0,0
646656,-100,3,2,4,55,0,0
660531,-100,3,2,4,35,0,0
660624,-100,3,2,4,55,0,0
678531,-100,3,2,4,35,0,0
678718,-100,3,2,4,55,0,0
680406,-100,3,2,4,45,0,0
681531,-100,3,2,4,55,0,0
681906,-100,3,2,4,45,0,0
682281,-100,3,2,4,65,0,0
682656,-100,3,2,2,60,0,0
718656,-100,3,2,2,10,0,0
743406,352.941176470588,4,2,1,20,1,0
749053,-100,4,2,4,40,0,0
763170,-100,4,2,2,20,0,0

[Colours]
Combo1 : 187,159,200
Combo2 : 255,91,255
Combo3 : 228,22,28
Combo4 : 0,128,255
Combo5 : 255,168,81

[HitObjects]
400,232,1742,2,0,P|340:292|248:272,1,180,2|0,0:0|0:0,0:0:0:0:
256,80,2776,1,0,0:0:0:0:
168,96,2983,2,0,B|124:124|120:180|120:180|144:216|140:268,1,180,2|2,0:0|0:0,0:0:0:0:
232,352,3811,2,0,P|280:344|324:328,1,90,2|0,0:0|0:0,0:0:0:0:
384,268,4225,2,0,P|424:192|500:136,2,180,2|0|2,0:0|0:0|0:0,0:0:0:0:
256,352,5466,2,0,B|216:340|168:344|168:344|136:312|92:296,1,180,2|0,0:0|0:0,0:0:0:0:
168,120,6294,2,0,P|152:168|128:216,1,90,2|0,0:0|0:0,0:0:0:0:
216,248,6707,6,0,P|276:252|396:204,1,180,2|0,0:0|0:0,0:0:0:0:
132,172,7742,1,0,0:0:0:0:
132,172,7949,2,0,P|116:272|160:356,1,180,2|2,0:0|0:0,0:0:0:0:
352,360,8776,2,0,P|372:315|376:267,1,90,2|0,0:0|0:0,0:0:0:0:
376,180,9190,2,0,P|360:96|392:8,2,180,2|0|2,0:0|0:0|0:0,0:0:0:0:
136,204,10432,2,0,P|152:288|120:376,2,180,2|0|2,0:0|0:0|0:0,0:0:0:0:
256,40,11673,6,0,L|256:148,1,90,2|0,0:0|0:0,0:0:0:0:
256,224,12087,2,0,P|192:220|120:304,1,180,2|0,0:0|0:0,0:0:0:0:
340,268,12707,1,0,0:0:0:0:
340,268,12914,2,0,P|344:204|248:128,1,180,2|0,0:0|0:0,0:0:0:0:
224,308,13742,2,0,P|244:260|260:204,1,90,2|0,0:0|0:0,0:0:0:0:
180,168,14156,2,0,P|84:172|16:120,2,180,2|0|2,0:0|0:0|0:0,0:0:0:0:
336,28,15397,2,0,B|352:52|380:64|380:64|340:88|340:88|392:108|420:180|392:228,1,270,2|0,0:0|0:0,0:0:0:0:
296,280,16225,2,0,P|292:232|308:172,1,90,2|0,0:0|0:0,0:0:0:0:
252,112,16638,6,0,P|164:100|104:160,1,180,2|2,0:0|0:0,0:0:0:0:
240,352,17673,1,0,0:0:0:0:
240,352,17880,2,0,P|192:300|208:184,1,180,2|0,0:0|0:0,0:0:0:0:
408,136,18707,2,0,L|404:248,1,90,2|0,0:0|0:0,0:0:0:0:
400,320,19121,2,0,P|312:284|208:272,2,180,2|0|2,0:0|0:0|0:0,0:0:0:0:
112,64,20363,2,0,P|200:100|304:112,2,180,2|0|2,0:0|0:0|0:0,0:0:0:0:
68,288,21604,6,0,P|151:299|239:335,1,180,4|0,0:0|0:0,0:0:0:0:
456,344,22432,2,0,P|448:304|444:256,1,90
432,160,22845,2,0,P|392:80|336:8,2,180,8|2|0,0:0|0:0|0:0,0:0:0:0:
328,304,24087,2,0,P|236:336|116:140,1,360,8|0,0:0|0:0,0:0:0:0:
320,240,25328,2,0,P|236:284|160:160,1,270,8|0,0:0|0:0,0:0:0:0:
284,112,26156,2,0,L|236:208,1,90
243,192,26569,6,0,B|240:216|224:236|224:236|232:312|196:368,2,180,4|2|0,0:0|0:0|0:0,0:0:0:0:
244,192,27811,2,0,P|284:120|376:124,1,180,8|2,0:0|0:0,0:0:0:0:
244,192,28638,2,0,P|200:236|168:248,1,90
160,156,29052,2,0,P|96:200|252:292,1,360,2|0,0:0|0:0,0:0:0:0:
288,64,30294,2,0,B|300:152|300:152|384:192,1,180,8|0,0:0|0:0,0:0:0:0:
272,332,31121,2,0,L|176:340,1,90
88,340,31535,6,0,P|80:256|64:144,1,180,4|2,0:0|0:0,0:0:0:0:
224,52,32363,2,0,P|232:104|248:168,1,90
256,232,32776,2,0,P|348:248|416:196,1,180,8|2,0:0|0:0,0:0:0:0:
256,232,33604,2,0,P|256:280|260:324,1,90,2|0,0:0|0:0,0:0:0:0:
348,272,34018,2,0,P|256:136|164:272,1,360,2|0,0:0|0:0,0:0:0:0:
348,272,35259,2,0,P|392:240|428:124,1,180,8|2,0:0|0:0,0:0:0:0:
176,20,36087,2,0,L|184:120,1,90
168,200,36501,6,0,P|120:244|100:368,1,180,4|2,0:0|0:0,0:0:0:0:
312,296,37328,2,0,P|260:312|216:312,1,90
256,220,37742,2,0,B|252:192|240:168|240:168|216:160|196:148|196:148|200:88|264:40|316:48,1,270,8|0,0:0|0:0,0:0:0:0:
388,112,38569,2,0,P|384:160|392:208,1,90,2|0,0:0|0:0,0:0:0:0:
476,160,38983,2,0,P|408:284|308:152,1,360,2|0,0:0|0:0,0:0:0:0:
152,52,40225,2,0,P|104:80|60:120,1,90,8|0,0:0|0:0,0:0:0:0:
152,156,40638,2,0,P|136:212|132:264,1,90,8|0,0:0|0:0,0:0:0:0:
228,228,41052,1,8,0:0:0:0:
228,228,41466,6,0,P|272:288|376:280,1,180,4|8,0:0|0:0,0:0:0:0:
228,132,42501,1,0,0:0:0:0:
228,132,42707,6,0,P|168:156|136:208,1,107.999996704102,2|4,0:0|0:0,0:0:0:0:
152,276,43328,5,4,0:0:0:0:
284,224,43535,1,8,0:0:0:0:
80,236,43742,1,8,0:0:0:0:
364,256,43949,2,0,P|388:168|484:164,2,180,2|2|0,0:0|0:0|0:0,0:0:0:0:
196,324,45190,2,0,B|144:312|144:312|116:240|72:208,1,180,2|2,0:0|0:0,0:0:0:0:
248,152,46018,2,0,P|220:196|200:240,1,90
280,292,46432,5,2,0:0:0:0:
280,292,46845,2,0,P|328:224|360:108,1,180,2|0,0:0|0:0,0:0:0:0:
208,52,47466,1,0,0:0:0:0:
208,52,47673,2,0,P|172:88|140:136,1,90,8|0,0:0|0:0,0:0:0:0:
132,212,48087,2,0,P|124:256|108:304,1,90,2|0,0:0|0:0,0:0:0:0:
176,360,48501,1,0,0:0:0:0:
204,276,48707,1,0,0:0:0:0:
268,340,48914,6,0,P|332:312|440:328,2,180,2|0|2,0:0|0:0|0:0,0:0:0:0:
244,44,50156,2,0,P|180:72|72:56,2,180,8|2|2,0:0|0:0|0:0,0:0:0:0:
448,192,51397,6,0,B|376:184|332:200|264:192,1,180,4|2,0:0|0:0,0:0:0:0:
80,192,52432,1,0,0:0:0:0:
80,192,52638,6,0,P|112:244|144:288,1,107.999996704102,2|4,0:0|0:0,0:0:0:0:
204,352,53259,5,4,0:0:0:0:
220,216,53466,1,8,0:0:0:0:
324,304,53673,1,8,0:0:0:0:
344,168,53880,2,0,P|428:164|492:92,2,180,2|2|0,0:0|0:0|0:0,0:0:0:0:
120,36,55121,2,0,P|72:108|52:216,1,180,8|2,0:0|0:0,0:0:0:0:
176,344,55949,2,0,L|276:328,1,90,2|0,0:0|0:0,0:0:0:0:
356,316,56363,6,0,P|348:248|432:176,1,180,2|2,0:0|0:0,0:0:0:0:
256,192,57397,1,0,0:0:0:0:
256,192,57604,2,0,L|256:8,1,180,2|2,0:0|0:0,0:0:0:0:
164,204,58432,2,0,P|192:256|228:284,1,90
300,276,58845,2,0,P|364:264|484:216,2,180,2|0|2,0:0|0:0|0:0,0:0:0:0:
212,108,60087,2,0,P|148:120|28:168,2,180,2|0|2,0:0|0:0|0:0,0:0:0:0:
256,192,61322,12,4,64145,0:0:0:0:
340,280,66969,6,0,P|296:288|252:300,1,90,4|0,0:0|0:0,0:0:0:0:
164,320,67322,2,0,P|140:276|120:224,1,90,8|0,0:0|0:0,0:0:0:0:
112,148,67674,2,0,L|68:160,2,45
204,132,68027,1,8,0:0:0:0:
144,56,68204,1,0,0:0:0:0:
304,88,68380,6,0,P|292:144|288:200,1,90,4|0,0:0|0:0,0:0:0:0:
328,264,68733,2,0,P|264:264|220:248,1,90,8|0,0:0|0:0,0:0:0:0:
160,204,69086,1,0,0:0:0:0:
160,204,69174,1,0,0:0:0:0:
160,204,69263,1,0,0:0:0:0:
168,112,69439,2,0,P|176:68|192:24,1,90,8|0,0:0|0:0,0:0:0:0:
356,96,69792,6,0,P|340:184|312:292,1,180,4|8,0:0|0:0,0:0:0:0:
248,336,70322,1,0,0:0:0:0:
248,336,70410,1,0,0:0:0:0:
248,336,70498,1,4,0:0:0:0:
140,272,70674,1,0,0:0:0:0:
264,208,70851,2,0,P|256:160|256:108,1,90,8|0,0:0|0:0,0:0:0:0:
344,64,71204,6,0,P|352:112|352:164,1,90,4|0,0:0|0:0,0:0:0:0:
180,244,71557,2,0,P|172:196|172:144,1,90,12|0,0:0|0:0,0:0:0:0:
260,48,71910,5,6,0:0:0:0:
264,80,71998,1,0,0:0:0:0:
268,112,72086,1,0,0:0:0:0:
264,144,72174,1,0,0:0:0:0:
260,176,72263,1,10,0:0:0:0:
256,208,72351,1,0,0:0:0:0:
252,240,72439,1,0,0:0:0:0:
256,272,72527,1,0,0:0:0:0:
260,304,72616,6,0,P|220:328|160:340,1,90,4|0,0:0|0:0,0:0:0:0:
64,292,72969,2,0,P|104:268|164:256,1,90,8|0,0:0|0:0,0:0:0:0:
240,224,73322,1,0,0:0:0:0:
168,156,73498,1,0,0:0:0:0:
336,124,73674,1,8,0:0:0:0:
336,124,73851,1,8,0:0:0:0:
364,32,74027,2,0,P|272:56|240:128,2,180,0|8|0,0:0|0:0|0:0,0:0:0:0:
416,164,74910,2,0,P|368:144|324:116,1,90,0|8,0:0|0:0,0:0:0:0:
436,80,75263,1,0,0:0:0:0:
504,176,75439,6,0,P|480:220|360:236,1,180,4|8,0:0|0:0,0:0:0:0:
324,144,75969,2,0,L|296:52,2,90
264,224,76498,1,8,0:0:0:0:
168,200,76674,1,8,0:0:0:0:
264,224,76851,2,0,P|268:292|268:332,1,90
176,384,77204,2,0,P|172:316|172:276,1,90,8|2,0:0|0:0,0:0:0:0:
168,200,77557,1,0,0:0:0:0:
84,252,77733,1,0,0:0:0:0:
176,296,77910,1,10,0:0:0:0:
160,108,78086,1,0,0:0:0:0:
176,296,78263,6,0,L|340:312,1,135,6|0,0:0|0:0,0:0:0:0:
356,312,78616,2,0,P|340:248|340:204,1,90,8|0,0:0|0:0,0:0:0:0:
364,96,78969,1,0,0:0:0:0:
260,140,79145,1,0,0:0:0:0:
416,168,79321,1,8,0:0:0:0:
300,56,79498,1,8,0:0:0:0:
160,132,79674,2,0,P|140:208|184:304,2,180,0|8|0,0:0|0:0|0:0,0:0:0:0:
244,188,80557,1,0,0:0:0:0:
340,164,80733,2,0,P|356:216|356:264,1,90,8|0,0:0|0:0,0:0:0:0:
296,328,81086,6,0,P|248:344|204:360,1,90
64,312,81439,2,0,P|112:296|156:280,1,90,8|0,0:0|0:0,0:0:0:0:
244,256,81792,1,0,0:0:0:0:
216,140,81969,1,0,0:0:0:0:
328,224,82145,1,8,0:0:0:0:
280,48,82321,1,0,0:0:0:0:
288,256,82498,2,0,P|328:280|436:208,1,180,4|8,0:0|0:0,0:0:0:0:
420,96,83027,1,0,0:0:0:0:
288,80,83204,5,2,0:0:0:0:
252,88,83292,1,0,0:0:0:0:
216,100,83380,1,0,0:0:0:0:
180,112,83469,1,0,0:0:0:0:
144,124,83557,1,10,0:0:0:0:
108,136,83645,1,0,0:0:0:0:
72,148,83733,1,0,0:0:0:0:
36,160,83821,1,0,0:0:0:0:
0,172,83910,6,0,P|72:240|92:320,1,180,4|8,0:0|0:0,0:0:0:0:
180,364,84439,2,0,P|228:376|284:384,2,90
164,264,84969,1,8,0:0:0:0:
240,148,85145,2,0,P|288:192|292:320,1,180,4|0,0:0|0:0,0:0:0:0:
212,352,85674,1,8,0:0:0:0:
120,312,85851,2,0,B|84:288|84:288|112:240|112:240|48:160|100:80,1,270,4|8,0:0|0:0,0:0:0:0:
224,76,86557,1,0,0:0:0:0:
224,76,86645,1,0,0:0:0:0:
224,76,86733,6,0,P|200:124|168:164,1,90,4|0,0:0|0:0,0:0:0:0:
208,248,87086,2,0,P|228:288|244:344,1,90,8|0,0:0|0:0,0:0:0:0:
340,352,87439,1,0,0:0:0:0:
428,308,87616,1,0,0:0:0:0:
344,256,87792,1,8,0:0:0:0:
456,124,87969,2,0,P|360:168|288:156,1,180,4|0,0:0|0:0,0:0:0:0:
224,76,88498,1,8,0:0:0:0:
136,124,88674,2,0,P|88:192|88:312,1,180,4|0,0:0|0:0,0:0:0:0:
152,360,89204,1,8,0:0:0:0:
276,256,89380,1,0,0:0:0:0:
276,256,89469,1,0,0:0:0:0:
276,256,89557,6,0,P|256:204|232:168,1,90,4|0,0:0|0:0,0:0:0:0:
296,80,89910,2,0,P|316:132|340:168,1,90,8|0,0:0|0:0,0:0:0:0:
392,244,90263,1,0,0:0:0:0:
340,328,90439,1,0,0:0:0:0:
240,320,90616,1,8,0:0:0:0:
204,228,90792,2,0,P|176:168|68:144,1,180,4|0,0:0|0:0,0:0:0:0:
104,240,91321,1,8,0:0:0:0:
164,320,91498,2,0,P|232:320|300:228,1,180,4|0,0:0|0:0,0:0:0:0:
256,144,92027,2,0,P|296:136|396:208,1,135,8|0,0:0|0:0,0:0:0:0:
396,216,92380,6,0,P|404:272|416:324,1,90,4|0,0:0|0:0,0:0:0:0:
296,364,92733,1,8,0:0:0:0:
172,332,92910,2,0,P|152:248|144:148,1,180,4|0,0:0|0:0,0:0:0:0:
228,56,93439,2,0,P|248:140|256:240,1,180,12|0,0:0|0:0,0:0:0:0:
72,360,93969,2,0,P|52:276|44:176,1,180,2|0,0:0|0:0,0:0:0:0:
112,96,94498,6,0,L|120:140,1,45,2|0,0:0|0:0,0:0:0:0:
204,168,94674,2,0,L|196:124,1,45,2|0,0:0|0:0,0:0:0:0:
236,56,94851,2,0,L|288:68,1,45,8|0,0:0|0:0,0:0:0:0:
328,128,95027,2,0,L|380:116,1,45,2|0,0:0|0:0,0:0:0:0:
428,104,95204,6,0,P|448:168|460:280,1,180,4|8,0:0|0:0,0:0:0:0:
384,348,95733,2,0,P|336:360|288:368,2,90
364,248,96263,1,8,0:0:0:0:
312,132,96439,2,0,P|272:164|244:304,1,180,4|0,0:0|0:0,0:0:0:0:
144,336,96969,1,8,0:0:0:0:
40,304,97145,2,0,P|28:252|24:200,1,90,4|0,0:0|0:0,0:0:0:0:
184,124,97498,2,0,P|196:176|200:228,2,90,0|8|0,0:0|0:0|0:0,0:0:0:0:
304,60,98027,6,0,P|328:152|332:244,1,180,4|8,0:0|0:0,0:0:0:0:
304,332,98557,2,0,P|256:348|204:376,2,90
396,312,99086,1,8,0:0:0:0:
240,256,99263,2,0,P|172:256|48:232,1,180,4|0,0:0|0:0,0:0:0:0:
160,140,99792,1,8,0:0:0:0:
240,256,99969,2,0,P|308:332|392:316,1,180,4|0,0:0|0:0,0:0:0:0:
368,140,100498,1,8,0:0:0:0:
336,236,100674,1,0,0:0:0:0:
232,20,100851,6,0,P|200:72|268:160,1,180,4|8,0:0|0:0,0:0:0:0:
368,60,101380,2,0,P|324:68|264:88,2,90
464,128,101910,1,8,0:0:0:0:
416,232,102086,2,0,P|336:264|240:276,1,180,4|0,0:0|0:0,0:0:0:0:
144,280,102616,1,8,0:0:0:0:
120,184,102792,2,0,P|128:100|164:4,1,180,4|0,0:0|0:0,0:0:0:0:
320,52,103321,2,0,P|268:68|220:76,1,90,8|0,0:0|0:0,0:0:0:0:
224,176,103674,6,0,P|236:256|236:372,1,180,4|8,0:0|0:0,0:0:0:0:
108,276,104204,1,0,0:0:0:0:
108,276,104292,1,0,0:0:0:0:
108,276,104380,1,0,0:0:0:0:
40,184,104557,1,0,0:0:0:0:
128,112,104733,1,8,0:0:0:0:
200,200,104910,2,0,P|248:240|364:244,1,180,4|0,0:0|0:0,0:0:0:0:
408,220,105351,1,0,0:0:0:0:
408,220,105439,2,0,P|396:176|392:128,1,90,8|0,0:0|0:0,0:0:0:0:
384,32,105792,2,0,L|344:-8,3,45,2|0|0|0,0:0|0:0|0:0|0:0,0:0:0:0:
308,64,106145,2,0,L|276:32,3,45,10|0|0|0,0:0|0:0|0:0|0:0,0:0:0:0:
232,96,106498,5,12,0:0:0:0:
116,184,106674,1,8,0:0:0:0:
300,148,106851,1,8,0:0:0:0:
300,148,107204,5,2,0:0:0:0:
300,148,107557,5,12,0:0:0:0:
256,308,107733,1,8,0:0:0:0:
232,96,107910,1,8,0:0:0:0:
232,96,108263,5,2,0:0:0:0:
232,96,108616,5,12,0:0:0:0:
184,288,108792,1,8,0:0:0:0:
376,228,108969,1,8,0:0:0:0:
152,184,109321,5,12,0:0:0:0:
344,128,109498,1,8,0:0:0:0:
300,324,109674,1,8,0:0:0:0:
264,212,110027,5,2,0:0:0:0:
264,212,110380,6,0,P|272:264|292:312,1,90,12|8,0:0|0:0,0:0:0:0:
328,136,110733,2,0,P|224:128|160:196,2,180,8|2|12,0:0|0:0|0:0,0:0:0:0:
360,232,111616,1,8,0:0:0:0:
380,48,111792,1,8,0:0:0:0:
180,196,112145,5,12,0:0:0:0:
248,312,112321,1,8,0:0:0:0:
360,232,112498,1,8,0:0:0:0:
360,232,112851,5,2,0:0:0:0:
312,56,113204,5,12,0:0:0:0:
268,228,113380,1,8,0:0:0:0:
312,56,113557,1,8,0:0:0:0:
292,140,113910,5,2,0:0:0:0:
360,212,114263,5,12,0:0:0:0:
204,124,114439,1,8,0:0:0:0:
384,116,114616,1,8,0:0:0:0:
184,220,114969,5,12,0:0:0:0:
224,32,115145,1,8,0:0:0:0:
272,256,115321,1,8,0:0:0:0:
272,256,115674,5,2,0:0:0:0:
260,160,116027,5,12,0:0:0:0:
196,312,116204,1,8,0:0:0:0:
96,184,116380,2,0,P|116:92|76:20,2,180,8|2|12,0:0|0:0|0:0,0:0:0:0:
96,276,117263,1,8,0:0:0:0:
360,220,117439,1,8,0:0:0:0:
192,76,117792,6,0,P|200:128|212:180,2,90,4|0|8,0:0|0:0|0:0,0:0:0:0:
288,116,118321,2,0,P|344:152|456:144,1,180,4|0,0:0|0:0,0:0:0:0:
384,56,118851,1,8,0:0:0:0:
384,56,119027,2,0,L|348:236,1,180,4|0,0:0|0:0,0:0:0:0:
320,328,119557,1,8,0:0:0:0:
256,256,119733,2,0,P|212:248|144:216,1,90,4|0,0:0|0:0,0:0:0:0:
88,176,120086,1,0,0:0:0:0:
172,120,120263,1,8,0:0:0:0:
196,112,120351,1,0,0:0:0:0:
220,104,120439,1,0,0:0:0:0:
244,96,120527,1,0,0:0:0:0:
268,88,120616,6,0,P|256:144|256:192,2,90,4|0|8,0:0|0:0|0:0,0:0:0:0:
368,104,121145,2,0,P|304:4|236:-4,1,180,4|0,0:0|0:0,0:0:0:0:
156,32,121674,1,8,0:0:0:0:
112,124,121851,2,0,L|140:316,1,180,4|0,0:0|0:0,0:0:0:0:
276,332,122380,1,8,0:0:0:0:
400,260,122557,2,0,L|372:68,1,180,4|0,0:0|0:0,0:0:0:0:
284,36,123086,2,0,L|232:28,3,45,8|0|0|0,0:0|0:0|0:0|0:0,0:0:0:0:
128,280,123792,6,0,P|176:300|268:312,1,135.000005149842,2|0,0:0|0:0,0:0:0:0:
340,244,124321,2,0,P|292:224|200:212,1,135.000005149842,2|0,0:0|0:0,0:0:0:0:
124,192,124851,1,2,0:0:0:0:
256,36,125204,1,2,0:0:0:0:
408,232,125557,6,0,P|324:280|216:260,2,202.500007724762,2|2|2,0:0|0:0|0:0,0:0:0:0:
296,152,126969,1,0,0:0:0:0:
296,152,127321,2,0,P|148:136|84:236,1,270.000010299683,2|0,0:0|0:0,0:0:0:0:
208,240,128204,1,2,0:0:0:0:
208,240,128292,1,2,0:0:0:0:
208,240,128380,2,0,P|356:256|420:156,1,270.000010299683,2|8,0:0|3:3,0:0:0:0:
276,84,129439,2,0,L|283:116,3,33.7500012874604
292,156,129792,5,8,0:0:0:0:
188,296,129969,1,8,0:0:0:0:
208,64,130145,1,8,0:0:0:0:
404,240,131910,5,8,0:0:0:0:
404,240,132086,2,0,P|340:176|352:88,1,180,4|0,0:0|0:0,0:0:0:0:
424,24,132616,1,8,0:0:0:0:
256,104,132792,1,8,0:0:0:0:
440,144,132969,1,8,0:0:0:0:
180,176,135439,5,8,0:0:0:0:
288,320,135616,1,8,0:0:0:0:
272,68,135792,1,8,0:0:0:0:
188,260,137557,5,8,0:0:0:0:
188,260,137733,2,0,P|184:164|120:120,1,180,4|0,0:0|0:0,0:0:0:0:
16,144,138263,1,8,0:0:0:0:
168,40,138439,1,8,0:0:0:0:
88,232,138616,1,8,0:0:0:0:
368,296,139674,5,8,0:0:0:0:
368,296,139851,2,0,P|308:288|256:276,1,90,4|0,0:0|0:0,0:0:0:0:
168,212,140204,1,8,0:0:0:0:
168,212,140292,1,8,0:0:0:0:
168,212,140380,1,8,0:0:0:0:
352,164,140557,1,8,0:0:0:0:
236,80,140733,1,8,0:0:0:0:
244,116,140821,1,8,0:0:0:0:
252,152,140910,1,8,0:0:0:0:
260,188,140998,1,8,0:0:0:0:
268,224,141086,6,0,P|248:280|240:328,1,90,4|0,0:0|0:0,0:0:0:0:
340,288,141439,2,0,P|388:280|436:264,1,90,8|0,0:0|0:0,0:0:0:0:
356,196,141792,2,0,P|332:144|312:112,1,90
228,72,142145,2,0,P|176:60|124:40,1,90,8|0,0:0|0:0,0:0:0:0:
36,100,142498,6,0,P|8:176|12:284,1,180,2|8,0:0|0:0,0:0:0:0:
88,336,143027,2,0,P|136:352|264:336,1,180,2|0,0:0|0:0,0:0:0:0:
272,236,143557,2,0,P|276:184|288:132,1,90,8|0,0:0|0:0,0:0:0:0:
344,60,143910,2,0,P|416:44|496:108,1,180,2|8,0:0|0:0,0:0:0:0:
512,204,144439,1,0,0:0:0:0:
456,284,144616,2,0,P|396:276|356:276,1,90
272,236,144969,2,0,P|300:192|320:152,1,90,8|0,0:0|0:0,0:0:0:0:
248,56,145321,6,0,P|184:100|156:208,1,180,2|8,0:0|0:0,0:0:0:0:
208,288,145851,2,0,P|132:292|52:220,2,180,0|2|0,0:0|0:0|0:0,0:0:0:0:
264,200,146733,1,2,0:0:0:0:
264,200,146910,1,0,0:0:0:0:
296,340,147086,1,8,0:0:0:0:
296,340,147263,1,0,0:0:0:0:
408,248,147439,1,0,0:0:0:0:
408,248,147616,1,0,0:0:0:0:
376,108,147792,1,8,0:0:0:0:
376,108,147969,1,0,0:0:0:0:
264,200,148145,6,0,P|244:152|240:104,1,90,2|0,0:0|0:0,0:0:0:0:
172,216,148498,2,0,P|192:264|196:312,1,90,8|0,0:0|0:0,0:0:0:0:
96,276,148851,1,2,0:0:0:0:
140,124,149027,1,0,0:0:0:0:
52,184,149204,1,8,0:0:0:0:
52,184,149292,1,0,0:0:0:0:
52,184,149380,1,0,0:0:0:0:
52,184,149469,1,0,0:0:0:0:
52,184,149557,6,0,P|104:200|140:220,1,90,0|2,0:0|0:0,0:0:0:0:
236,248,149910,2,0,P|280:244|344:232,1,90,8|2,0:0|0:0,0:0:0:0:
424,208,150263,1,0,0:0:0:0:
336,72,150439,1,0,0:0:0:0:
336,72,150616,2,0,P|292:76|228:88,1,90,8|2,0:0|0:0,0:0:0:0:
148,108,150969,1,0,0:0:0:0:
112,276,151145,2,0,P|160:272|220:256,1,90,2|8,0:0|0:0,0:0:0:0:
300,240,151498,1,0,0:0:0:0:
236,164,151674,1,0,0:0:0:0:
272,344,151851,2,0,P|360:348|424:276,1,180,4|0,1:1|1:1,0:0:0:0:
404,252,152292,1,0,1:1:0:0:
388,216,152380,6,0,L|284:244,1,90,2|0,0:0|0:0,0:0:0:0:
200,236,152733,2,0,P|196:188|188:136,1,90,8|0,0:0|0:0,0:0:0:0:
92,116,153086,2,0,P|96:164|104:216,2,90,0|0|0,0:0|0:0|1:1,0:0:0:0:
160,40,153616,1,0,0:0:0:0:
252,84,153792,2,0,P|300:72|360:52,1,90,2|0,0:0|0:0,0:0:0:0:
432,100,154145,2,0,P|436:148|444:200,1,90,8|0,0:0|0:0,0:0:0:0:
392,276,154498,2,0,L|348:300,1,45,8|0,0:0|1:1,0:0:0:0:
208,344,154851,2,0,P|180:236|168:156,1,180,0|2,1:1|0:0,0:0:0:0:
148,68,155380,5,0,0:0:0:0:
72,136,155557,2,0,P|20:144|-16:156,1,90,8|2,0:0|0:0,0:0:0:0:
48,236,155910,2,0,P|56:280|72:328,1,90
144,252,156263,2,0,P|192:240|248:216,1,90,0|0,1:1|0:0,0:0:0:0:
324,184,156616,1,2,0:0:0:0:
240,128,156792,1,0,0:0:0:0:
152,76,156969,2,0,P|140:140|136:192,1,90,8|2,0:0|0:0,0:0:0:0:
216,288,157321,2,0,P|272:292|308:288,1,90,2|0,0:0|0:0,0:0:0:0:
424,200,157674,6,0,P|412:132|380:24,1,180,0|2,1:1|0:0,0:0:0:0:
280,16,158204,1,0,0:0:0:0:
196,76,158380,2,0,P|204:132|216:180,1,90,8|0,0:0|0:0,0:0:0:0:
288,232,158733,1,2,0:0:0:0:
192,264,158910,1,0,0:0:0:0:
104,220,159086,2,0,P|92:168|88:104,1,90,0|0,1:1|0:0,0:0:0:0:
160,40,159439,5,8,0:0:0:0:
292,44,159616,1,0,0:0:0:0:
176,148,159792,1,8,0:0:0:0:
308,152,159969,1,0,0:0:0:0:
260,328,160145,1,4,0:0:0:0:
240,148,160321,1,4,0:0:0:0:
432,296,160851,6,0,P|344:240|256:240,1,180,4|0,0:0|0:0,0:0:0:0:
176,264,161380,1,0,0:0:0:0:
80,236,161557,2,0,P|72:176|72:140,1,90,8|0,0:0|0:0,0:0:0:0:
196,80,161910,2,0,P|204:140|204:176,1,90,0|0,0:0|0:0,0:0:0:0:
176,264,162263,1,0,0:0:0:0:
256,324,162439,2,0,P|300:352|344:372,2,90
268,224,162969,2,0,P|280:176|284:120,1,90,8|0,0:0|0:0,0:0:0:0:
280,36,163321,1,0,0:0:0:0:
408,104,163498,1,0,0:0:0:0:
280,36,163674,6,0,P|236:44|188:48,1,90,2|0,0:0|0:0,0:0:0:0:
144,56,163939,1,0,0:0:0:0:
144,56,164027,2,0,L|144:120|144:160,1,90
140,248,164380,1,8,0:0:0:0:
232,200,164557,1,2,0:0:0:0:
232,304,164733,1,0,0:0:0:0:
324,256,164910,1,0,0:0:0:0:
320,360,165086,2,0,P|380:348|424:236,1,180,2|8,0:0|0:0,0:0:0:0:
416,148,165616,6,0,P|352:132|288:88,1,135,4|0,0:0|0:0,0:0:0:0:
264,64,165969,2,0,B|188:48|188:48|136:72,1,135,2|0,0:0|0:0,0:0:0:0:
100,92,166321,2,0,B|72:116|72:116|88:160|88:160|44:196|44:256,1,180,4|0,0:0|0:0,0:0:0:0:
140,332,166851,2,0,P|136:284|128:236,1,90,2|0,0:0|0:0,0:0:0:0:
196,168,167204,1,8,0:0:0:0:
332,232,167380,1,0,0:0:0:0:
296,136,167557,1,0,0:0:0:0:
232,260,167733,1,0,0:0:0:0:
432,204,167910,6,0,P|408:300|336:336,1,180
244,348,168439,2,0,P|196:332|144:328,1,90,2|8,0:0|0:0,0:0:0:0:
64,296,168792,2,0,P|48:228|80:120,1,180
232,40,169321,2,0,P|212:88|184:132,1,90,2|0,0:0|0:0,0:0:0:0:
152,216,169674,1,0,0:0:0:0:
212,296,169851,1,0,0:0:0:0:
308,264,170027,2,0,P|356:248|408:240,1,90,8|2,0:0|0:0,0:0:0:0:
436,140,170380,2,0,P|388:156|336:164,1,90,2|2,0:0|0:0,0:0:0:0:
248,172,170733,6,0,P|192:104|104:108,1,180,4|0,0:0|0:0,0:0:0:0:
56,240,171263,1,0,0:0:0:0:
56,240,171439,2,0,P|108:224|156:204,1,90,8|0,0:0|0:0,0:0:0:0:
224,288,171792,1,0,0:0:0:0:
232,116,171969,1,0,0:0:0:0:
232,116,172057,1,0,0:0:0:0:
232,116,172145,6,0,P|280:128|320:152,1,90,4|0,0:0|0:0,0:0:0:0:
316,252,172498,2,0,P|356:232|396:200,1,90,8|0,0:0|0:0,0:0:0:0:
404,104,172851,2,0,P|336:52|232:20,1,180,0|8,0:0|0:0,0:0:0:0:
152,56,173380,2,0,P|132:104|120:156,1,90
224,148,173733,2,0,P|232:196|248:240,1,90,0|8,0:0|0:0,0:0:0:0:
340,196,174086,5,0,0:0:0:0:
340,196,174174,1,0,0:0:0:0:
340,196,174263,1,0,0:0:0:0:
316,316,174439,1,0,0:0:0:0:
168,260,174616,1,8,0:0:0:0:
268,236,174792,1,0,0:0:0:0:
236,344,174969,5,8,0:0:0:0:
112,336,175145,1,0,0:0:0:0:
48,212,175321,1,8,0:0:0:0:
240,192,175498,1,0,0:0:0:0:
120,80,175674,5,8,0:0:0:0:
128,116,175763,1,0,0:0:0:0:
136,152,175851,1,0,0:0:0:0:
144,188,175939,1,0,0:0:0:0:
152,224,176027,1,8,0:0:0:0:
160,260,176116,1,0,0:0:0:0:
168,296,176204,1,0,0:0:0:0:
176,332,176292,1,0,0:0:0:0:
184,368,176380,6,0,P|316:368|408:272,1,270.000010299683,4|0,0:0|0:0,0:0:0:0:
396,72,177439,2,0,L|340:84,3,33.7500012874604
328,88,177792,2,0,P|260:88|200:128,1,135.000005149842,4|0,0:0|0:0,0:0:0:0:
168,188,178321,2,0,B|144:232|76:236|76:236|104:288|104:288|80:336|112:392,1,270.000010299683,2|0,0:0|0:0,0:0:0:0:
184,384,179204,6,0,P|264:384|344:368,1,135.000005149842,4|0,0:0|0:0,0:0:0:0:
356,308,179733,1,0,0:0:0:0:
356,308,179910,2,0,P|340:232|344:168,1,135.000005149842,2|0,0:0|0:0,0:0:0:0:
436,132,180439,1,0,0:0:0:0:
436,132,180616,2,0,P|452:208|448:272,1,135.000005149842,4|0,0:0|0:0,0:0:0:0:
356,308,181145,5,0,3:0:0:0:
264,168,181321,1,0,3:0:0:0:
256,336,181498,1,0,3:0:0:0:
360,208,181674,1,0,3:0:0:0:
200,252,181851,1,0,3:0:0:0:
360,208,182027,6,0,P|348:112|276:64,1,180,4|8,0:0|0:0,0:0:0:0:
172,124,182557,2,0,P|184:220|256:268,1,180,4|8,0:0|0:0,0:0:0:0:
264,168,183086,2,0,L|352:120,2,90,4|0|8,0:0|0:0|0:0,0:0:0:0:
344,224,183616,2,0,L|160:328,1,180,4|8,0:0|0:0,0:0:0:0:
76,276,184145,5,8,0:0:0:0:
76,276,184233,1,0,0:0:0:0:
76,276,184321,1,0,0:0:0:0:
32,104,184498,1,8,0:0:0:0:
104,176,184674,2,0,P|168:168|264:104,1,180,4|0,0:0|0:0,0:0:0:0:
344,24,185204,2,0,P|340:76|348:136,1,90,8|0,0:0|0:0,0:0:0:0:
428,268,185557,2,0,P|432:160|420:80,1,180,10|0,0:0|0:0,0:0:0:0:
352,196,186086,1,0,0:0:0:0:
352,196,186174,1,0,0:0:0:0:
352,196,186263,6,0,P|264:192|176:228,1,180,4|8,0:0|0:0,0:0:0:0:
84,296,186792,1,2,0:0:0:0:
76,260,186880,1,0,0:0:0:0:
68,224,186969,1,2,0:0:0:0:
64,188,187057,1,0,0:0:0:0:
64,152,187145,1,2,0:0:0:0:
72,116,187233,1,0,0:0:0:0:
80,80,187321,2,0,L|124:100,1,45,4|0,0:0|0:0,0:0:0:0:
160,24,187498,2,0,L|204:44,1,45,2|0,0:0|0:0,0:0:0:0:
196,120,187674,6,0,P|244:136|368:68,1,180,4|8,0:0|0:0,0:0:0:0:
476,192,188204,2,0,P|428:176|304:244,1,180,0|0,0:0|0:0,0:0:0:0:
252,304,188733,2,0,P|200:288|152:260,1,90,8|0,0:0|0:0,0:0:0:0:
108,188,189086,1,0,0:0:0:0:
112,88,189263,1,0,0:0:0:0:
208,64,189439,1,8,0:0:0:0:
264,148,189616,1,0,0:0:0:0:
200,224,189792,2,0,L|224:328,1,90,2|0,0:0|0:0,0:0:0:0:
344,352,190145,2,0,P|312:304|296:264,1,90,8|0,0:0|0:0,0:0:0:0:
288,176,190498,6,0,P|212:128|112:160,1,180,4|8,0:0|0:0,0:0:0:0:
40,260,191027,1,0,0:0:0:0:
40,260,191204,2,0,L|128:280,1,90
224,296,191557,1,8,0:0:0:0:
188,204,191733,1,0,0:0:0:0:
244,124,191910,2,0,P|312:80|408:96,1,180,0|8,0:0|0:0,0:0:0:0:
456,180,192439,2,0,L|464:272,1,90
340,328,192792,1,0,0:0:0:0:
340,328,192880,1,0,0:0:0:0:
340,328,192969,2,0,P|344:272|352:228,1,90,8|0,0:0|0:0,0:0:0:0:
364,136,193321,5,4,0:0:0:0:
244,232,193498,1,0,0:0:0:0:
272,48,193674,1,8,0:0:0:0:
352,240,193851,2,0,P|300:324|216:340,1,180,4|8,0:0|0:0,0:0:0:0:
140,284,194380,1,4,0:0:0:0:
244,232,194557,1,0,0:0:0:0:
64,192,194733,1,8,0:0:0:0:
280,136,194910,2,0,P|324:180|320:304,1,180,4|8,0:0|0:0,0:0:0:0:
192,244,195439,5,2,0:0:0:0:
416,176,195792,1,8,0:0:0:0:
268,80,196145,6,0,L|316:260,1,180,4|8,0:0|0:0,0:0:0:0:
120,380,196674,2,0,L|72:200,1,180,4|8,0:0|0:0,0:0:0:0:
164,112,197204,2,0,L|212:292,1,180,4|8,0:0|0:0,0:0:0:0:
440,316,197733,2,0,L|392:136,1,180,4|8,0:0|0:0,0:0:0:0:
220,36,198263,5,8,0:0:0:0:
300,108,198439,1,8,0:0:0:0:
304,144,198527,1,0,0:0:0:0:
296,180,198616,1,0,0:0:0:0:
276,208,198704,1,0,0:0:0:0:
240,216,198792,1,0,0:0:0:0:
204,208,198880,1,0,0:0:0:0:
172,188,198969,6,0,P|144:256|32:272,1,180,4|0,0:0|0:0,0:0:0:0:
76,184,199498,2,0,P|104:116|216:100,1,180,4|0,0:0|0:0,0:0:0:0:
268,168,200027,2,0,P|364:145|392:77,1,180,4|0,0:0|0:0,0:0:0:0:
292,72,200557,1,8,3:3:0:0:
292,72,200733,2,0,P|180:144|228:256,1,270,8|0,3:3|0:0,0:0:0:0:
320,272,201439,6,0,P|360:288|400:316,2,90,4|0|0,0:0|0:0|0:0,0:0:0:0:
220,252,201969,2,0,P|212:156|220:68,1,180,2|0,0:0|0:0,0:0:0:0:
316,52,202498,2,0,P|380:60|500:28,1,180,2|0,0:0|0:0,0:0:0:0:
504,132,203027,1,8,3:3:0:0:
504,132,203204,2,0,P|496:192|496:240,1,90,8|0,3:3|0:0,0:0:0:0:
452,312,203557,2,0,P|400:320|352:320,1,90,2|0,0:0|0:0,0:0:0:0:
264,288,203910,6,0,P|268:192|256:108,1,180,8|0,0:0|0:0,0:0:0:0:
180,52,204439,2,0,P|176:148|188:232,1,180,8|0,0:0|0:0,0:0:0:0:
352,328,204969,2,0,P|356:232|344:148,1,180,8|0,0:0|0:0,0:0:0:0:
288,64,205498,1,2,0:0:0:0:
288,64,205674,2,0,P|232:80|184:88,1,90,0|0,0:0|0:0,0:0:0:0:
124,152,206027,2,0,P|140:200|152:252,1,90,2|0,0:0|0:0,0:0:0:0:
256,192,206380,12,2,208861,0:0:0:0:
144,300,221904,6,0,P|136:248|136:200,1,90,2|0,0:0|0:0,0:0:0:0:
220,156,222426,2,0,P|228:208|228:256,1,90,0|0,0:0|0:0,0:0:0:0:
232,344,222947,2,0,P|304:352|392:292,1,180,0|2,0:0|0:0,0:0:0:0:
368,96,223991,5,0,0:0:0:0:
368,96,224513,2,0,B|324:144|286:124|248:104|196:152,1,180,0|2,0:0|0:0,0:0:0:0:
248,380,226078,2,0,P|272:312|260:200,1,180,0|2,0:0|0:0,0:0:0:0:
164,216,226861,6,0,P|108:204|60:188,2,90
204,124,227643,2,0,P|212:72|228:24,1,90
324,32,228165,2,0,P|376:48|432:56,1,90,2|0,0:0|0:0,0:0:0:0:
500,96,228687,2,0,P|496:172|468:276,1,180
280,328,229730,1,2,0:0:0:0:
300,236,229991,6,0,L|320:144,2,90
204,264,230774,2,0,P|156:272|112:284,1,90
48,212,231295,2,0,P|64:164|76:108,1,90,2|0,0:0|0:0,0:0:0:0:
168,104,231817,2,0,P|204:140|236:164,1,90
256,192,232339,12,2,235469,0:0:0:0:
324,248,235730,6,0,L|440:224,2,90,0|2|0,0:0|0:0|0:0,0:0:0:0:
228,264,236513,2,0,P|232:208|240:168,1,90,2|0,0:0|0:0,0:0:0:0:
332,132,237034,2,0,P|264:76|172:92,1,180,2|2,0:0|0:0,0:0:0:0:
32,284,238600,6,0,P|100:340|192:324,1,180,2|0,0:0|0:0,0:0:0:0:
232,244,239382,2,0,B|240:152|240:152|296:76,1,180,2|2,0:0|0:0,0:0:0:0:
388,68,240165,6,0,P|436:68|480:56,2,90,2|0|2,0:0|0:0|0:0,0:0:0:0:
184,52,241208,1,2,0:0:0:0:
116,252,241730,6,0,P|180:276|220:284,1,90,2|0,0:0|0:0,0:0:0:0:
296,296,242252,1,2,0:0:0:0:
264,204,242513,2,0,P|284:120|272:24,1,180
104,36,243295,6,0,P|136:72|176:104,1,90,2|0,0:0|0:0,0:0:0:0:
172,196,243817,2,0,P|136:244|112:360,1,180,2|0,0:0|0:0,0:0:0:0:
400,344,244861,6,0,P|356:340|304:328,1,90,2|0,0:0|0:0,0:0:0:0:
328,236,245382,1,2,0:0:0:0:
236,264,245643,2,0,P|256:176|336:140,1,180
416,196,246426,5,2,0:0:0:0:
408,292,246687,2,0,P|412:336|424:384,1,90,2|2,0:0|0:0,0:0:0:0:
328,236,247208,2,0,P|248:228|180:148,1,180,2|2,0:0|0:0,0:0:0:0:
120,252,247991,5,4,0:0:0:0:
112,360,248252,1,0,0:0:0:0:
32,300,248513,1,2,0:0:0:0:
120,252,248774,1,0,0:0:0:0:
36,196,249034,1,2,0:0:0:0:
128,148,249295,1,0,0:0:0:0:
40,96,249556,2,0,P|84:56|200:76,1,180,2|0,0:0|0:0,0:0:0:0:
472,288,251121,6,0,P|428:328|312:308,1,180,2|0,0:0|0:0,0:0:0:0:
300,200,251904,2,0,P|344:160|460:180,1,180,2|0,0:0|0:0,0:0:0:0:
388,248,252687,5,2,0:0:0:0:
316,312,252947,1,0,0:0:0:0:
224,280,253208,2,0,P|208:200|120:160,1,180,2|0,0:0|0:0,0:0:0:0:
52,332,254252,5,2,0:0:0:0:
40,236,254513,2,0,L|28:128,1,90,0|2,0:0|0:0,0:0:0:0:
52,44,255034,2,0,P|112:80|224:72,1,180
340,52,255817,6,0,P|280:124|288:232,2,180,2|2|2,0:0|0:0|0:0,0:0:0:0:
392,272,257382,6,0,P|304:316|180:132,1,360,2|0,0:0|0:0,0:0:0:0:
220,48,258687,1,0,0:0:0:0:
304,104,258947,6,0,P|296:152|280:220,1,90,2|0,0:0|0:0,0:0:0:0:
384,152,259469,2,0,P|392:104|408:36,1,90,2|0,0:0|0:0,0:0:0:0:
476,136,259991,2,0,L|480:172,7,22.5
484,192,260513,6,0,P|424:252|344:308,1,180,4|2,0:0|0:0,0:0:0:0:
248,320,261295,1,0,0:0:0:0:
216,224,261556,2,0,P|204:168|200:116,1,90,2|0,0:0|0:0,0:0:0:0:
280,76,262078,2,0,P|292:132|296:184,1,90,2|0,0:0|0:0,0:0:0:0:
308,264,262600,2,0,P|368:268|464:196,1,180,2|2,0:0|0:0,0:0:0:0:
280,76,263643,6,0,P|292:144|292:196,1,90,2|0,0:0|0:0,0:0:0:0:
204,200,264165,2,0,B|124:236|108:188|24:232,2,180,2|2|2,0:0|0:0|0:0,0:0:0:0:
260,280,265469,1,0,0:0:0:0:
344,228,265730,2,0,P|392:216|440:196,1,90,2|0,0:0|0:0,0:0:0:0:
368,128,266252,2,0,P|388:84|400:40,1,90,2|0,0:0|0:0,0:0:0:0:
296,64,266774,6,0,P|228:104|128:96,1,180,2|2,0:0|0:0,0:0:0:0:
56,160,267556,1,0,0:0:0:0:
88,256,267817,1,0,0:0:0:0:
184,228,268078,1,0,0:0:0:0:
156,132,268339,2,0,P|208:136|244:144,1,90,2|0,0:0|0:0,0:0:0:0:
280,236,268861,2,0,P|300:276|328:316,1,90,2|0,0:0|0:0,0:0:0:0:
384,232,269382,2,0,P|392:168|392:120,1,90,2|0,0:0|0:0,0:0:0:0:
300,112,269904,6,0,P|224:52|132:40,2,180,2|2|2,0:0|0:0|0:0,0:0:0:0:
336,204,271208,1,0,0:0:0:0:
256,192,271469,12,2,273034,0:0:0:0:
256,192,273165,12,2,274600,0:0:0:0:
256,192,274730,12,2,276165,0:0:0:0:
256,192,276295,12,4,277720,0:0:0:0:
360,316,289157,5,8,0:0:0:0:
264,280,289345,2,0,P|208:292|156:300,1,90,8|0,0:0|0:0,0:0:0:0:
24,232,289720,6,0,P|116:208|204:196,1,180,4|8,0:0|0:0,0:0:0:0:
300,184,290282,2,0,P|280:136|276:96,1,90
408,68,290657,1,8,0:0:0:0:
408,68,291032,2,0,P|432:112|448:260,1,180,0|2,0:0|0:0,0:0:0:0:
432,280,291501,1,0,0:0:0:0:
396,304,291595,2,0,P|352:312|296:328,1,90,8|2,0:0|0:0,0:0:0:0:
208,340,291970,1,0,0:0:0:0:
124,232,292157,1,0,0:0:0:0:
260,208,292345,1,8,0:0:0:0:
180,152,292532,1,0,0:0:0:0:
324,136,292720,6,0,P|344:192|456:208,1,180,0|8,0:0|0:0,0:0:0:0:
504,100,293282,1,0,0:0:0:0:
404,36,293470,2,0,P|412:92|412:136,1,90,0|8,0:0|0:0,0:0:0:0:
404,328,294032,2,0,P|372:236|320:156,1,180,0|0,0:0|0:0,0:0:0:0:
236,128,294595,2,0,P|192:136|120:140,1,90,8|2,0:0|0:0,0:0:0:0:
36,216,294970,1,8,0:0:0:0:
36,216,295063,1,0,0:0:0:0:
36,216,295157,1,0,0:0:0:0:
156,280,295345,2,0,P|200:272|272:268,1,90,8|8,0:0|0:0,0:0:0:0:
292,260,295626,1,8,0:0:0:0:
328,240,295720,6,0,P|328:180|376:64,1,180,4|8,0:0|0:0,0:0:0:0:
488,144,296282,2,0,P|480:204|456:252,1,90
404,308,296657,1,8,0:0:0:0:
328,240,296845,1,2,0:0:0:0:
228,344,297032,2,0,P|184:256|196:172,1,180
208,136,297501,1,0,0:0:0:0:
204,92,297595,2,0,P|196:40|180:-4,1,90,8|0,0:0|0:0,0:0:0:0:
108,72,297970,1,0,0:0:0:0:
52,244,298157,1,0,0:0:0:0:
112,168,298345,2,0,P|156:180|220:184,1,90,8|0,0:0|0:0,0:0:0:0:
304,180,298720,6,0,P|392:148|492:148,1,180,0|8,0:0|0:0,0:0:0:0:
468,328,299282,2,0,P|432:296|404:252,1,90
504,232,299657,1,8,0:0:0:0:
408,261,299845,1,0,0:0:0:0:
328,200,300032,2,0,P|300:152|260:108,1,90,2|0,0:0|0:0,0:0:0:0:
240,88,300313,1,2,0:0:0:0:
240,88,300407,2,0,B|196:92|196:92|144:88,1,90,2|8,0:0|0:0,0:0:0:0:
44,76,300782,1,2,0:0:0:0:
48,236,300970,1,8,0:0:0:0:
48,236,301063,1,8,0:0:0:0:
48,236,301157,2,0,L|52:336,1,90,8|8,0:0|0:0,0:0:0:0:
168,280,301532,1,8,0:0:0:0:
168,280,301626,1,8,0:0:0:0:
168,280,301720,6,0,P|220:240|264:224,1,90,4|0,0:0|0:0,0:0:0:0:
344,228,302095,1,8,0:0:0:0:
376,132,302282,2,0,P|376:88|372:36,2,90,0|0|8,0:0|0:0|0:0,0:0:0:0:
280,92,302845,1,2,0:0:0:0:
244,188,303032,2,0,P|164:220|60:220,1,180
44,68,303595,2,0,L|144:92,1,90,8|0,0:0|0:0,0:0:0:0:
228,112,303970,1,0,0:0:0:0:
212,248,304157,1,0,0:0:0:0:
340,192,304345,2,0,P|348:252|352:292,1,90,8|0,0:0|0:0,0:0:0:0:
244,180,304720,2,0,P|316:96|388:108,1,180,0|8,0:0|0:0,0:0:0:0:
444,184,305282,2,0,L|416:276,2,90,0|0|8,0:0|0:0|0:0,0:0:0:0:
476,92,305845,1,0,0:0:0:0:
300,112,306032,6,0,P|256:112|204:104,1,90
124,164,306407,1,0,0:0:0:0:
124,164,306501,1,0,0:0:0:0:
124,164,306595,2,0,P|136:216|152:256,1,90,8|0,0:0|0:0,0:0:0:0:
248,332,306970,1,8,0:0:0:0:
284,328,307063,1,0,0:0:0:0:
320,324,307157,1,0,0:0:0:0:
424,180,307345,1,8,0:0:0:0:
388,184,307438,1,0,0:0:0:0:
352,188,307532,1,8,0:0:0:0:
316,192,307626,1,8,0:0:0:0:
280,196,307720,6,0,P|244:104|276:28,1,180,4|8,0:0|0:0,0:0:0:0:
424,100,308282,2,0,L|332:112,1,90
168,128,308657,1,8,0:0:0:0:
104,212,308845,1,2,0:0:0:0:
180,288,309032,2,0,P|212:244|340:240,1,180,0|0,0:0|0:0,0:0:0:0:
368,248,309501,1,0,0:0:0:0:
368,248,309595,1,8,0:0:0:0:
344,152,309782,2,0,P|340:100|336:56,1,90
256,140,310157,1,0,0:0:0:0:
424,116,310345,1,8,0:0:0:0:
264,56,310532,1,0,0:0:0:0:
416,200,310720,6,0,P|368:236|256:168,1,180,0|8,0:0|0:0,0:0:0:0:
172,60,311282,2,0,P|168:104|160:168,1,90
148,248,311657,1,8,0:0:0:0:
360,336,312032,2,0,P|368:292|376:240,1,90,0|2,0:0|0:0,0:0:0:0:
380,204,312313,1,0,0:0:0:0:
380,164,312407,2,0,P|376:100|372:68,1,90,2|8,0:0|0:0,0:0:0:0:
276,40,312782,1,2,0:0:0:0:
248,188,312970,1,8,0:0:0:0:
248,188,313063,1,8,0:0:0:0:
248,188,313157,1,8,0:0:0:0:
132,76,313345,1,8,0:0:0:0:
96,232,313532,1,8,0:0:0:0:
96,232,313626,1,8,0:0:0:0:
96,232,313720,6,0,P|136:312|236:352,1,180,4|8,0:0|0:0,0:0:0:0:
327,374,314282,2,0,P|320:336|304:288,1,90,4|0,0:0|0:0,0:0:0:0:
272,192,314657,1,8,0:0:0:0:
272,192,315032,2,0,P|360:112|432:120,1,180,4|0,0:0|0:0,0:0:0:0:
448,136,315501,1,0,0:0:0:0:
468,168,315595,2,0,P|472:212|484:256,1,90,8|2,0:0|0:0,0:0:0:0:
436,348,315970,1,0,0:0:0:0:
312,296,316157,1,0,0:0:0:0:
380,184,316345,2,0,L|376:88,1,90,8|0,0:0|0:0,0:0:0:0:
384,268,316720,5,4,0:0:0:0:
292,172,316907,1,0,0:0:0:0:
172,224,317095,1,8,0:0:0:0:
292,172,317282,2,0,B|264:232|276:292|276:292|248:308|228:336,1,180,4|8,0:0|0:0,0:0:0:0:
120,328,317845,2,0,P|64:272|144:104,1,270,4|0,0:0|0:0,0:0:0:0:
228,108,318595,2,0,L|212:200,1,90,8|0,0:0|0:0,0:0:0:0:
280,296,318970,1,0,0:0:0:0:
280,296,319063,1,0,0:0:0:0:
280,296,319157,1,0,0:0:0:0:
392,248,319345,2,0,P|368:200|344:160,1,90,8|8,0:0|0:0,0:0:0:0:
332,132,319626,1,8,0:0:0:0:
328,92,319720,6,0,P|332:44|344:0,1,90,4|0,0:0|0:0,0:0:0:0:
448,72,320095,1,8,0:0:0:0:
328,92,320282,2,0,P|272:120|140:120,1,180,4|8,0:0|0:0,0:0:0:0:
68,72,320845,1,0,0:0:0:0:
72,208,321032,2,0,B|80:276|64:348|64:348|88:352|104:336,1,180,4|0,0:0|0:0,0:0:0:0:
196,304,321595,1,8,0:0:0:0:
284,360,321782,1,2,0:0:0:0:
284,360,321876,1,0,0:0:0:0:
284,360,321970,2,0,P|292:304|284:244,1,90
208,208,322345,2,0,P|256:180|316:172,1,90,8|0,0:0|0:0,0:0:0:0:
472,172,322720,6,0,P|432:80|376:20,1,180,4|8,0:0|0:0,0:0:0:0:
264,100,323282,2,0,P|304:192|360:252,1,180,4|8,0:0|0:0,0:0:0:0:
476,300,323845,2,0,L|300:388,1,180,4|0,0:0|0:0,0:0:0:0:
288,372,324313,1,0,0:0:0:0:
260,364,324407,1,0,0:0:0:0:
84,248,324595,6,0,P|124:224|164:188,1,90,8|0,0:0|0:0,0:0:0:0:
252,32,324970,1,8,0:0:0:0:
248,68,325063,1,8,0:0:0:0:
240,104,325157,1,8,0:0:0:0:
320,184,325345,1,8,3:0:0:0:
320,220,325438,1,0,3:3:0:0:
328,256,325532,1,0,0:0:0:0:
340,292,325626,1,0,3:3:0:0:
360,324,325720,6,0,P|316:348|268:360,1,90,4|0,0:0|0:0,0:0:0:0:
132,324,326095,2,0,P|176:300|224:288,1,90,0|0,0:0|0:0,0:0:0:0:
240,196,326470,1,0,0:0:0:0:
240,196,326563,1,0,0:0:0:0:
240,196,326657,1,0,0:0:0:0:
344,80,326845,6,0,L|360:176,1,90,4|0,0:0|0:0,0:0:0:0:
320,268,327220,2,0,L|364:276,2,45
240,196,327595,1,0,0:0:0:0:
204,188,327688,1,0,0:0:0:0:
168,180,327782,1,0,0:0:0:0:
276,112,327970,1,0,0:0:0:0:
284,76,328063,1,0,0:0:0:0:
292,40,328157,1,0,0:0:0:0:
320,212,328345,2,0,L|376:228,2,45
440,200,328720,6,0,B|460:256|460:256|400:284|376:348,1,180,4|0,0:0|0:0,0:0:0:0:
284,376,329282,1,0,0:0:0:0:
196,320,329470,1,0,0:0:0:0:
196,320,329563,1,0,0:0:0:0:
196,320,329657,1,0,0:0:0:0:
328,244,329845,2,0,P|312:200|304:144,1,90,4|0,0:0|0:0,0:0:0:0:
316,56,330220,1,0,0:0:0:0:
316,56,330313,1,0,0:0:0:0:
316,56,330407,1,0,0:0:0:0:
416,168,330595,1,0,0:0:0:0:
416,168,330688,1,0,0:0:0:0:
416,168,330782,1,0,0:0:0:0:
220,152,330970,1,0,0:0:0:0:
184,144,331063,1,0,0:0:0:0:
148,136,331157,1,0,0:0:0:0:
44,208,331345,2,0,P|68:260|88:296,1,90
172,340,331720,6,0,P|236:308|348:300,1,180,4|0,0:0|0:0,0:0:0:0:
436,264,332282,1,0,0:0:0:0:
328,184,332470,1,0,0:0:0:0:
328,184,332563,1,0,0:0:0:0:
328,184,332657,1,0,0:0:0:0:
208,232,332845,2,0,P|104:192|60:132,1,180,4|0,0:0|0:0,0:0:0:0:
72,40,333407,1,0,0:0:0:0:
172,20,333595,2,0,L|180:68,2,45
304,68,333970,2,0,L|258:50,2,45
196,160,334345,2,0,L|233:129,2,45
80,232,334720,6,0,B|124:288|180:296|180:296|188:336|224:368,1,180,4|0,0:0|0:0,0:0:0:0:
284,288,335282,1,0,0:0:0:0:
244,196,335470,2,0,P|260:144|280:108,1,90
460,104,335845,2,0,P|420:180|312:168,1,180,4|0,0:0|0:0,0:0:0:0:
316,8,336407,1,0,0:0:0:0:
364,92,336595,1,0,0:0:0:0:
364,92,336688,1,0,0:0:0:0:
364,92,336782,1,0,0:0:0:0:
172,184,336970,1,0,0:0:0:0:
172,184,337063,1,0,0:0:0:0:
172,184,337157,1,0,0:0:0:0:
320,248,337345,1,0,0:0:0:0:
304,216,337438,1,0,0:0:0:0:
288,184,337532,1,0,0:0:0:0:
272,152,337626,1,0,0:0:0:0:
256,120,337720,6,0,B|216:80|164:72,1,90,4|0,0:0|0:0,0:0:0:0:
84,128,338095,2,0,P|76:176|80:224,1,90,8|0,0:0|0:0,0:0:0:0:
168,276,338470,2,0,P|212:256|260:220,1,90,8|0,0:0|0:0,0:0:0:0:
336,180,338845,1,8,0:0:0:0:
396,260,339032,1,0,0:0:0:0:
456,120,339220,2,0,L|368:80,1,90,8|0,0:0|0:0,0:0:0:0:
244,24,339595,2,0,P|264:56|280:108,1,90,8|0,0:0|0:0,0:0:0:0:
244,204,339970,2,0,L|288:236,2,45,8|0|0,0:0|0:0|0:0,0:0:0:0:
152,240,340345,2,0,P|72:244|28:188,1,135,2|0,0:0|0:0,0:0:0:0:
28,172,340720,6,0,B|28:160|24:140|24:140|52:120|64:92,1,90,4|0,3:3|0:0,0:0:0:0:
140,32,341095,2,0,P|152:88|176:140,1,90,8|0,0:0|0:0,0:0:0:0:
272,144,341470,2,0,P|260:88|236:36,1,90,8|0,0:0|0:0,0:0:0:0:
196,216,341845,2,0,P|112:228|72:312,1,180,8|8,0:0|0:0,0:0:0:0:
152,372,342407,1,0,0:0:0:0:
244,324,342595,2,0,P|216:280|200:236,1,90,8|0,0:0|0:0,0:0:0:0:
304,224,342970,2,0,P|312:160|328:120,1,90,8|0,0:0|0:0,0:0:0:0:
392,32,343345,2,0,B|412:80|412:80|416:128|416:128|436:184,1,135,2|0,0:0|0:0,0:0:0:0:
448,192,343720,6,0,P|468:240|460:296,1,90,4|0,0:0|0:0,0:0:0:0:
376,348,344095,2,0,L|280:336,1,90,8|0,0:0|0:0,0:0:0:0:
184,272,344470,1,8,0:0:0:0:
184,272,344563,1,0,0:0:0:0:
184,272,344657,1,0,0:0:0:0:
272,172,344845,2,0,P|296:212|312:268,1,90,8|0,0:0|0:0,0:0:0:0:
88,212,345220,2,0,L|176:180,1,90,8|0,0:0|0:0,0:0:0:0:
256,72,345595,1,8,0:0:0:0:
256,72,345688,1,0,0:0:0:0:
256,72,345782,1,0,0:0:0:0:
352,168,345970,2,0,P|344:124|340:72,1,90,8|0,0:0|0:0,0:0:0:0:
292,260,346345,2,0,B|268:200|268:156|268:156|252:168|220:172,1,135,4|0,0:0|0:0,0:0:0:0:
208,180,346720,6,0,P|168:196|112:208,1,90,8|0,0:0|0:0,0:0:0:0:
12,144,347095,2,0,P|52:128|108:116,1,90,8|0,0:0|0:0,0:0:0:0:
208,180,347470,2,0,P|196:236|200:288,1,90,8|0,0:0|0:0,0:0:0:0:
308,352,347845,2,0,B|348:328|348:328|372:288,1,90,8|0,0:0|0:0,0:0:0:0:
380,188,348220,1,8,0:0:0:0:
384,152,348313,1,0,0:0:0:0:
388,116,348407,1,0,0:0:0:0:
276,12,348595,2,0,P|256:76|260:164,1,135,8|0,0:0|0:0,0:0:0:0:
264,172,348970,2,0,P|272:232|260:296,1,90,8|0,0:0|0:0,0:0:0:0:
212,348,349345,1,0,0:0:0:0:
176,344,349438,1,0,0:0:0:0:
140,340,349532,1,0,0:0:0:0:
104,336,349626,1,0,0:0:0:0:
68,332,349720,6,0,L|56:240,1,90,6|2,0:0|0:0,0:0:0:0:
136,160,350095,2,0,L|148:252,1,90,0|2,0:0|0:0,0:0:0:0:
236,312,350470,1,10,0:0:0:0:
344,252,350657,1,0,0:0:0:0:
220,168,350845,2,0,P|216:108|228:60,1,90,4|2,0:0|0:0,0:0:0:0:
312,32,351220,2,0,B|356:52|356:52|408:56,2,90,0|2|2,0:0|0:0|0:0,0:0:0:0:
40,148,351970,1,10,0:0:0:0:
28,280,352157,1,2,0:0:0:0:
152,224,352345,2,0,P|232:248|296:320,1,180,2|4,0:0|0:0,0:0:0:0:
388,356,352907,5,2,0:0:0:0:
468,296,353095,2,0,P|464:240|456:188,1,90,0|2,0:0|0:0,0:0:0:0:
404,120,353470,2,0,P|340:104|300:88,1,90,10|0,0:0|0:0,0:0:0:0:
220,80,353845,1,2,0:0:0:0:
136,136,354032,2,0,L|152:232,1,90,2|0,0:0|0:0,0:0:0:0:
172,328,354407,1,2,0:0:0:0:
280,276,354595,2,0,P|356:272|424:256,1,135,2|0,0:0|0:0,0:0:0:0:
432,228,354970,2,0,L|412:140,1,90,10|2,0:0|0:0,0:0:0:0:
328,84,355345,2,0,P|280:88|224:108,1,90,2|0,0:0|0:0,0:0:0:0:
248,200,355720,5,2,0:0:0:0:
88,164,355907,2,0,B|104:92|84:28|84:28|104:44|128:48,1,180,2|2,0:0|0:0,0:0:0:0:
212,72,356470,2,0,B|256:72|300:56|300:56|336:88|384:96,1,180,10|2,0:0|0:0,0:0:0:0:
476,116,357032,2,0,P|456:160|464:220,1,90,2|0,0:0|0:0,0:0:0:0:
388,272,357407,1,2,0:0:0:0:
296,304,357595,2,0,P|208:316|104:288,1,180,8|2,0:0|0:0,0:0:0:0:
56,220,358157,1,2,0:0:0:0:
72,120,358345,1,2,0:0:0:0:
168,96,358532,1,0,0:0:0:0:
244,160,358720,6,0,B|244:216|204:268|204:268|232:284|268:312,2,180,2|0|8,0:0|0:0|0:0,0:0:0:0:
344,120,359657,1,0,0:0:0:0:
420,220,359845,2,0,P|432:180|440:132,1,90,2|2,0:0|0:0,0:0:0:0:
328,216,360220,2,0,P|316:256|308:304,1,90,0|2,0:0|0:0,0:0:0:0:
208,360,360595,1,2,0:0:0:0:
196,324,360688,1,0,0:0:0:0:
184,288,360782,1,0,0:0:0:0:
172,252,360876,1,0,0:0:0:0:
164,220,360972,6,0,P|216:88|388:148,1,360,4|4,0:0|0:0,0:0:0:0:
384,244,362043,2,0,P|432:232|476:188,1,90,4|4,0:0|0:0,0:0:0:0:
256,332,362686,1,4,0:0:0:0:
132,80,363543,5,4,0:0:0:0:
380,80,363972,1,4,0:0:0:0:
256,228,364400,1,4,0:0:0:0:
152,228,365257,5,4,0:0:0:0:
256,144,365472,1,4,0:0:0:0:
360,228,365686,1,4,0:0:0:0:
152,100,366114,5,4,0:0:0:0:
360,100,366543,1,4,0:0:0:0:
360,284,366972,1,4,0:0:0:0:
152,284,367400,1,4,0:0:0:0:
256,196,367829,6,0,L|256:104,1,90,4|0,0:0|0:0,0:0:0:0:
156,156,368257,2,0,P|128:120|104:76,1,90,2|0,0:0|0:0,0:0:0:0:
52,188,368686,2,0,P|20:240|16:368,1,180,2|2,0:0|0:0,0:0:0:0:
124,260,369329,1,0,0:0:0:0:
156,156,369543,2,0,P|144:100|44:16,2,180,2|0|2,0:0|0:0|0:0,0:0:0:0:
232,232,370614,1,0,0:0:0:0:
264,128,370829,2,0,P|300:116|356:100,1,90,2|0,0:0|0:0,0:0:0:0:
476,172,371257,6,0,P|440:184|384:200,1,90,2|0,0:0|0:0,0:0:0:0:
304,320,371686,2,0,P|292:268|284:216,1,90,2|0,0:0|0:0,0:0:0:0:
312,120,372114,2,0,P|252:112|216:112,1,90,2|0,0:0|0:0,0:0:0:0:
112,64,372543,2,0,P|116:108|128:168,1,90,2|0,0:0|0:0,0:0:0:0:
144,260,372972,5,2,0:0:0:0:
228,228,373186,1,2,0:0:0:0:
292,292,373400,1,2,0:0:0:0:
376,260,373614,1,2,0:0:0:0:
320,32,373829,5,2,0:0:0:0:
272,108,374043,1,2,0:0:0:0:
360,128,374257,1,2,0:0:0:0:
312,204,374472,1,2,0:0:0:0:
448,324,374686,6,0,P|400:348|352:364,1,90,2|0,0:0|0:0,0:0:0:0:
260,384,375114,2,0,P|264:328|264:288,1,90,2|0,0:0|0:0,0:0:0:0:
264,188,375543,2,0,P|192:188|108:120,1,180,2|2,0:0|0:0,0:0:0:0:
72,24,376186,1,0,0:0:0:0:
20,196,376400,2,0,L|36:296,1,90,2|0,0:0|0:0,0:0:0:0:
208,288,376829,2,0,P|152:272|96:252,1,90,2|0,0:0|0:0,0:0:0:0:
164,72,377257,2,0,B|124:100|72:100|72:100|104:136|108:192,1,180,2|2,0:0|0:0,0:0:0:0:
424,344,378114,6,0,P|436:288|440:236,1,90,2|0,0:0|0:0,0:0:0:0:
360,184,378543,2,0,P|344:124|328:80,1,90,2|0,0:0|0:0,0:0:0:0:
240,160,378972,2,0,P|216:244|224:340,1,180,2|2,0:0|0:0,0:0:0:0:
352,352,379614,1,0,0:0:0:0:
440,256,379829,2,0,L|340:220,1,90,2|0,0:0|0:0,0:0:0:0:
288,72,380257,2,0,P|272:144|272:184,1,90,2|0,0:0|0:0,0:0:0:0:
264,264,380686,1,2,0:0:0:0:
160,96,380900,1,0,0:0:0:0:
160,96,381007,1,0,0:0:0:0:
160,96,381114,2,0,P|112:84|68:64,1,90,4|0,0:0|0:0,0:0:0:0:
104,244,381543,6,0,P|192:236|272:300,1,180,4|8,0:0|0:0,0:0:0:0:
364,308,382186,1,0,0:0:0:0:
328,216,382400,2,0,P|316:172|312:128,1,90,2|0,0:0|0:0,0:0:0:0:
392,64,382829,2,0,P|404:108|408:152,1,90,8|0,0:0|0:0,0:0:0:0:
228,200,383257,2,0,P|220:112|244:16,2,180,2|8|2,0:0|0:0|0:0,0:0:0:0:
248,300,384329,1,0,0:0:0:0:
152,272,384543,2,0,P|96:276|52:276,1,90,8|0,0:0|0:0,0:0:0:0:
8,168,384972,6,0,P|80:160|196:164,1,180,2|8,0:0|0:0,0:0:0:0:
288,180,385614,1,0,0:0:0:0:
252,84,385829,2,0,P|268:28|292:-12,1,90,8|0,0:0|0:0,0:0:0:0:
352,108,386257,2,0,P|376:160|384:216,1,90,8|0,0:0|0:0,0:0:0:0:
324,336,386686,2,0,P|304:284|180:260,1,180,2|8,0:0|0:0,0:0:0:0:
104,304,387329,1,0,0:0:0:0:
16,192,387543,2,0,P|63:181|120:160,1,90,2|0,0:0|0:0,0:0:0:0:
236,108,387972,2,0,P|188:97|132:76,1,90,8|0,0:0|0:0,0:0:0:0:
332,76,388400,6,0,P|336:128|336:188,1,90,4|0,0:0|0:0,0:0:0:0:
256,280,388829,2,0,P|252:228|252:168,1,90,8|0,0:0|0:0,0:0:0:0:
424,212,389257,2,0,P|384:240|344:256,1,90,4|0,0:0|0:0,0:0:0:0:
164,140,389686,2,0,P|204:112|244:96,1,90,8|0,0:0|0:0,0:0:0:0:
448,68,390114,2,0,B|464:124|464:124|464:188|464:188|480:248,2,180,4|8|2,0:0|0:0|0:0,0:0:0:0:
356,24,391186,1,0,0:0:0:0:
272,80,391400,2,0,P|220:104|180:120,1,90,8|0,0:0|0:0,0:0:0:0:
96,156,391829,5,10,0:0:0:0:
92,288,392043,1,2,0:0:0:0:
92,288,392150,1,2,0:0:0:0:
92,288,392257,1,10,0:0:0:0:
208,356,392472,1,2,0:0:0:0:
208,356,392579,1,2,0:0:0:0:
208,356,392686,1,10,0:0:0:0:
208,220,392900,1,2,0:0:0:0:
208,220,393007,1,2,0:0:0:0:
208,220,393114,1,10,0:0:0:0:
160,304,393329,5,2,0:0:0:0:
160,304,393436,1,2,0:0:0:0:
160,304,393543,1,10,0:0:0:0:
152,136,393757,1,2,0:0:0:0:
152,136,393864,1,2,0:0:0:0:
152,136,393972,1,10,0:0:0:0:
304,212,394186,1,2,0:0:0:0:
304,212,394293,1,2,0:0:0:0:
304,212,394400,1,10,0:0:0:0:
208,220,394614,1,2,0:0:0:0:
208,220,394722,1,2,0:0:0:0:
208,220,394829,1,10,0:0:0:0:
260,112,395043,5,2,0:0:0:0:
260,112,395150,1,2,0:0:0:0:
260,112,395257,1,10,0:0:0:0:
96,220,395472,1,2,0:0:0:0:
96,220,395579,1,2,0:0:0:0:
96,220,395686,1,10,0:0:0:0:
268,312,395900,1,2,0:0:0:0:
268,312,396007,1,2,0:0:0:0:
268,312,396114,1,10,0:0:0:0:
208,220,396329,1,2,0:0:0:0:
208,220,396436,1,2,0:0:0:0:
208,220,396543,1,10,0:0:0:0:
328,208,396757,5,2,0:0:0:0:
328,208,396864,1,2,0:0:0:0:
328,208,396972,1,10,0:0:0:0:
148,324,397186,1,2,0:0:0:0:
148,324,397293,1,2,0:0:0:0:
148,324,397400,1,10,0:0:0:0:
144,112,397614,1,2,0:0:0:0:
144,112,397722,1,2,0:0:0:0:
144,112,397829,1,10,0:0:0:0:
208,220,398043,1,2,0:0:0:0:
208,220,398150,1,2,0:0:0:0:
208,220,398257,1,10,0:0:0:0:
64,192,398472,6,0,P|48:176|36:144,1,45,0|0,0:0|0:0,0:0:0:0:
148,324,398900,2,0,L|172:372,2,30,2|2|2,0:0|0:0|0:0,0:0:0:0:
248,324,399224,6,0,P|256:256|312:272,1,135,0|0,0:0|0:0,0:0:0:0:
352,288,399980,6,0,B|364:216|412:184|412:184|388:152|392:124,1,180,4|0,0:0|0:0,0:0:0:0:
340,40,400542,2,0,P|308:76|288:124,1,90,10|0,0:0|0:0,0:0:0:0:
244,204,400917,2,0,P|200:216|152:220,2,90,2|2|0,0:0|0:0|0:0,0:0:0:0:
184,124,401479,2,0,P|120:128|60:236,1,180,10|2,0:0|0:0,0:0:0:0:
56,256,401948,1,2,0:0:0:0:
56,256,402042,2,0,B|64:304|64:304|92:336,1,90,10|0,0:0|0:0,0:0:0:0:
192,344,402417,1,2,0:0:0:0:
224,248,402604,1,2,0:0:0:0:
324,228,402792,1,8,0:0:0:0:
392,304,402979,6,0,P|440:252|468:132,1,180,4|0,0:0|0:0,0:0:0:0:
352,52,403542,2,0,P|372:128|384:152,1,90,10|0,0:0|0:0,0:0:0:0:
308,244,403917,2,0,P|288:168|276:144,2,90,2|2|0,0:0|0:0|0:0,0:0:0:0:
240,320,404479,2,0,L|64:364,1,180,10|2,0:0|0:0,0:0:0:0:
68,328,404948,1,2,0:0:0:0:
72,292,405042,2,0,L|80:196,1,90,10|0,0:0|0:0,0:0:0:0:
108,104,405417,1,0,1:0:0:0:
108,104,405510,1,0,1:0:0:0:
108,104,405604,1,0,1:0:0:0:
304,48,405792,1,8,0:0:0:0:
220,116,405979,6,0,P|208:188|272:280,1,180,4|0,0:0|0:0,0:0:0:0:
388,292,406542,2,0,P|364:332|348:380,1,90,10|0,0:0|0:0,0:0:0:0:
332,224,406917,2,0,P|332:168|336:132,1,90,2|2,0:0|0:0,0:0:0:0:
344,36,407292,1,0,0:0:0:0:
200,76,407479,2,0,P|136:124|192:220,1,180,10|0,0:0|0:0,0:0:0:0:
332,224,408042,2,0,P|288:184|256:160,1,90,10|0,0:0|0:0,0:0:0:0:
84,264,408417,1,2,0:0:0:0:
248,264,408604,1,2,0:0:0:0:
184,360,408792,1,8,0:0:0:0:
164,184,408979,6,0,P|180:88|200:4,1,180,4|0,0:0|0:0,0:0:0:0:
316,12,409542,2,0,P|364:40|404:68,1,90,10|0,0:0|0:0,0:0:0:0:
340,196,409917,2,0,P|324:144|316:104,2,90,2|2|0,0:0|0:0|0:0,0:0:0:0:
368,300,410479,2,0,B|440:276|448:208|448:208|488:264,1,180,8|2,0:0|0:0,0:0:0:0:
488,289,410948,1,2,0:0:0:0:
488,289,411042,2,0,B|472:317|445:342|411:353,1,90,10|0,0:0|0:0,0:0:0:0:
280,288,411417,1,2,0:0:0:0:
368,192,411604,1,2,0:0:0:0:
236,120,411792,2,0,L|248:172,1,45,0|0,1:0|1:0,0:0:0:0:
228,200,411979,6,0,P|144:232|64:200,1,180,4|0,0:0|0:0,0:0:0:0:
152,56,412542,2,0,P|194:42|244:28,1,90,10|0,0:0|0:0,0:0:0:0:
400,68,412917,2,0,P|357:81|308:96,2,90,2|2|0,0:0|0:0|0:0,0:0:0:0:
236,120,413479,2,0,P|212:188|288:276,1,180,10|0,0:0|0:0,0:0:0:0:
412,156,414042,2,0,P|364:164|312:188,1,90,10|0,0:0|0:0,0:0:0:0:
256,352,414417,2,0,P|304:344|356:320,1,90,2|2,0:0|0:0,0:0:0:0:
396,252,414792,1,8,0:0:0:0:
184,288,414979,6,0,P|180:200|108:144,1,180,4|0,0:0|0:0,0:0:0:0:
64,256,415542,2,0,L|72:368,1,90,10|0,0:0|0:0,0:0:0:0:
116,148,415917,2,0,L|109:58,1,90,4|2,0:0|0:0,0:0:0:0:
256,24,416292,1,8,0:0:0:0:
256,24,416479,2,0,P|336:16|404:92,1,180,4|0,0:0|0:0,0:0:0:0:
424,188,417042,2,0,L|344:248,1,90,8|0,0:0|0:0,0:0:0:0:
324,264,417323,1,0,0:0:0:0:
288,272,417417,1,0,1:0:0:0:
252,272,417510,1,0,0:0:0:0:
220,256,417604,1,0,0:0:0:0:
192,232,417698,1,0,0:0:0:0:
156,224,417792,1,0,1:0:0:0:
120,232,417885,1,0,0:0:0:0:
92,256,417979,6,0,B|64:192|0:168|0:168|32:152|48:120,1,180,4|0,0:0|0:0,0:0:0:0:
136,60,418542,2,0,P|152:100|156:160,1,90,10|0,0:0|0:0,0:0:0:0:
164,304,418917,1,2,0:0:0:0:
268,176,419104,1,2,0:0:0:0:
272,352,419292,1,0,0:0:0:0:
164,192,419479,2,0,P|224:248|328:272,1,180,10|2,0:0|0:0,0:0:0:0:
356,256,419948,1,2,0:0:0:0:
384,228,420042,2,0,P|388:176|396:140,1,90,2|0,0:0|0:0,0:0:0:0:
420,40,420417,1,2,0:0:0:0:
504,168,420604,1,2,0:0:0:0:
420,40,420792,1,8,0:0:0:0:
252,112,420979,6,0,P|300:176|316:288,1,180,4|0,0:0|0:0,0:0:0:0:
164,364,421542,2,0,P|168:312|180:264,1,90,10|0,0:0|0:0,0:0:0:0:
268,364,421917,1,2,0:0:0:0:
268,364,422010,1,2,0:0:0:0:
268,364,422104,1,0,0:0:0:0:
140,260,422292,1,8,0:0:0:0:
384,236,422479,2,0,B|368:176|368:176|376:112|376:112|360:56,1,180,4|0,0:0|0:0,0:0:0:0:
244,40,423042,2,0,P|268:80|308:128,1,90,8|0,0:0|0:0,0:0:0:0:
452,172,423417,2,0,P|468:220|472:268,1,90,8|0,0:0|0:0,0:0:0:0:
316,304,423792,2,0,P|300:256|296:208,1,90,8|0,0:0|0:0,0:0:0:0:
256,192,424209,12,4,425948,0:0:0:0:
256,192,426056,12,4,427687,0:0:0:0:
256,192,427795,12,4,429426,0:0:0:0:
256,192,429535,12,4,430295,0:0:0:0:
256,192,430404,12,4,431165,0:0:0:0:
116,316,438167,6,0,P|128:204|256:228,1,270,4|0,0:0|0:0,0:0:0:0:
356,256,438749,2,0,L|344:148,1,90,8|0,0:0|0:0,0:0:0:0:
328,68,439041,2,0,P|280:52|228:20,1,90,4|0,0:0|0:0,0:0:0:0:
148,20,439332,2,0,B|112:48|112:48|88:88,1,90,0|0,0:0|0:0,0:0:0:0:
68,184,439623,2,0,B|52:212|52:212|76:236|76:276,1,90,8|0,0:0|0:0,0:0:0:0:
124,344,439914,6,0,L|216:328,1,90,2|8,0:0|0:0,0:0:0:0:
280,232,440206,2,0,L|188:248,2,90,0|8|8,0:0|0:0|0:0,0:0:0:0:
376,220,440643,1,0,0:0:0:0:
316,140,440788,2,0,P|360:124|412:132,1,90,2|0,0:0|0:0,0:0:0:0:
472,212,441079,2,0,P|460:272|428:304,1,90,0|0,0:0|0:0,0:0:0:0:
332,304,441371,2,0,P|296:268|280:212,1,90,8|0,0:0|0:0,0:0:0:0:
256,144,441662,6,0,P|220:176|192:224,1,90,2|8,0:0|0:0,0:0:0:0:
128,280,441953,1,0,0:0:0:0:
40,232,442099,1,4,0:0:0:0:
64,136,442244,2,0,L|80:36,1,90,8|0,0:0|0:0,0:0:0:0:
180,44,442536,2,0,P|272:72|336:4,2,180,4|0|8,0:0|0:0|0:0,0:0:0:0:
156,140,443264,1,0,0:0:0:0:
200,228,443410,6,0,P|180:280|172:332,1,90,2|0,0:0|0:0,0:0:0:0:
296,260,443701,2,0,P|316:208|324:156,2,90,0|0|8,0:0|0:0|0:0,0:0:0:0:
272,348,444138,1,0,0:0:0:0:
364,328,444283,2,0,P|396:256|404:224,1,90,2|0,0:0|0:0,0:0:0:0:
404,144,444575,2,0,L|372:36,1,90
296,24,444866,6,0,P|228:64|124:48,1,180,4|8,0:0|0:0,0:0:0:0:
36,80,445302,2,0,P|8:136|12:176,1,90,0|8,0:0|0:0,0:0:0:0:
256,360,445739,1,2,0:0:0:0:
288,96,446031,1,4,0:0:0:0:
172,296,446322,2,0,L|284:284,1,90,8|0,0:0|0:0,0:0:0:0:
296,200,446613,6,0,L|180:212,1,90,4|8,0:0|0:0,0:0:0:0:
112,220,446904,1,0,0:0:0:0:
152,132,447050,1,0,0:0:0:0:
192,44,447196,2,0,P|220:84|252:120,1,90,4|0,0:0|0:0,0:0:0:0:
348,108,447487,2,0,P|392:116|440:172,1,90,2|0,0:0|0:0,0:0:0:0:
448,240,447778,2,0,B|432:264|432:264|452:284|464:332,1,90,4|0,0:0|0:0,0:0:0:0:
376,368,448069,2,0,P|332:364|284:348,1,90,8|0,0:0|0:0,0:0:0:0:
200,304,448361,6,0,P|224:212|84:192,1,270,4|0,0:0|0:0,0:0:0:0:
84,304,448943,2,0,L|167:227,1,90,8|0,0:0|0:0,0:0:0:0:
172,144,449234,2,0,P|180:72|192:44,1,90,8|0,0:0|0:0,0:0:0:0:
280,20,449526,2,0,L|392:-4,1,90
356,100,449817,2,0,L|468:148,1,90,4|0,0:0|0:0,0:0:0:0:
380,216,450108,6,0,L|416:300,1,90,0|8,0:0|0:0,0:0:0:0:
340,360,450399,2,0,P|288:344|236:336,2,90,0|8|8,0:0|0:0|0:0,0:0:0:0:
300,268,450836,1,0,0:0:0:0:
220,220,450982,2,0,P|228:164|252:108,1,90,4|0,0:0|0:0,0:0:0:0:
268,40,451273,2,0,P|212:28|164:0,1,90,4|0,0:0|0:0,0:0:0:0:
88,48,451565,5,4,0:0:0:0:
20,136,451710,1,8,0:0:0:0:
88,48,451856,2,0,P|112:88|128:128,1,90,0|8,0:0|0:0,0:0:0:0:
152,220,452147,2,0,P|224:172|276:164,1,135,0|0,0:0|0:0,0:0:0:0:
320,160,452438,2,0,B|332:204|332:204|336:260,1,90,4|0,0:0|0:0,0:0:0:0:
276,332,452730,2,0,B|264:288|264:288|260:232,1,90,8|0,0:0|0:0,0:0:0:0:
392,148,453021,2,0,B|404:192|404:192|408:248,1,90,8|0,0:0|0:0,0:0:0:0:
248,148,453312,6,0,L|140:136,1,90,4|0,0:0|0:0,0:0:0:0:
68,128,453603,1,8,0:0:0:0:
132,16,453749,1,8,0:0:0:0:
132,16,453822,1,8,0:0:0:0:
132,16,453895,1,8,0:0:0:0:
260,24,454040,1,0,0:0:0:0:
276,56,454113,1,0,0:0:0:0:
300,80,454186,1,8,0:0:0:0:
332,92,454259,1,8,0:0:0:0:
368,92,454331,1,8,0:0:0:0:
404,80,454404,1,8,0:0:0:0:
432,56,454477,2,0,P|448:104|456:156,1,90,4|0,3:3|0:0,0:0:0:0:
400,264,454768,2,0,P|384:216|376:164,1,90,2|0,0:0|0:0,0:0:0:0:
280,152,455060,6,0,P|240:168|192:176,1,90,4|8,0:0|0:0,0:0:0:0:
104,180,455351,2,0,L|112:280,2,90,0|8|0,0:0|0:0|0:0,0:0:0:0:
96,84,455788,1,0,0:0:0:0:
184,40,455933,2,0,P|240:36|296:56,1,90,2|0,0:0|0:0,0:0:0:0:
356,96,456225,2,0,P|376:156|400:192,1,90,2|0,0:0|0:0,0:0:0:0:
460,264,456516,2,0,P|416:320|384:344,1,90,8|0,0:0|0:0,0:0:0:0:
300,360,456807,6,0,L|312:264,1,90,4|8,0:0|0:0,0:0:0:0:
324,180,457098,2,0,L|228:200,2,90,0|0|8,0:0|0:0|0:0,0:0:0:0:
416,164,457535,1,0,0:0:0:0:
352,88,457681,2,0,P|288:56|252:28,1,90,2|0,0:0|0:0,0:0:0:0:
172,44,457972,2,0,B|144:48|144:48|112:60|112:60|84:64,1,90,2|0,0:0|0:0,0:0:0:0:
20,140,458264,6,0,L|-4:188,2,45,12|8|8,0:0|0:0|0:0,0:0:0:0:
96,204,458555,1,0,0:0:0:0:
36,280,458700,2,0,P|72:308|120:332,1,90,0|8,0:0|0:0,0:0:0:0:
144,336,458919,1,8,0:0:0:0:
176,336,458992,1,8,0:0:0:0:
164,228,459137,2,0,L|180:132,1,90,2|0,0:0|0:0,0:0:0:0:
268,96,459429,2,0,L|252:192,1,90,4|0,0:0|0:0,0:0:0:0:
324,256,459720,2,0,L|340:160,1,90,8|0,0:0|0:0,0:0:0:0:
360,68,460011,5,4,0:0:0:0:
464,176,460157,1,8,0:0:0:0:
464,176,460230,1,8,0:0:0:0:
464,176,460302,1,8,0:0:0:0:
448,272,460448,2,0,P|420:312|404:352,2,90,0|0|0,0:0|0:0|0:0,0:0:0:0:
376,208,460885,2,0,P|308:192|256:172,1,90,2|0,0:0|0:0,0:0:0:0:
192,40,461176,2,0,P|212:106|220:161,1,90
140,284,461467,2,0,P|187:233|231:198,1,90,8|0,0:0|0:0,0:0:0:0:
272,280,461759,6,0,P|332:328|364:344,1,90,4|8,0:0|0:0,0:0:0:0:
352,236,462050,2,0,L|344:144,1,90,0|4,0:0|0:0,0:0:0:0:
340,48,462341,2,0,P|296:64|252:96,1,90,8|0,0:0|0:0,0:0:0:0:
200,160,462632,6,0,B|152:152|152:152|96:172,1,90,2|0,0:0|0:0,0:0:0:0:
36,232,462924,2,0,P|32:284|56:328,1,90,8|0,0:0|0:0,0:0:0:0:
132,368,463215,2,0,B|168:352|192:376|224:364,1,90,8|0,0:0|0:0,0:0:0:0:
316,328,463506,2,0,P|316:280|328:216,1,90,4|8,0:0|0:0,0:0:0:0:
356,128,463797,5,8,0:0:0:0:
348,96,463870,1,8,0:0:0:0:
340,64,463943,1,8,0:0:0:0:
228,48,464089,1,8,0:0:0:0:
128,124,464234,1,0,0:0:0:0:
256,192,464380,2,0,P|272:252|272:304,1,90,4|0,0:0|0:0,0:0:0:0:
216,384,464671,2,0,P|200:324|200:276,1,90,8|0,0:0|0:0,0:0:0:0:
168,188,464963,6,0,P|256:103|345:195,1,270,4|8,0:0|0:0,0:0:0:0:
300,272,465545,2,0,L|280:320,3,45,8|8|8|8,0:0|0:0|0:0|0:0,0:0:0:0:
342,365,465836,2,0,L|360:324,3,45,8|8|8|8,0:0|0:0|0:0|0:0,0:0:0:0:
384,248,466128,1,8,0:0:0:0:
320,188,466273,1,4,0:0:0:0:
428,160,466419,6,0,L|416:64,1,90,8|0,0:0|0:0,0:0:0:0:
308,36,466710,2,0,L|340:72,3,45,8|8|8|8,0:0|0:0|0:0|0:0,0:0:0:0:
264,104,467001,2,0,L|232:68,3,45,8|8|8|8,0:0|0:0|0:0|0:0,0:0:0:0:
184,12,467293,2,0,L|128:24,1,45,8|0,0:0|0:0,0:0:0:0:
136,108,467438,2,0,L|96:80,1,45,8|0,0:0|0:0,0:0:0:0:
40,40,467584,2,0,P|16:96|8:128,1,90,8|0,0:0|0:0,0:0:0:0:
8,224,467875,1,8,0:0:0:0:
152,188,468021,1,0,0:0:0:0:
100,376,468166,1,8,0:0:0:0:
388,356,468458,6,0,P|312:208|364:172,1,270,4|8,0:0|0:0,0:0:0:0:
476,256,469040,2,0,L|372:264,1,90
208,276,469331,2,0,P|216:184|224:160,1,90,2|0,0:0|0:0,0:0:0:0:
244,92,469623,2,0,B|288:88|288:88|352:64,1,90,10|0,0:0|0:0,0:0:0:0:
432,72,469914,2,0,P|464:128|476:176,1,90,4|0,0:0|0:0,0:0:0:0:
476,256,470205,6,0,L|368:288,1,90,4|8,0:0|0:0,0:0:0:0:
312,224,470496,2,0,P|300:296|304:340,2,90
296,132,470933,1,8,0:0:0:0:
296,132,471006,1,8,0:0:0:0:
296,132,471079,2,0,P|244:88|216:48,1,90,8|0,0:0|0:0,0:0:0:0:
136,36,471370,2,0,B|76:52|76:52|24:60,1,90,8|0,0:0|0:0,0:0:0:0:
0,148,471662,6,0,P|0:200|4:240,1,90,4|0,0:0|0:0,0:0:0:0:
108,156,471953,1,8,0:0:0:0:
104,252,472098,1,0,0:0:0:0:
100,348,472244,2,0,P|140:344|212:340,1,90,8|0,0:0|0:0,0:0:0:0:
292,336,472535,2,0,P|272:280|268:240,1,90,2|8,0:0|0:0,0:0:0:0:
260,216,472754,1,8,0:0:0:0:
272,184,472827,1,8,0:0:0:0:
300,160,472899,1,8,0:0:0:0:
336,152,472972,1,8,0:0:0:0:
372,160,473045,1,8,0:0:0:0:
400,184,473118,1,8,0:0:0:0:
412,220,473191,1,8,0:0:0:0:
408,256,473263,1,8,0:0:0:0:
392,288,473336,1,8,0:0:0:0:
360,304,473409,6,0,P|312:328|264:340,1,90,4|0,0:0|0:0,0:0:0:0:
176,292,473700,1,8,0:0:0:0:
176,292,473773,1,8,0:0:0:0:
176,292,473846,1,8,0:0:0:0:
148,188,473992,1,8,0:0:0:0:
252,216,474137,1,0,0:0:0:0:
220,112,474283,1,8,0:0:0:0:
324,140,474428,1,0,0:0:0:0:
344,56,474574,2,0,P|300:36|260:28,1,90,8|0,0:0|0:0,0:0:0:0:
252,216,474865,2,0,P|296:236|336:244,1,90,4|0,0:0|0:0,0:0:0:0:
84,268,475157,6,0,P|40:248|0:240,1,90,4|8,0:0|0:0,0:0:0:0:
96,176,475448,2,0,P|140:196|180:204,1,90,0|8,0:0|0:0,0:0:0:0:
216,208,475666,1,8,0:0:0:0:
252,196,475739,1,8,0:0:0:0:
276,168,475812,1,8,0:0:0:0:
284,132,475885,1,8,0:0:0:0:
276,96,475958,1,8,0:0:0:0:
260,64,476030,2,0,P|316:36|372:40,1,90,4|0,0:0|0:0,0:0:0:0:
424,96,476322,2,0,L|440:196,1,90,8|0,0:0|0:0,0:0:0:0:
452,284,476613,5,8,0:0:0:0:
416,288,476686,1,8,0:0:0:0:
380,292,476759,1,8,0:0:0:0:
344,296,476831,1,8,0:0:0:0:
308,300,476904,2,0,P|268:264|244:228,1,90,4|8,0:0|0:0,0:0:0:0:
248,144,477195,1,0,0:0:0:0:
172,92,477341,1,0,0:0:0:0:
84,120,477487,1,8,0:0:0:0:
64,208,477632,1,0,0:0:0:0:
124,284,477778,6,0,L|108:336,2,45,8|0|0,0:0|0:0|0:0,0:0:0:0:
216,264,478069,2,0,P|232:212|240:172,1,90,8|0,0:0|0:0,0:0:0:0:
148,180,478361,2,0,P|164:116|176:84,1,90,8|0,0:0|0:0,0:0:0:0:
264,56,478652,6,0,P|344:40|424:96,1,180,4|8,0:0|0:0,0:0:0:0:
456,184,479214,1,0,0:0:0:0:
368,304,479402,2,0,P|308:316|260:320,1,90
212,188,479777,2,0,P|272:176|320:172,1,90,8|0,0:0|0:0,0:0:0:0:
456,184,480152,1,0,0:0:0:0:
360,76,480339,1,0,0:0:0:0:
268,236,480527,2,0,L|292:340,1,90,8|0,0:0|0:0,0:0:0:0:
152,364,480902,1,2,0:0:0:0:
144,332,480995,1,0,0:0:0:0:
136,300,481089,1,2,0:0:0:0:
128,268,481183,1,0,0:0:0:0:
120,236,481277,1,10,0:0:0:0:
112,204,481370,1,0,0:0:0:0:
104,172,481464,1,0,0:0:0:0:
96,140,481558,1,0,0:0:0:0:
88,108,481652,6,0,P|132:116|184:120,1,90,4|0,0:0|0:0,0:0:0:0:
312,120,482027,2,0,P|288:160|272:212,1,90,8|0,0:0|0:0,0:0:0:0:
284,304,482402,1,0,0:0:0:0:
284,304,482495,1,0,0:0:0:0:
284,304,482589,1,0,0:0:0:0:
376,252,482777,2,0,P|384:300|380:348,1,90,8|0,0:0|0:0,0:0:0:0:
196,348,483152,2,0,P|152:340|96:336,1,90
40,208,483527,1,8,0:0:0:0:
128,96,483714,2,0,P|168:172|160:284,1,180,2|0,0:0|0:0,0:0:0:0:
264,284,484277,2,0,P|308:272|360:248,1,90,8|0,0:0|0:0,0:0:0:0:
424,188,484652,6,0,B|396:152|400:104|400:104|348:96|328:52,1,180,4|8,0:0|0:0,0:0:0:0:
228,48,485214,2,0,P|176:64|64:8,1,180,0|0,0:0|0:0,0:0:0:0:
67,13,485777,2,0,L|88:112,1,90,8|0,0:0|0:0,0:0:0:0:
104,200,486152,2,0,B|176:188|212:224|288:204,1,180,0|8,0:0|0:0,0:0:0:0:
320,108,486714,2,0,P|376:156|360:272,1,180,2|0,0:0|0:0,0:0:0:0:
280,296,487277,1,8,0:0:0:0:
216,136,487464,1,0,0:0:0:0:
184,324,487652,6,0,P|240:380|344:372,1,180,4|8,0:0|0:0,0:0:0:0:
416,284,488214,1,0,0:0:0:0:
416,284,488308,1,0,0:0:0:0:
416,284,488402,2,0,P|412:228|404:172,1,90
216,136,488777,2,0,P|220:192|228:248,1,90,8|0,0:0|0:0,0:0:0:0:
320,128,489152,2,0,P|264:48|188:36,1,180,4|8,0:0|0:0,0:0:0:0:
112,144,489714,2,0,P|168:224|244:236,1,180,4|0,0:0|0:0,0:0:0:0:
340,224,490277,1,6,0:0:0:0:
348,264,490370,1,0,0:0:0:0:
356,304,490464,1,0,0:0:0:0:
364,344,490558,1,0,0:0:0:0:
372,384,490652,6,0,P|316:376|272:376,1,90,4|0,0:0|0:0,0:0:0:0:
184,352,491027,1,8,0:0:0:0:
136,264,491214,2,0,P|136:188|112:88,1,180
48,172,491777,1,8,0:0:0:0:
200,72,491964,2,0,P|212:132|228:176,1,90
248,248,492339,1,0,0:0:0:0:
340,180,492527,1,8,0:0:0:0:
412,272,492714,1,0,0:0:0:0:
412,272,492808,1,0,0:0:0:0:
412,272,492902,1,8,0:0:0:0:
316,344,493089,1,0,0:0:0:0:
340,180,493277,1,8,0:0:0:0:
316,344,493464,1,0,0:0:0:0:
340,180,493652,6,0,P|296:104|208:128,1,180,4|8,0:0|0:0,0:0:0:0:
120,208,494214,1,0,0:0:0:0:
120,208,494308,1,0,0:0:0:0:
120,208,494402,2,0,P|100:164|92:112,1,90
216,216,494777,2,0,P|196:256|180:304,1,90,8|0,0:0|0:0,0:0:0:0:
280,288,495152,1,0,0:0:0:0:
344,212,495339,1,0,0:0:0:0:
440,252,495527,2,0,P|444:204|436:152,1,90,8|0,0:0|0:0,0:0:0:0:
344,56,495902,1,8,0:0:0:0:
344,56,495995,1,0,0:0:0:0:
344,56,496089,1,0,0:0:0:0:
192,152,496277,1,8,0:0:0:0:
344,212,496464,1,0,0:0:0:0:
344,212,496558,1,0,0:0:0:0:
344,212,496652,6,0,P|336:264|316:320,1,90,4|0,0:0|0:0,0:0:0:0:
176,344,497027,2,0,B|168:300|168:300|176:252,1,90,8|0,0:0|0:0,0:0:0:0:
248,136,497402,1,0,0:0:0:0:
248,136,497495,1,0,0:0:0:0:
248,136,497589,2,0,P|248:196|256:232,1,90,0|8,0:0|0:0,0:0:0:0:
332,288,497964,2,0,P|388:304|488:232,1,180,0|2,0:0|0:0,0:0:0:0:
364,128,498527,2,0,P|376:176|392:216,1,90,8|0,0:0|0:0,0:0:0:0:
460,144,498902,2,0,P|448:96|432:56,1,90,0|0,0:0|0:0,0:0:0:0:
336,36,499277,2,0,B|291:51|291:51|244:60,1,90,8|0,0:0|0:0,0:0:0:0:
100,40,499652,6,0,P|36:76|24:184,1,180,4|8,0:0|0:0,0:0:0:0:
152,236,500214,1,0,0:0:0:0:
152,236,500308,1,0,0:0:0:0:
152,236,500402,2,0,P|144:184|116:128,1,90
168,328,500777,1,8,0:0:0:0:
52,216,500964,1,0,0:0:0:0:
236,180,501152,6,0,L|256:272,1,90,4|0,0:0|0:0,0:0:0:0:
308,128,501527,6,0,L|332:240,1,99.0000030212403,4|0,0:0|0:0,0:0:0:0:
380,80,501902,6,0,L|404:192,1,107.999996704102,4|0,0:0|0:0,0:0:0:0:
452,28,502277,6,0,L|480:156,1,116.999994644165,4|0,0:0|0:0,0:0:0:0:
416,324,502652,6,0,P|360:280|244:272,1,180,4|8,0:0|0:0,0:0:0:0:
88,256,503214,2,0,P|128:228|176:180,1,90
232,132,503589,1,0,0:0:0:0:
316,184,503777,1,8,0:0:0:0:
284,52,503964,2,0,P|196:48|132:120,1,180
104,232,504527,2,0,P|152:260|188:276,1,90,8|0,0:0|0:0,0:0:0:0:
285,281,504902,1,0,0:0:0:0:
313,106,505089,1,0,0:0:0:0:
394,264,505277,1,8,0:0:0:0:
236,184,505464,1,0,0:0:0:0:
411,156,505652,6,0,P|404:56|348:4,1,180,4|8,0:0|0:0,0:0:0:0:
248,24,506214,1,0,0:0:0:0:
220,120,506402,2,0,P|220:184|228:232,1,90
324,284,506777,2,0,P|324:220|316:172,1,90,8|0,0:0|0:0,0:0:0:0:
128,184,507152,2,0,B|128:200|120:212|120:212|144:244|144:244|96:284|108:360,1,180,2|8,0:0|0:0,0:0:0:0:
208,324,507714,1,0,0:0:0:0:
208,324,507808,1,0,0:0:0:0:
208,324,507902,1,8,0:0:0:0:
328,240,508089,1,0,0:0:0:0:
176,156,508277,1,8,0:0:0:0:
176,156,508370,2,0,P|208:140|232:132,1,45
396,80,508652,6,0,B|408:132|408:132|408:204|408:204|424:260,1,180,4|8,0:0|0:0,0:0:0:0:
328,336,509214,1,0,0:0:0:0:
224,264,509402,2,0,P|184:272|120:276,1,90
96,276,509683,1,0,0:0:0:0:
96,276,509777,1,8,0:0:0:0:
64,112,509964,1,0,0:0:0:0:
136,192,510152,2,0,B|216:144|228:196|304:140,1,180,0|8,0:0|0:0,0:0:0:0:
276,8,510714,1,0,0:0:0:0:
276,8,510808,1,0,0:0:0:0:
276,8,510902,2,0,P|244:48|232:104,1,90
360,220,511277,2,0,P|392:180|404:124,1,90,8|0,0:0|0:0,0:0:0:0:
272,212,511652,6,0,P|288:272|400:300,1,180,4|8,0:0|0:0,0:0:0:0:
456,224,512214,1,0,0:0:0:0:
408,132,512402,2,0,P|400:80|400:40,1,90
304,128,512777,2,0,P|272:88|252:48,1,90,8|0,0:0|0:0,0:0:0:0:
224,192,513152,2,0,P|176:184|56:108,1,180,2|8,0:0|0:0,0:0:0:0:
20,220,513714,2,0,L|28:292,1,45,0|0,0:0|0:0,0:0:0:0:
52,292,513902,1,2,0:0:0:0:
76,312,513995,1,0,0:0:0:0:
104,324,514089,1,2,0:0:0:0:
136,324,514183,1,0,0:0:0:0:
164,312,514277,1,10,0:0:0:0:
192,296,514370,1,0,0:0:0:0:
224,292,514464,1,2,0:0:0:0:
256,300,514558,1,0,0:0:0:0:
280,320,514652,6,0,P|252:260|248:224,1,90,4|2,0:0|0:0,0:0:0:0:
352,256,515027,2,0,P|384:208|416:180,1,90,2|0,0:0|0:0,0:0:0:0:
488,112,515402,2,0,P|424:36|340:28,1,180,10|0,0:0|0:0,0:0:0:0:
268,88,515964,1,0,0:0:0:0:
120,40,516152,1,2,0:0:0:0:
120,40,516339,1,2,0:0:0:0:
132,144,516527,2,0,L|152:256,1,90,8|0,0:0|0:0,0:0:0:0:
200,348,516902,2,0,P|152:340|100:324,1,90,2|2,0:0|0:0,0:0:0:0:
244,264,517277,2,0,P|292:272|344:288,1,90,8|0,0:0|0:0,0:0:0:0:
424,228,517652,6,0,P|368:188|384:76,2,180,4|8|2,0:0|0:0|0:0,0:0:0:0:
444,144,518589,1,0,0:0:0:0:
436,316,518777,2,0,P|424:268|424:228,1,90,8|0,0:0|0:0,0:0:0:0:
376,84,519152,2,0,P|324:100|272:108,1,90,2|0,0:0|0:0,0:0:0:0:
168,60,519527,2,0,P|180:96|188:156,1,90,8|0,0:0|0:0,0:0:0:0:
112,216,519902,2,0,P|100:300|160:368,1,180,2|8,0:0|0:0,0:0:0:0:
420,268,520652,6,0,L|316:300,1,90,4|0,0:0|0:0,0:0:0:0:
352,200,521027,2,0,L|248:232,1,90,8|0,0:0|0:0,0:0:0:0:
184,168,521402,2,0,P|172:116|256:28,1,180,2|8,0:0|0:0,0:0:0:0:
368,112,521964,1,0,0:0:0:0:
368,112,522152,2,0,P|356:160|352:208,1,90,2|0,0:0|0:0,0:0:0:0:
244,320,522527,2,0,P|256:272|260:224,1,90,8|0,0:0|0:0,0:0:0:0:
164,56,522902,2,0,P|140:136|128:232,1,180,2|8,0:0|0:0,0:0:0:0:
128,332,523464,1,0,0:0:0:0:
328,372,523652,6,0,P|312:308|296:272,1,90,4|0,0:0|0:0,0:0:0:0:
356,164,524027,2,0,P|312:108|284:84,1,90,8|0,0:0|0:0,0:0:0:0:
212,48,524402,1,0,0:0:0:0:
40,116,524589,1,0,0:0:0:0:
200,152,524777,1,8,0:0:0:0:
40,116,524964,1,2,0:0:0:0:
124,88,525152,2,0,P|120:148|120:200,1,90,2|0,0:0|0:0,0:0:0:0:
260,296,525527,2,0,P|264:236|264:184,1,90,8|2,0:0|0:0,0:0:0:0:
264,164,525808,1,0,0:0:0:0:
272,124,525902,1,2,0:0:0:0:
304,100,525995,1,0,0:0:0:0:
344,92,526089,1,2,0:0:0:0:
380,108,526183,1,0,0:0:0:0:
404,140,526277,2,0,L|416:184,1,45,10|0,0:0|0:0,0:0:0:0:
348,212,526464,2,0,L|336:168,1,45,2|0,0:0|0:0,0:0:0:0:
264,164,526652,6,0,P|164:180|108:120,1,180,4|8,0:0|0:0,0:0:0:0:
200,92,527214,1,0,0:0:0:0:
264,260,527402,2,0,P|312:244|348:192,1,90,2|2,0:0|0:0,0:0:0:0:
328,72,527777,1,8,0:0:0:0:
172,192,527964,1,0,0:0:0:0:
172,192,528152,2,0,P|160:248|160:304,1,90
240,352,528527,5,10,0:0:0:0:
272,348,528620,1,0,0:0:0:0:
304,344,528714,1,2,0:0:0:0:
336,340,528808,1,0,0:0:0:0:
380,328,528902,5,2,0:0:0:0:
396,292,528995,1,0,0:0:0:0:
408,252,529089,1,2,0:0:0:0:
420,212,529183,1,0,0:0:0:0:
432,172,529277,6,0,L|472:192,1,45,10|0,0:0|0:0,0:0:0:0:
320,256,529464,2,0,L|280:236,1,45,2|0,0:0|0:0,0:0:0:0:
272,76,529652,6,0,P|184:64|104:128,1,180,4|8,0:0|0:0,0:0:0:0:
212,168,530214,1,0,0:0:0:0:
48,232,530402,2,0,P|32:288|36:336,1,90
132,208,530777,2,0,P|108:168|72:136,1,90,8|0,0:0|0:0,0:0:0:0:
116,304,531152,2,0,P|168:344|284:336,1,180,0|8,0:0|0:0,0:0:0:0:
332,252,531714,1,0,0:0:0:0:
332,252,531808,1,0,0:0:0:0:
332,252,531902,2,0,P|312:200|312:152,1,90,2|0,0:0|0:0,0:0:0:0:
332,68,532277,1,8,0:0:0:0:
416,228,532464,1,0,0:0:0:0:
216,192,532652,6,0,P|168:164|128:152,1,90,4|0,0:0|0:0,0:0:0:0:
36,132,533027,1,8,0:0:0:0:
104,56,533214,1,2,0:0:0:0:
64,228,533402,2,0,B|76:276|64:320|64:320|108:328|136:368,1,180,2|8,0:0|0:0,0:0:0:0:
228,332,533964,1,0,0:0:0:0:
208,236,534152,2,0,P|200:164|204:136,1,90
352,96,534527,2,0,P|336:140|316:180,1,90,8|0,0:0|0:0,0:0:0:0:
348,288,534902,1,0,0:0:0:0:
348,288,534995,1,0,0:0:0:0:
348,288,535089,1,0,0:0:0:0:
420,216,535277,1,8,0:0:0:0:
248,120,535464,1,0,0:0:0:0:
420,216,535652,6,0,B|432:156|432:156|484:116|472:48,1,180,4|8,0:0|0:0,0:0:0:0:
300,28,536214,1,0,0:0:0:0:
300,28,536308,1,0,0:0:0:0:
300,28,536402,2,0,P|344:56|392:80,1,90
248,120,536777,2,0,P|204:92|156:68,1,90,8|0,0:0|0:0,0:0:0:0:
48,184,537152,2,0,P|128:236|212:280,1,180,2|8,0:0|0:0,0:0:0:0:
320,292,537714,1,0,0:0:0:0:
316,256,537808,1,0,0:0:0:0:
312,220,537902,1,0,0:0:0:0:
308,184,537995,1,0,0:0:0:0:
304,148,538089,1,0,0:0:0:0:
456,32,538277,2,0,L|424:136,1,90,8|0,0:0|0:0,0:0:0:0:
304,148,538652,6,0,P|216:144|160:216,1,180,4|8,0:0|0:0,0:0:0:0:
272,328,539214,1,0,0:0:0:0:
272,328,539308,1,0,0:0:0:0:
272,328,539402,2,0,L|364:328,1,90,0|2,0:0|0:0,0:0:0:0:
464,216,539777,2,0,P|408:228|356:244,1,90,8|2,0:0|0:0,0:0:0:0:
276,232,540152,2,0,P|236:152|292:80,1,180,4|8,0:0|0:0,0:0:0:0:
416,32,540714,1,2,0:0:0:0:
420,68,540808,1,0,0:0:0:0:
424,104,540902,1,2,0:0:0:0:
428,140,540995,1,0,0:0:0:0:
432,176,541089,1,2,0:0:0:0:
436,212,541183,1,0,0:0:0:0:
440,248,541277,2,0,L|384:272,1,45,10|0,0:0|0:0,0:0:0:0:
350,327,541464,2,0,L|312:304,1,45,2|0,0:0|0:0,0:0:0:0:
328,224,541652,6,0,P|264:240|240:344,1,180,4|8,0:0|0:0,0:0:0:0:
416,240,542214,1,0,0:0:0:0:
416,240,542308,1,0,0:0:0:0:
416,240,542402,2,0,P|404:184|376:148,1,90,2|0,0:0|0:0,0:0:0:0:
244,208,542777,2,0,P|256:264|284:300,1,90,8|0,0:0|0:0,0:0:0:0:
328,224,543152,1,0,0:0:0:0:
304,96,543339,1,0,0:0:0:0:
388,112,543527,1,8,0:0:0:0:
244,208,543714,1,0,0:0:0:0:
408,192,543902,1,2,0:0:0:0:
228,128,544089,1,0,0:0:0:0:
468,128,544277,2,0,P|480:176|492:236,1,90,8|0,0:0|0:0,0:0:0:0:
356,344,544652,6,0,P|336:280|316:160,1,180,4|8,0:0|0:0,0:0:0:0:
268,56,545214,1,0,0:0:0:0:
268,56,545308,1,0,0:0:0:0:
268,56,545402,2,0,P|224:64|168:72,1,90
72,24,545777,2,0,P|92:80|100:120,1,90,8|2,0:0|0:0,0:0:0:0:
20,220,546152,2,0,P|104:220|128:316,1,180,0|8,0:0|0:0,0:0:0:0:
272,348,546714,1,0,0:0:0:0:
272,348,546808,1,0,0:0:0:0:
272,348,546902,2,0,L|240:260,1,90
208,168,547277,1,8,0:0:0:0:
412,104,547464,1,0,0:0:0:0:
412,104,547558,1,0,0:0:0:0:
412,104,547652,6,0,P|384:168|280:144,1,180,4|0,0:0|0:0,0:0:0:0:
220,80,548214,2,0,P|144:100|184:252,1,270,0|2,0:0|0:0,0:0:0:0:
396,244,548964,1,8,0:0:0:0:
396,244,549058,1,0,0:0:0:0:
396,244,549152,2,0,P|312:252|288:248,1,90,12|0,0:0|0:0,0:0:0:0:
116,140,549527,2,0,P|200:132|224:136,1,90,2|0,0:0|0:0,0:0:0:0:
344,144,549902,2,0,P|344:100|336:40,1,90,0|8,0:0|0:0,0:0:0:0:
168,240,550277,2,0,P|168:284|176:344,1,90,8|0,0:0|0:0,0:0:0:0:
256,192,550652,12,4,552152,0:0:0:0:
256,192,552245,12,4,553652,0:0:0:0:
256,192,553745,12,2,555152,0:0:0:0:
256,192,555245,12,2,556656,0:0:0:0:
100,328,575031,6,0,P|80:256|80:232,1,90
104,144,575406,2,0,P|148:128|184:104,1,90
264,48,575781,2,0,P|344:76|380:160,1,180,0|2,0:0|0:0,0:0:0:0:
344,256,576343,1,0,0:0:0:0:
252,296,576531,2,0,P|252:248|260:200,1,90,2|0,0:0|0:0,0:0:0:0:
444,244,576906,1,2,0:0:0:0:
444,244,577281,6,0,L|432:340,1,90
252,296,577656,2,0,B|296:296|296:296|344:316,1,90
288,212,578031,2,0,P|248:160|280:48,1,180,2|2,0:0|0:0,0:0:0:0:
372,24,578593,1,0,0:0:0:0:
348,128,578781,1,0,0:0:0:0:
448,100,578968,1,0,0:0:0:0:
272,56,579156,6,0,P|204:60|104:0,1,180,2|0,0:0|0:0,0:0:0:0:
8,40,579718,1,0,0:0:0:0:
128,116,579906,2,0,P|116:168|112:212,1,90
224,324,580281,2,0,P|280:288|280:184,1,180,2|2,0:0|0:0,0:0:0:0:
200,232,580843,1,0,0:0:0:0:
224,100,581031,1,0,0:0:0:0:
200,232,581218,1,0,0:0:0:0:
224,100,581406,6,0,P|272:92|332:68,1,90,2|0,0:0|0:0,0:0:0:0:
312,176,581781,2,0,P|352:196|400:208,1,90,0|2,0:0|0:0,0:0:0:0:
496,224,582156,1,0,0:0:0:0:
432,304,582343,1,0,0:0:0:0:
332,284,582531,2,0,P|288:268|232:236,1,90,2|0,0:0|0:0,0:0:0:0:
220,156,582906,2,0,P|208:76|284:8,1,180,2|2,0:0|0:0,0:0:0:0:
304,104,583468,1,0,0:0:0:0:
484,72,583656,6,0,P|472:112|464:168,1,90,2|0,0:0|0:0,0:0:0:0:
396,288,584031,2,0,P|352:276|296:268,1,90,2|0,0:0|0:0,0:0:0:0:
220,156,584406,2,0,P|264:168|320:176,1,90,2|0,0:0|0:0,0:0:0:0:
416,172,584781,2,0,B|380:88|380:88|288:36,1,180,2|2,0:0|0:0,0:0:0:0:
208,28,585343,1,0,0:0:0:0:
140,100,585531,1,2,0:0:0:0:
236,116,585718,1,0,0:0:0:0:
172,192,585906,6,0,P|156:236|144:288,1,90,2|0,0:0|0:0,0:0:0:0:
124,372,586281,1,2,0:0:0:0:
376,352,586656,2,0,P|360:308|332:256,1,90,2|0,0:0|0:0,0:0:0:0:
304,176,587031,2,0,P|348:152|384:128,1,90,2|0,0:0|0:0,0:0:0:0:
304,64,587406,2,0,P|240:104|140:128,1,180,0|2,0:0|0:0,0:0:0:0:
24,148,587968,1,0,0:0:0:0:
96,240,588156,2,0,P|144:240|216:224,1,90,2|0,0:0|0:0,0:0:0:0:
280,196,588531,6,0,P|328:176|380:136,1,90,2|0,0:0|0:0,0:0:0:0:
448,220,588906,2,0,P|444:268|444:324,1,90,2|0,0:0|0:0,0:0:0:0:
344,352,589281,2,0,P|280:324|160:328,1,180,2|0,0:0|0:0,0:0:0:0:
172,324,590406,2,0,P|156:284|152:220,1,90,2|0,0:0|0:0,0:0:0:0:
232,168,590781,2,0,P|316:216|416:212,1,180,2|0,0:0|0:0,0:0:0:0:
472,144,591343,1,0,0:0:0:0:
372,24,591531,6,0,P|372:88|376:132,1,90,2|0,0:0|0:0,0:0:0:0:
400,308,591906,2,0,P|400:244|396:200,1,90,2|0,0:0|0:0,0:0:0:0:
376,116,592281,1,0,0:0:0:0:
312,260,592468,1,0,0:0:0:0:
252,56,592656,6,0,B|192:64|192:64|136:88|136:88|76:96,1,180,4|2,0:0|0:0,0:0:0:0:
12,180,593218,1,0,0:0:0:0:
72,268,593406,2,0,P|116:264|172:256,1,90
264,232,593781,2,0,P|244:132|256:48,2,180,2|0|2,0:0|0:0|0:0,0:0:0:0:
440,196,594718,1,2,0:0:0:0:
352,280,594906,2,0,P|344:328|356:392,1,90,2|0,0:0|0:0,0:0:0:0:
440,196,595281,6,0,P|404:164|372:132,1,90
272,96,595656,2,0,P|236:72|192:52,1,90,2|0,0:0|0:0,0:0:0:0:
60,128,596031,2,0,P|92:208|184:220,1,180,2|0,0:0|0:0,0:0:0:0:
156,128,596593,1,0,0:0:0:0:
40,288,596781,1,0,0:0:0:0:
128,356,596968,1,0,0:0:0:0:
272,248,597156,2,0,P|243:253|183:265,1,90,2|0,0:0|0:0,0:0:0:0:
120,192,597531,6,0,P|112:144|104:88,1,90
208,148,597906,2,0,P|200:100|192:44,1,90,0|2,0:0|0:0,0:0:0:0:
376,36,598281,2,0,P|332:48|268:56,1,90,2|0,0:0|0:0,0:0:0:0:
108,24,598656,2,0,P|56:40|8:72,1,90
80,228,599031,2,0,P|92:172|96:128,1,90
200,40,599406,6,0,P|252:64|268:184,1,180,2|0,0:0|0:0,0:0:0:0:
196,284,599968,1,0,0:0:0:0:
80,228,600156,2,0,P|92:168|116:124,1,90
248,108,600531,2,0,P|356:84|392:12,2,180,2|0|0,0:0|0:0|0:0,0:0:0:0:
284,12,601468,1,0,0:0:0:0:
424,156,601656,6,0,P|428:208|424:264,1,90,2|0,0:0|0:0,0:0:0:0:
152,288,602031,2,0,P|208:180|336:208,1,270
288,356,602781,2,0,P|268:308|252:260,1,90,2|0,0:0|0:0,0:0:0:0:
360,288,603156,2,0,P|304:180|176:208,1,270
80,260,603906,6,0,P|64:168|80:80,1,180,2|2,0:0|0:0,0:0:0:0:
168,24,604468,1,0,0:0:0:0:
276,40,604656,2,0,L|364:68,1,90
464,100,605031,2,0,P|428:144|408:176,1,90,2|0,0:0|0:0,0:0:0:0:
344,288,605406,2,0,P|324:248|304:184,1,90,2|0,0:0|0:0,0:0:0:0:
296,96,605781,1,2,0:0:0:0:
208,228,605968,1,0,0:0:0:0:
184,20,606156,6,0,P|184:76|188:124,1,90,2|0,0:0|0:0,0:0:0:0:
208,228,606531,2,0,P|164:216|112:208,1,90,2|0,0:0|0:0,0:0:0:0:
260,160,606906,2,0,P|304:148|356:140,1,90,2|0,0:0|0:0,0:0:0:0:
484,192,607281,2,0,P|440:204|388:212,1,90,0|0,0:0|0:0,0:0:0:0:
280,304,607656,2,0,P|324:292|376:284,1,90,2|0,0:0|0:0,0:0:0:0:
488,112,608031,2,0,P|444:124|392:132,1,90,2|0,0:0|0:0,0:0:0:0:
256,132,608406,6,0,P|272:76|360:-4,1,180,2|2,0:0|0:0,0:0:0:0:
464,24,608968,1,0,0:0:0:0:
496,200,609156,2,0,P|440:184|408:168,1,90
256,132,609531,2,0,P|308:112|352:88,1,90,2|0,0:0|0:0,0:0:0:0:
352,240,609906,2,0,L|368:336,1,90,2|0,0:0|0:0,0:0:0:0:
256,228,610281,2,0,L|272:324,1,90,2|0,0:0|0:0,0:0:0:0:
168,176,610656,6,0,P|168:92|252:36,1,180,4|2,0:0|0:0,0:0:0:0:
344,152,611218,2,0,P|288:144|240:124,2,90,0|0|0,0:0|0:0|0:0,0:0:0:0:
452,156,611781,1,2,0:0:0:0:
392,248,611968,1,0,0:0:0:0:
256,132,612156,2,0,P|260:184|268:228,1,90,2|0,0:0|0:0,0:0:0:0:
312,320,612531,2,0,P|252:336|200:344,1,90
116,332,612906,5,2,0:0:0:0:
176,240,613093,1,0,0:0:0:0:
48,116,613281,2,0,P|52:172|68:232,1,90,2|0,0:0|0:0,0:0:0:0:
148,144,613656,2,0,P|200:132|240:116,1,90
336,80,614031,2,0,P|416:112|432:208,2,180,2|2|2,0:0|0:0|0:0,0:0:0:0:
220,104,614968,1,0,0:0:0:0:
336,180,615156,6,0,P|340:224|352:284,1,90,2|0,0:0|0:0,0:0:0:0:
232,192,615531,2,0,P|228:148|216:88,1,90,2|0,0:0|0:0,0:0:0:0:
324,80,615906,2,0,P|368:64|420:40,1,90,2|0,0:0|0:0,0:0:0:0:
464,144,616281,2,0,B|456:224|492:240|488:324,2,180,2|0|2,0:0|0:0|0:0,0:0:0:0:
360,172,617218,1,0,0:0:0:0:
388,296,617406,6,0,P|312:312|220:368,1,180,2|0,0:0|0:0,0:0:0:0:
120,344,617968,1,0,0:0:0:0:
68,248,618156,2,0,P|88:208|108:160,1,90,2|0,0:0|0:0,0:0:0:0:
164,32,618531,2,0,P|184:120|192:240,2,180,2|0|0,0:0|0:0|0:0,0:0:0:0:
268,60,619468,1,0,0:0:0:0:
296,164,619656,6,0,P|372:208|472:176,1,180,2|2,0:0|0:0,0:0:0:0:
388,80,620218,1,0,0:0:0:0:
296,164,620406,2,0,P|288:216|276:276,1,90
136,264,620781,2,0,P|148:176|176:80,2,180,2|2|0,0:0|0:0|0:0,0:0:0:0:
180,360,621718,1,0,0:0:0:0:
276,312,621906,6,0,L|380:328,1,90,2|0,0:0|0:0,0:0:0:0:
464,248,622281,2,0,L|360:232,1,90,2|0,0:0|0:0,0:0:0:0:
272,192,622656,2,0,P|280:144|284:92,1,90
232,8,623031,2,0,P|152:52|68:32,2,180,2|2|2,0:0|0:0|0:0,0:0:0:0:
284,104,623968,1,0,0:0:0:0:
120,144,624156,6,0,P|108:184|104:252,1,90,2|0,0:0|0:0,0:0:0:0:
212,220,624531,2,0,P|216:276|228:332,1,90,2|0,0:0|0:0,0:0:0:0:
300,164,624906,2,0,P|296:108|284:52,1,90,2|0,0:0|0:0,0:0:0:0:
360,240,625281,1,2,0:0:0:0:
416,128,625468,1,0,0:0:0:0:
300,164,625656,2,0,P|200:164|120:108,2,180,2|2|4,0:0|0:0|3:3,0:0:0:0:
416,128,626593,6,0,L|432:236,1,90,4|0,3:3|0:0,0:0:0:0:
444,324,626968,1,4,3:3:0:0:
304,288,627156,1,0,0:0:0:0:
432,220,627343,1,4,3:3:0:0:
292,184,627531,2,0,P|192:168|112:144,1,180,4|2,3:3|0:0,0:0:0:0:
16,108,628093,1,2,0:0:0:0:
180,64,628281,1,2,0:0:0:0:
84,32,628468,1,2,0:0:0:0:
64,196,628656,6,0,P|24:252|24:364,1,180,4|0,0:0|0:0,0:0:0:0:
164,312,629218,1,0,0:0:0:0:
176,204,629406,2,0,P|160:156|156:112,1,90,8|0,0:0|0:0,0:0:0:0:
232,36,629781,2,0,P|320:52|400:0,1,180,8|2,0:0|0:0,0:0:0:0:
488,144,630343,2,0,L|384:116,2,90
316,160,630906,6,0,P|328:204|344:272,1,90,2|0,0:0|0:0,0:0:0:0:
360,352,631281,1,2,0:0:0:0:
440,280,631468,1,2,0:0:0:0:
316,160,631656,2,0,P|256:200|144:192,1,180,2|8,0:0|0:0,0:0:0:0:
216,104,632218,1,0,0:0:0:0:
64,48,632406,2,0,L|80:156,1,90,2|0,0:0|0:0,0:0:0:0:
88,244,632781,1,0,0:0:0:0:
104,348,632968,1,0,0:0:0:0:
200,188,633156,6,0,P|196:232|188:300,1,90,2|0,0:0|0:0,0:0:0:0:
296,244,633531,2,0,P|340:236|396:224,1,90
296,136,633906,2,0,P|264:92|228:56,1,90,2|0,0:0|0:0,0:0:0:0:
96,32,634281,2,0,P|44:92|20:192,1,180,8|2,0:0|0:0,0:0:0:0:
48,296,634843,1,0,0:0:0:0:
152,256,635031,2,0,P|144:208|128:144,1,90
200,76,635406,6,0,L|312:108,1,90,2|0,0:0|0:0,0:0:0:0:
252,200,635781,2,0,P|264:248|280:320,1,90
140,344,636156,2,0,L|152:248,1,90,2|0,0:0|0:0,0:0:0:0:
164,148,636531,2,0,P|228:104|328:136,1,180,8|2,0:0|0:0,0:0:0:0:
356,232,637093,1,0,0:0:0:0:
248,216,637281,1,0,3:3:0:0:
432,156,637468,1,0,0:0:0:0:
248,216,637656,6,0,P|248:272|256:324,1,90,2|0,0:0|0:0,0:0:0:0:
356,232,638031,2,0,P|332:184|316:136,1,90
220,28,638406,2,0,P|224:92|224:128,1,90,2|0,0:0|0:0,0:0:0:0:
156,208,638781,2,0,P|80:148|-8:136,1,180,8|2,0:0|0:0,0:0:0:0:
72,52,639343,1,0,0:0:0:0:
56,240,639531,2,0,L|52:336,1,90
156,360,639906,6,0,P|240:356|344:336,1,180,2|0,0:0|0:0,0:0:0:0:
436,304,640468,1,0,0:0:0:0:
440,196,640656,2,0,P|424:120|412:88,1,90,2|0,0:0|0:0,0:0:0:0:
304,40,641031,2,0,P|272:116|336:196,2,180,8|2|0,0:0|0:0|0:0,0:0:0:0:
380,108,641968,1,0,0:0:0:0:
184,112,642156,6,0,L|188:212,1,90,2|0,0:0|0:0,0:0:0:0:
276,312,642531,2,0,L|272:212,1,90,0|0,0:0|0:0,0:0:0:0:
184,112,642906,1,2,0:0:0:0:
116,220,643093,1,0,0:0:0:0:
276,312,643281,2,0,P|360:260|452:272,2,180,8|2|0,0:0|0:0|0:0,0:0:0:0:
220,216,644218,1,0,0:0:0:0:
136,332,644406,6,0,L|28:344,1,90,2|2,0:0|0:0,0:0:0:0:
72,160,644781,2,0,P|80:212|84:256,1,90,0|2,0:0|0:0,0:0:0:0:
184,236,645156,1,2,0:0:0:0:
352,208,645343,1,0,0:0:0:0:
256,156,645531,6,0,P|84:176|128:328,1,371.250014162064,2|0,0:0|0:0,0:0:0:0:
160,324,646656,6,0,P|180:256|184:216,1,90,4|0,0:0|0:0,0:0:0:0:
180,132,647031,1,0,0:0:0:0:
48,68,647218,1,2,0:0:0:0:
180,132,647406,2,0,P|240:116|292:96,1,90,2|0,0:0|0:0,0:0:0:0:
364,56,647781,2,0,P|396:104|412:232,1,180,8|0,0:0|0:0,0:0:0:0:
336,300,648343,1,0,0:0:0:0:
228,220,648531,2,0,P|272:204|324:196,1,90,2|0,0:0|0:0,0:0:0:0:
264,104,648906,2,0,L|240:64|216:16,1,90,2|0,0:0|0:0,0:0:0:0:
112,44,649281,5,0,0:0:0:0:
60,136,649468,1,2,0:0:0:0:
188,164,649656,2,0,P|176:216|172:268,1,90,2|0,0:0|0:0,0:0:0:0:
272,348,650031,2,0,P|284:260|284:152,1,180,8|2,0:0|0:0,0:0:0:0:
236,76,650593,1,0,0:0:0:0:
328,20,650781,2,0,P|392:32|420:48,1,90,2|0,0:0|0:0,0:0:0:0:
468,140,651156,6,0,P|476:180|484:232,1,90,2|0,0:0|0:0,0:0:0:0:
368,336,651531,2,0,P|384:268|396:232,1,90,0|2,0:0|0:0,0:0:0:0:
304,176,651906,2,0,P|228:188|172:112,1,180,2|8,0:0|0:0,0:0:0:0:
72,168,652468,1,0,0:0:0:0:
92,272,652656,2,0,L|108:372,1,90,2|0,0:0|0:0,0:0:0:0:
204,304,653031,2,0,L|188:204,1,90,0|0,0:0|0:0,0:0:0:0:
176,112,653406,6,0,P|236:36|328:48,1,180,2|0,0:0|0:0,0:0:0:0:
392,108,653968,1,2,0:0:0:0:
284,204,654156,2,0,P|268:148|272:88,1,90,2|0,0:0|0:0,0:0:0:0:
380,224,654531,2,0,P|336:288|220:280,2,180,8|2|2,0:0|0:0|0:0,0:0:0:0:
392,108,655468,1,0,0:0:0:0:
248,124,655656,2,0,P|264:164|296:220,1,90,2|0,0:0|0:0,0:0:0:0:
364,344,656031,6,0,P|268:352|180:392,1,180,0|2,0:0|0:0,0:0:0:0:
88,356,656593,1,0,0:0:0:0:
192,280,656781,2,0,P|176:228|172:188,1,90,8|0,0:0|0:0,0:0:0:0:
216,88,657156,2,0,P|304:72|384:24,1,180,2|0,0:0|0:0,0:0:0:0:
480,84,657718,1,0,0:0:0:0:
428,184,657906,6,0,P|344:172|296:260,1,180,2|0,0:0|0:0,0:0:0:0:
448,320,658468,1,2,0:0:0:0:
380,256,658656,2,0,P|360:304|336:344,1,90,2|0,0:0|0:0,0:0:0:0:
244,316,659031,2,0,P|216:264|120:180,2,180,8|2|0,0:0|0:0|0:0,0:0:0:0:
288,224,659968,1,0,0:0:0:0:
380,256,660156,2,0,P|408:192|420:160,1,90,2|0,0:0|0:0,0:0:0:0:
320,56,660531,6,0,P|328:112|336:152,1,90,4|2,0:0|0:0,0:0:0:0:
288,224,660906,2,0,L|192:208,1,90,2|0,0:0|0:0,0:0:0:0:
96,188,661281,1,8,0:0:0:0:
168,112,661468,1,0,0:0:0:0:
128,288,661656,2,0,P|128:348|132:392,1,90,4|0,0:0|0:0,0:0:0:0:
224,272,662031,2,0,P|192:224|148:176,1,90,2|0,0:0|0:0,0:0:0:0:
100,120,662406,5,2,0:0:0:0:
176,24,662593,1,2,0:0:0:0:
252,188,662781,2,0,P|232:240|224:276,1,90,0|2,0:0|0:0,0:0:0:0:
332,352,663156,2,0,P|320:300|316:256,1,90,2|0,0:0|0:0,0:0:0:0:
332,160,663531,2,0,P|276:104|184:136,2,180,8|0|0,0:0|0:0|0:0,0:0:0:0:
408,228,664468,1,0,0:0:0:0:
248,312,664656,6,0,P|184:324|56:332,1,180,4|0,0:0|0:0,0:0:0:0:
76,224,665218,1,2,0:0:0:0:
76,224,665406,2,0,P|84:180|96:128,1,90,2|0,0:0|0:0,0:0:0:0:
220,32,665781,2,0,L|184:212,2,180,8|2|0,0:0|0:0|0:0,0:0:0:0:
344,196,666718,5,0,0:0:0:0:
296,112,666906,2,0,L|408:92,1,90,2|2,0:0|0:0,0:0:0:0:
496,80,667281,2,0,P|476:120|460:188,1,90,0|2,0:0|0:0,0:0:0:0:
456,272,667656,1,0,0:0:0:0:
344,196,667843,1,0,0:0:0:0:
332,352,668031,2,0,P|272:300|236:204,2,180,8|0|0,0:0|0:0|0:0,0:0:0:0:
344,196,668968,5,0,0:0:0:0:
344,196,669062,1,0,0:0:0:0:
344,196,669156,2,0,P|344:136|352:96,1,90,4|0,0:0|0:0,0:0:0:0:
268,16,669531,2,0,P|268:76|260:116,1,90,0|2,0:0|0:0,0:0:0:0:
204,196,669906,2,0,P|116:172|64:88,1,180,2|8,0:0|0:0,0:0:0:0:
132,16,670468,1,0,0:0:0:0:
280,120,670656,2,0,P|300:184|304:232,1,90,2|0,0:0|0:0,0:0:0:0:
132,272,671031,2,0,P|112:208|108:160,1,90,2|2,0:0|0:0,0:0:0:0:
232,288,671406,6,0,P|200:348|96:372,1,180,4|0,0:0|0:0,0:0:0:0:
144,184,671968,1,2,0:0:0:0:
144,184,672156,2,0,P|132:244|136:296,1,90,2|0,0:0|0:0,0:0:0:0:
244,200,672531,2,0,P|232:152|168:24,2,180,8|2|2,0:0|0:0|0:0,0:0:0:0:
216,344,673468,5,0,0:0:0:0:
216,344,673562,1,0,0:0:0:0:
216,344,673656,2,0,P|304:348|368:276,1,180,4|0,0:0|0:0,0:0:0:0:
380,180,674218,1,2,0:0:0:0:
268,88,674406,2,0,L|276:188,1,90,2|0,0:0|0:0,0:0:0:0:
284,288,674781,2,0,P|208:280|128:348,2,180,8|2|0,0:0|0:0|0:0,0:0:0:0:
380,180,675718,1,0,0:0:0:0:
232,148,675906,6,0,B|216:80|248:16|248:16|224:32|200:36,1,180,4|0,0:0|0:0,0:0:0:0:
124,140,676468,1,2,0:0:0:0:
52,36,676656,2,0,P|28:84|20:132,1,90,2|0,0:0|0:0,0:0:0:0:
56,220,677031,2,0,P|120:276|104:368,2,180,8|2|0,0:0|0:0|0:0,0:0:0:0:
28,312,677968,1,0,0:0:0:0:
212,332,678156,6,0,P|256:324|316:296,1,90,2|0,0:0|0:0,0:0:0:0:
420,144,678531,1,4,0:0:0:0:
280,172,678718,1,2,0:0:0:0:
368,284,678906,2,0,P|412:276|472:248,1,90,2|0,0:0|0:0,0:0:0:0:
280,172,679281,2,0,P|236:180|176:208,1,90,8|0,0:0|0:0,0:0:0:0:
360,204,679656,2,0,P|348:136|332:100,1,90,4|0,0:0|0:0,0:0:0:0:
256,56,680031,1,0,0:0:0:0:
168,112,680218,1,0,0:0:0:0:
96,36,680406,6,0,P|56:88|36:136,1,90,2|2,0:0|0:0,0:0:0:0:
32,216,680781,1,0,0:0:0:0:
128,172,680968,1,2,0:0:0:0:
120,276,681156,1,0,0:0:0:0:
216,232,681343,1,2,0:0:0:0:
208,336,681531,5,12,0:0:0:0:
216,232,681718,1,8,0:0:0:0:
120,276,681906,1,10,0:0:0:0:
288,288,682093,1,8,0:0:0:0:
128,172,682281,1,8,0:0:0:0:
264,148,682468,1,8,0:0:0:0:
152,312,682656,6,0,P|108:332|48:352,1,90,4|0,0:0|0:0,0:0:0:0:
76,236,683031,2,0,P|52:192|32:136,1,90,8|0,0:0|0:0,0:0:0:0:
144,156,683406,2,0,P|176:124|212:96,1,90,8|0,0:0|0:0,0:0:0:0:
312,140,683781,2,0,P|416:136|460:72,2,180,2|10|10,0:0|0:0|0:0,0:0:0:0:
212,96,684718,1,0,0:0:0:0:
352,16,684906,6,0,P|372:76|380:136,1,90,2|0,0:0|0:0,0:0:0:0:
276,272,685281,2,0,P|256:212|248:152,1,90,8|0,0:0|0:0,0:0:0:0:
284,88,685656,2,0,L|192:72,1,90,8|0,0:0|0:0,0:0:0:0:
88,40,686031,2,0,P|104:92|108:152,1,90,2|0,0:0|0:0,0:0:0:0:
88,252,686406,1,2,0:0:0:0:
212,148,686593,1,2,0:0:0:0:
240,308,686781,2,0,P|260:348|288:388,1,90,8|0,0:0|0:0,0:0:0:0:
340,288,687156,6,0,L|340:184,1,90,4|0,0:0|0:0,0:0:0:0:
340,88,687531,2,0,P|288:120|248:140,1,90,8|0,0:0|0:0,0:0:0:0:
124,136,687906,2,0,P|176:104|216:84,1,90,2|0,0:0|0:0,0:0:0:0:
340,88,688281,2,0,P|356:152|392:280,2,180,8|8|8,0:0|0:0|0:0,0:0:0:0:
248,32,689218,1,0,0:0:0:0:
164,100,689406,6,0,P|112:116|56:128,1,90,2|0,0:0|0:0,0:0:0:0:
104,16,689781,1,8,0:0:0:0:
248,32,689968,1,0,0:0:0:0:
156,184,690156,1,2,0:0:0:0:
172,60,690343,1,8,0:0:0:0:
204,256,690531,2,0,P|228:208|240:152,1,90,4|0,0:0|0:0,0:0:0:0:
324,80,690906,1,8,0:0:0:0:
324,80,690999,1,8,0:0:0:0:
324,80,691093,2,0,P|368:76|424:64,1,90,8|8,0:0|0:0,0:0:0:0:
512,144,691468,1,0,0:0:0:0:
444,248,691656,6,0,P|340:268|244:296,1,180,4|2,0:0|0:0,0:0:0:0:
168,328,692218,1,0,0:0:0:0:
164,152,692406,2,0,B|184:188|184:188|188:236,1,90,8|0,0:0|0:0,0:0:0:0:
72,164,692781,2,0,P|100:92|204:72,2,180,2|2|8,0:0|0:0|0:0,0:0:0:0:
112,256,693718,1,0,0:0:0:0:
264,152,693906,6,0,P|260:200|260:248,1,90,2|0,0:0|0:0,0:0:0:0:
332,344,694281,1,0,0:0:0:0:
332,344,694374,1,0,0:0:0:0:
332,344,694468,1,0,0:0:0:0:
420,236,694656,1,8,0:0:0:0:
304,160,694843,1,0,0:0:0:0:
408,68,695031,6,0,L|416:184,1,90,2|0,0:0|0:0,0:0:0:0:
208,256,695406,2,0,L|200:140,1,90,4|0,0:0|0:0,0:0:0:0:
196,44,695781,1,8,0:0:0:0:
232,52,695874,1,0,0:0:0:0:
268,60,695968,1,0,0:0:0:0:
376,208,696156,6,0,L|188:164,1,180,4|4,0:0|0:0,0:0:0:0:
96,136,696718,1,0,0:0:0:0:
96,136,696906,1,8,0:0:0:0:
176,60,697093,1,0,0:0:0:0:
284,188,697281,2,0,P|208:276|208:340,2,180,8|2|8,0:0|0:0|0:0,0:0:0:0:
396,232,698218,1,0,0:0:0:0:
468,136,698406,6,0,P|452:84|440:36,1,90,8|0,0:0|0:0,0:0:0:0:
328,28,698781,2,0,P|280:40|232:48,1,90,2|8,0:0|0:0,0:0:0:0:
188,152,699156,2,0,P|204:204|216:252,1,90,2|0,0:0|0:0,0:0:0:0:
204,344,699531,1,12,0:0:0:0:
68,328,699718,5,2,0:0:0:0:
72,292,699812,1,0,0:0:0:0:
76,256,699906,1,2,0:0:0:0:
80,220,699999,1,0,0:0:0:0:
84,184,700093,1,2,0:0:0:0:
88,148,700187,1,0,0:0:0:0:
92,112,700281,2,0,L|148:136,1,45,2|0,0:0|0:0,0:0:0:0:
232,48,700468,2,0,L|183:84,1,45,2|0,0:0|0:0,0:0:0:0:
216,204,700656,6,0,B|212:156|212:156|264:200|344:200,1,180,4|2,0:0|0:0,0:0:0:0:
436,164,701218,2,0,P|436:216|428:264,2,90,8|0|0,0:0|0:0|0:0,0:0:0:0:
360,100,701781,2,0,P|360:48|368:0,1,90,8|0,0:0|0:0,0:0:0:0:
264,132,702156,2,0,P|232:96|204:48,1,90,2|0,0:0|0:0,0:0:0:0:
248,228,702531,2,0,P|192:212|152:192,1,90,8|0,0:0|0:0,0:0:0:0:
72,144,702906,5,6,0:0:0:0:
160,88,703093,1,0,0:0:0:0:
248,228,703281,1,8,0:0:0:0:
156,180,703468,1,0,0:0:0:0:
76,248,703656,1,2,0:0:0:0:
248,228,703843,1,0,0:0:0:0:
160,88,704031,2,0,L|156:192,1,90,8|0,0:0|0:0,0:0:0:0:
144,320,704406,1,2,0:0:0:0:
256,304,704593,5,2,0:0:0:0:
292,300,704687,1,0,0:0:0:0:
328,300,704781,1,10,0:0:0:0:
360,312,704874,1,0,0:0:0:0:
392,328,704968,1,0,0:0:0:0:
416,300,705062,1,0,0:0:0:0:
440,272,705156,6,0,P|468:232|512:204,1,90,4|0,0:0|0:0,0:0:0:0:
404,64,705531,2,0,L|420:164,1,90,8|0,0:0|0:0,0:0:0:0:
352,236,705906,1,0,0:0:0:0:
208,208,706093,1,0,0:0:0:0:
304,68,706281,2,0,L|290:156,1,90,2|8,0:0|0:0,0:0:0:0:
208,208,706656,2,0,P|224:256|236:308,1,90,2|0,0:0|0:0,0:0:0:0:
116,372,707031,2,0,P|124:316|140:264,1,90,10|0,0:0|0:0,0:0:0:0:
224,128,707406,6,0,P|144:116|104:28,2,180,2|4|2,0:0|0:0|0:0,0:0:0:0:
200,32,708343,1,0,0:0:0:0:
336,128,708531,2,0,L|312:240,1,90,8|0,0:0|0:0,0:0:0:0:
192,320,708906,2,0,L|216:208,1,90,4|2,0:0|0:0,0:0:0:0:
220,196,709187,1,0,0:0:0:0:
212,160,709281,1,10,0:0:0:0:
188,132,709374,1,0,0:0:0:0:
152,124,709468,1,10,0:0:0:0:
116,132,709562,1,0,0:0:0:0:
92,160,709656,6,0,P|76:204|72:256,1,90,4|0,0:0|0:0,0:0:0:0:
192,320,710031,2,0,P|180:272|156:216,1,90,12|0,0:0|0:0,0:0:0:0:
188,132,710406,1,0,0:0:0:0:
304,176,710593,1,0,0:0:0:0:
400,48,710781,2,0,P|304:64|240:20,2,180,10|2|10,0:0|0:0|0:0,0:0:0:0:
472,128,711718,1,0,0:0:0:0:
372,256,711906,6,0,P|360:208|352:164,1,90,4|0,0:0|0:0,0:0:0:0:
260,112,712281,1,8,0:0:0:0:
240,280,712468,1,0,0:0:0:0:
260,112,712656,2,0,P|212:96|172:72,1,90,2|0,0:0|0:0,0:0:0:0:
60,24,713031,2,0,L|68:124,1,90,8|0,0:0|0:0,0:0:0:0:
76,236,713406,5,8,0:0:0:0:
80,272,713499,1,0,0:0:0:0:
84,308,713593,1,0,0:0:0:0:
216,352,713781,1,8,0:0:0:0:
212,316,713874,1,0,0:0:0:0:
208,280,713968,1,0,0:0:0:0:
196,160,714156,6,0,P|244:176|288:180,1,90,4|0,0:0|0:0,0:0:0:0:
384,168,714531,1,8,0:0:0:0:
512,96,714718,1,0,0:0:0:0:
384,168,714906,2,0,P|388:220|396:280,1,90,8|0,0:0|0:0,0:0:0:0:
300,360,715281,2,0,P|296:272|284:176,2,180,2|10|2,0:0|0:0|0:0,0:0:0:0:
208,300,716218,1,0,0:0:0:0:
136,384,716406,6,0,P|116:336|104:296,1,90,6|0,0:0|0:0,0:0:0:0:
156,208,716781,1,8,0:0:0:0:
12,248,716968,1,0,0:0:0:0:
156,208,717156,2,0,P|176:160|188:116,1,90,8|0,0:0|0:0,0:0:0:0:
260,28,717531,2,0,P|316:72|432:84,2,180,4|8|8,0:0|0:0|0:0,0:0:0:0:
256,192,718656,12,0,722781,0:0:0:0:
256,192,723156,12,0,727281,0:0:0:0:
256,72,743406,5,2,0:0:0:0:
256,268,744111,6,0,L|256:360,2,90,2|2|2,0:0|0:0|0:0,0:0:0:0:
256,172,744641,1,2,0:0:0:0:
256,172,746229,5,2,0:0:0:0:
408,248,746935,6,0,P|372:288|344:332,2,90,2|2|2,0:0|0:0|0:0,0:0:0:0:
352,160,747464,1,2,0:0:0:0:
168,280,748523,6,0,P|116:296|80:312,2,90,2|2|2,0:0|0:0|0:0,0:0:0:0:
264,256,749053,6,0,P|248:196|244:160,1,90,2|0,0:0|0:0,0:0:0:0:
248,64,749406,1,8,0:0:0:0:
388,52,749582,1,0,0:0:0:0:
384,88,749670,1,0,0:0:0:0:
380,124,749758,1,2,0:0:0:0:
376,160,749847,1,0,0:0:0:0:
372,196,749935,1,0,0:0:0:0:
264,256,750111,2,0,P|220:224|184:184,1,90,8|0,0:0|0:0,0:0:0:0:
92,92,750464,6,0,P|80:144|68:200,1,90,2|0,0:0|0:0,0:0:0:0:
32,280,750817,1,8,0:0:0:0:
128,340,750994,1,0,0:0:0:0:
164,332,751082,1,0,0:0:0:0:
200,324,751170,1,2,0:0:0:0:
236,316,751258,1,0,0:0:0:0:
272,308,751347,1,0,0:0:0:0:
264,140,751523,2,0,P|236:176|216:220,1,90,8|0,0:0|0:0,0:0:0:0:
352,340,751876,6,0,L|344:236,1,90,2|0,0:0|0:0,0:0:0:0:
340,140,752229,1,8,0:0:0:0:
236,80,752406,1,0,0:0:0:0:
236,80,752494,1,0,0:0:0:0:
236,80,752582,1,2,0:0:0:0:
236,80,752670,1,0,0:0:0:0:
236,80,752758,1,0,0:0:0:0:
76,120,752935,2,0,P|124:136|180:144,1,90,8|0,0:0|0:0,0:0:0:0:
216,244,753288,6,0,P|224:300|240:364,1,90,2|0,0:0|0:0,0:0:0:0:
320,268,753641,2,0,P|312:212|296:148,1,90,8|0,0:0|0:0,0:0:0:0:
216,144,753994,1,2,0:0:0:0:
360,72,754170,1,8,0:0:0:0:
212,52,754347,1,2,0:0:0:0:
368,156,754523,1,8,0:0:0:0:
216,144,754700,6,0,P|164:120|132:96,1,90,2|0,0:0|0:0,0:0:0:0:
128,224,755053,2,0,L|136:316,1,90,8|0,0:0|0:0,0:0:0:0:
268,280,755406,1,2,0:0:0:0:
268,280,755494,1,0,0:0:0:0:
268,280,755582,1,0,0:0:0:0:
216,144,755758,2,0,P|232:92|248:52,1,90,8|0,0:0|0:0,0:0:0:0:
384,100,756111,6,0,P|368:152|352:192,1,90,2|0,0:0|0:0,0:0:0:0:
268,280,756464,1,8,0:0:0:0:
168,212,756641,1,0,0:0:0:0:
160,176,756729,1,0,0:0:0:0:
152,140,756817,1,2,0:0:0:0:
144,104,756906,1,0,0:0:0:0:
136,68,756994,1,0,0:0:0:0:
12,32,757170,2,0,P|36:84|64:128,1,90,8|0,0:0|0:0,0:0:0:0:
240,116,757523,6,0,P|288:112|332:116,1,90,2|0,0:0|0:0,0:0:0:0:
424,180,757876,1,8,0:0:0:0:
320,308,758053,1,0,0:0:0:0:
300,276,758141,1,0,0:0:0:0:
268,264,758229,1,2,0:0:0:0:
232,260,758317,1,0,0:0:0:0:
196,272,758406,1,0,0:0:0:0:
76,272,758582,2,0,L|112:376,1,90,8|0,0:0|0:0,0:0:0:0:
136,200,758935,6,0,P|132:152|124:104,1,90,2|0,0:0|0:0,0:0:0:0:
208,36,759288,2,0,P|212:84|220:132,1,90,8|0,0:0|0:0,0:0:0:0:
236,228,759641,1,2,0:0:0:0:
332,368,759817,1,8,0:0:0:0:
324,200,759994,1,2,0:0:0:0:
244,352,760170,1,8,0:0:0:0:
392,264,760347,6,0,P|416:188|356:112,1,180,2|8,0:0|0:0,0:0:0:0:
236,228,760876,1,0,0:0:0:0:
236,228,760964,1,0,0:0:0:0:
236,228,761053,2,0,P|236:276|248:316,1,90,2|0,0:0|0:0,0:0:0:0:
296,164,761406,2,0,P|240:144|196:144,1,90,8|0,0:0|0:0,0:0:0:0:
144,216,761758,6,0,P|152:268|160:316,1,90,2|0,0:0|0:0,0:0:0:0:
236,228,762111,6,0,P|276:252|336:280,1,90,8|0,0:0|0:0,0:0:0:0:
296,164,762464,6,0,P|348:164|416:152,1,90,2|0,0:0|0:0,0:0:0:0:
320,80,762817,6,0,P|344:40|372:-16,1,90,8|0,0:0|0:0,0:0:0:0:
256,192,763170,12,2,764494,0:0:0:0:
