osu file format v12

[General]
AudioFilename: God only knows -Secrets of the Goddess- (Extract).mp3
AudioLeadIn: 1500
PreviewTime: 54502
Countdown: 0
SampleSet: None
StackLeniency: 0.3
Mode: 1
LetterboxInBreaks: 1
WidescreenStoryboard: 1

[Editor]
DistanceSpacing: 1.4
BeatDivisor: 4
GridSize: 8
TimelineZoom: 1

[Metadata]
Title:God only knows -Secrets of the Goddess- (Extract)
TitleUnicode:God only knows -Secrets of the Goddess- (Extract)
Artist:Oratorio The World God Only Knows
ArtistUnicode:Oratorio The World God Only Knows
Creator:No_Gu
Version:Oni
Source:Kami Nomi zo Shiru Sekai Megami-hen
Tags:神のみぞ知るセカイ 女神篇 早見沙織 Hayami Saori The World God Only Knows alacat Azure KanaRin climbb65588
BeatmapID:404296
BeatmapSetID:104610

[Difficulty]
HPDrainRate:5
CircleSize:4
OverallDifficulty:5
ApproachRate:5
SliderMultiplier:1.4
SliderTickRate:1

[Events]
//Background and Video events
0,0,"BG.jpg",0,150
//Break Periods
//Storyboard Layer 0 (Background)
//Storyboard Layer 1 (Fail)
//Storyboard Layer 2 (Pass)
//Storyboard Layer 3 (Foreground)
//Storyboard Sound Samples
//Background Colour Transformations
3,100,163,162,255

[TimingPoints]
760,413.793103448276,3,1,0,70,1,0
760,-133.333333333333,3,1,0,70,0,0
20620,352.941176470588,4,1,0,70,1,0
31914,-100,4,1,0,70,0,0
42502,-100,4,1,0,70,0,0
43208,-100,4,1,0,70,0,1
65796,-100,4,1,0,70,0,0
77090,-100,4,1,0,70,0,0
83090,352.941176470588,5,1,0,70,1,0

[HitObjects]
256,176,760,1,4,0:0:0:0:
152,262,1173,1,8,0:0:0:0:
159,252,1380,1,8,0:0:0:0:
223,269,1794,1,8,0:0:0:0:
336,152,2001,1,8,0:0:0:0:
220,195,2415,1,4,0:0:0:0:
229,249,2622,1,4,0:0:0:0:
225,238,2828,1,4,0:0:0:0:
271,272,3242,1,0,0:0:0:0:
424,184,3656,1,8,0:0:0:0:
293,231,4070,1,8,0:0:0:0:
275,223,4277,1,8,0:0:0:0:
240,251,4484,1,0,0:0:0:0:
301,256,4897,1,8,0:0:0:0:
228,257,5311,1,8,0:0:0:0:
227,247,5518,1,8,0:0:0:0:
225,286,5725,1,0,0:0:0:0:
248,220,6139,1,0,0:0:0:0:
456,160,6760,1,8,0:0:0:0:
340,205,6966,1,0,0:0:0:0:
205,198,7380,1,8,0:0:0:0:
291,268,7794,1,8,0:0:0:0:
331,227,8001,1,8,0:0:0:0:
248,112,8208,1,0,0:0:0:0:
227,189,8622,1,8,0:0:0:0:
303,256,9035,1,8,0:0:0:0:
397,306,9449,1,8,0:0:0:0:
386,273,9863,1,8,0:0:0:0:
297,268,10070,1,8,0:0:0:0:
290,263,10277,1,0,0:0:0:0:
260,199,10691,1,4,0:0:0:0:
364,113,11104,1,8,0:0:0:0:
357,123,11311,1,8,0:0:0:0:
293,106,11725,1,8,0:0:0:0:
180,223,11932,1,8,0:0:0:0:
296,180,12346,1,4,0:0:0:0:
287,126,12553,1,4,0:0:0:0:
291,137,12759,1,4,0:0:0:0:
245,103,13173,1,0,0:0:0:0:
92,191,13587,1,8,0:0:0:0:
223,144,14001,1,8,0:0:0:0:
212,208,14208,1,8,0:0:0:0:
276,124,14415,1,0,0:0:0:0:
195,223,14828,1,8,0:0:0:0:
243,209,15242,1,8,0:0:0:0:
289,128,15449,1,8,0:0:0:0:
217,201,15656,1,0,0:0:0:0:
220,261,16070,1,0,0:0:0:0:
60,215,16691,1,8,0:0:0:0:
213,214,16897,1,0,0:0:0:0:
311,177,17311,1,8,0:0:0:0:
156,239,17725,1,8,0:0:0:0:
175,246,17932,1,8,0:0:0:0:
268,263,18139,1,0,0:0:0:0:
289,186,18553,1,8,0:0:0:0:
185,204,18966,1,8,0:0:0:0:
158,210,19380,1,8,0:0:0:0:
182,219,19794,5,8,0:0:0:0:
218,242,20001,1,8,0:0:0:0:
246,223,20208,1,0,0:0:0:0:
200,136,20620,5,4,0:0:0:0:
264,152,21855,1,0,0:0:0:0:
144,144,22031,1,4,0:0:0:0:
144,168,23443,1,4,0:0:0:0:
72,104,24678,1,0,0:0:0:0:
192,160,24855,1,4,0:0:0:0:
72,104,26267,1,4,0:0:0:0:
72,104,26443,1,0,0:0:0:0:
168,48,26619,1,8,0:0:0:0:
112,72,26708,1,8,0:0:0:0:
112,72,26796,1,8,0:0:0:0:
184,176,26972,1,0,0:0:0:0:
120,88,27149,1,0,0:0:0:0:
216,152,27325,1,8,0:0:0:0:
168,120,27414,1,8,0:0:0:0:
168,120,27502,1,8,0:0:0:0:
32,120,27678,1,4,0:0:0:0:
160,144,27855,1,0,0:0:0:0:
160,144,27943,1,0,0:0:0:0:
56,104,28031,1,8,0:0:0:0:
104,128,28208,1,8,0:0:0:0:
224,104,28296,1,8,0:0:0:0:
224,104,28384,1,0,0:0:0:0:
224,104,28561,1,0,0:0:0:0:
200,216,28737,1,8,0:0:0:0:
136,136,28914,1,8,0:0:0:0:
168,120,29002,1,8,0:0:0:0:
168,120,29090,1,0,0:0:0:0:
280,176,29267,1,0,0:0:0:0:
160,144,29443,1,8,0:0:0:0:
168,120,29531,1,8,0:0:0:0:
224,104,29619,1,8,0:0:0:0:
320,160,29796,1,4,0:0:0:0:
216,136,29972,1,0,0:0:0:0:
200,168,30149,1,8,0:0:0:0:
216,136,30237,1,8,0:0:0:0:
200,168,30325,1,8,0:0:0:0:
216,136,30414,1,8,0:0:0:0:
200,168,30502,1,0,0:0:0:0:
296,240,30678,1,0,0:0:0:0:
216,184,30855,1,8,0:0:0:0:
160,144,31031,1,0,0:0:0:0:
160,144,31208,1,0,0:0:0:0:
160,144,31296,1,8,0:0:0:0:
160,144,31384,1,0,0:0:0:0:
32,144,31561,1,8,0:0:0:0:
120,136,31737,1,8,0:0:0:0:
372,308,31914,1,0,0:0:0:0:
341,213,32267,1,8,0:0:0:0:
383,158,32355,1,8,0:0:0:0:
385,211,32443,1,8,0:0:0:0:
373,260,32619,1,0,0:0:0:0:
373,260,32796,1,0,0:0:0:0:
373,260,32884,1,0,0:0:0:0:
372,308,32972,1,8,0:0:0:0:
385,211,33149,1,8,0:0:0:0:
192,209,33325,1,0,0:0:0:0:
372,308,33678,1,8,0:0:0:0:
209,153,33855,1,0,0:0:0:0:
209,153,34031,1,0,0:0:0:0:
385,211,34119,1,8,0:0:0:0:
252,180,34208,1,0,0:0:0:0:
372,308,34384,1,8,0:0:0:0:
252,180,34561,1,0,0:0:0:0:
252,180,34649,1,0,0:0:0:0:
279,197,34737,1,0,0:0:0:0:
352,266,34914,1,0,0:0:0:0:
372,308,35090,1,8,0:0:0:0:
352,266,35443,1,0,0:0:0:0:
372,308,35619,1,0,0:0:0:0:
372,308,35708,1,0,0:0:0:0:
364,238,35796,1,8,0:0:0:0:
364,238,35972,1,8,0:0:0:0:
372,308,36149,1,0,0:0:0:0:
405,240,36325,1,0,0:0:0:0:
405,240,36414,1,0,0:0:0:0:
372,308,36502,1,8,0:0:0:0:
435,200,36678,1,0,0:0:0:0:
398,197,36767,1,8,0:0:0:0:
481,184,36855,1,0,0:0:0:0:
369,300,37031,5,8,0:0:0:0:
271,217,37208,1,0,0:0:0:0:
369,300,37384,1,8,0:0:0:0:
345,273,37561,1,0,0:0:0:0:
359,344,37914,1,8,0:0:0:0:
376,242,38267,1,0,0:0:0:0:
376,242,38443,1,0,0:0:0:0:
376,242,38531,1,0,0:0:0:0:
369,300,38619,1,8,0:0:0:0:
399,314,38796,1,8,0:0:0:0:
345,273,38972,1,0,0:0:0:0:
400,148,39061,1,8,0:0:0:0:
292,209,39149,1,0,0:0:0:0:
369,300,39325,1,8,0:0:0:0:
257,171,39502,1,0,0:0:0:0:
322,172,39590,1,0,0:0:0:0:
472,166,39678,1,0,0:0:0:0:
369,300,40031,1,8,0:0:0:0:
404,273,40384,1,0,0:0:0:0:
400,148,40472,1,0,0:0:0:0:
432,161,40561,1,0,0:0:0:0:
359,339,40737,1,8,0:0:0:0:
369,300,41002,1,8,0:0:0:0:
346,240,41090,1,0,0:0:0:0:
386,178,41267,1,0,0:0:0:0:
404,273,41443,1,8,0:0:0:0:
194,167,41619,1,0,0:0:0:0:
240,181,41708,1,0,0:0:0:0:
240,181,41796,1,0,0:0:0:0:
294,189,41972,1,0,0:0:0:0:
369,300,42149,5,8,0:0:0:0:
240,181,42502,1,0,0:0:0:0:
240,181,42590,1,0,0:0:0:0:
367,155,42678,1,8,0:0:0:0:
420,163,42767,1,8,0:0:0:0:
386,178,42855,1,0,0:0:0:0:
367,155,43031,1,8,0:0:0:0:
176,152,43208,5,4,0:0:0:0:
176,152,43561,1,8,0:0:0:0:
136,200,43649,1,8,0:0:0:0:
136,200,43737,1,8,0:0:0:0:
56,144,43914,1,0,0:0:0:0:
56,144,44090,1,0,0:0:0:0:
112,152,44178,1,8,0:0:0:0:
40,144,44267,1,8,0:0:0:0:
152,136,44443,1,0,0:0:0:0:
192,80,44796,1,0,0:0:0:0:
192,80,44972,1,8,0:0:0:0:
192,80,45149,1,0,0:0:0:0:
112,152,45237,1,0,0:0:0:0:
112,152,45325,1,0,0:0:0:0:
192,80,45414,1,8,0:0:0:0:
192,80,45502,1,0,0:0:0:0:
80,96,45678,1,8,0:0:0:0:
192,80,45855,1,8,0:0:0:0:
112,152,45943,1,8,0:0:0:0:
96,64,46031,1,0,0:0:0:0:
200,272,46384,1,8,0:0:0:0:
208,176,46561,1,0,0:0:0:0:
208,176,46737,1,0,0:0:0:0:
192,112,46825,1,0,0:0:0:0:
208,176,46914,1,0,0:0:0:0:
192,80,47090,1,8,0:0:0:0:
128,144,47267,1,0,0:0:0:0:
168,104,47355,1,8,0:0:0:0:
168,104,47443,1,0,0:0:0:0:
80,128,47619,1,0,0:0:0:0:
200,144,47796,1,8,0:0:0:0:
200,144,47972,1,8,0:0:0:0:
200,144,48061,1,8,0:0:0:0:
200,144,48149,1,0,0:0:0:0:
88,120,48325,1,8,0:0:0:0:
192,144,48502,1,8,0:0:0:0:
392,152,48855,1,0,0:0:0:0:
208,144,49208,1,12,0:0:0:0:
88,88,49384,1,0,0:0:0:0:
160,168,49561,1,0,0:0:0:0:
144,112,49649,1,8,0:0:0:0:
96,96,49737,1,0,0:0:0:0:
144,112,49914,1,8,0:0:0:0:
144,112,50090,1,8,0:0:0:0:
136,224,50267,1,0,0:0:0:0:
144,112,50355,1,0,0:0:0:0:
144,112,50443,1,0,0:0:0:0:
144,112,50619,1,8,0:0:0:0:
144,104,50796,1,0,0:0:0:0:
168,56,50884,1,8,0:0:0:0:
168,56,50972,1,0,0:0:0:0:
56,152,51149,1,8,0:0:0:0:
408,224,51325,1,8,0:0:0:0:
192,96,51502,1,0,0:0:0:0:
272,96,51678,1,0,0:0:0:0:
64,144,52031,1,8,0:0:0:0:
200,136,52208,1,0,0:0:0:0:
144,120,52296,1,8,0:0:0:0:
88,152,52384,1,0,0:0:0:0:
192,208,52561,1,0,0:0:0:0:
120,168,52737,1,8,0:0:0:0:
136,128,52825,1,8,0:0:0:0:
192,208,52914,1,0,0:0:0:0:
192,88,53090,1,0,0:0:0:0:
200,56,53267,1,0,0:0:0:0:
176,104,53355,1,0,0:0:0:0:
200,48,53443,1,8,0:0:0:0:
144,120,53619,1,8,0:0:0:0:
144,120,53796,1,0,0:0:0:0:
176,104,53884,1,0,0:0:0:0:
176,104,53972,1,8,0:0:0:0:
112,80,54061,1,0,0:0:0:0:
176,104,54149,1,8,0:0:0:0:
331,202,54325,1,0,0:0:0:0:
240,136,54414,1,0,0:0:0:0:
240,136,54502,1,0,0:0:0:0:
343,234,54855,1,8,0:0:0:0:
329,366,55208,1,0,0:0:0:0:
297,378,55384,1,0,0:0:0:0:
307,206,55472,1,0,0:0:0:0:
353,312,55561,1,8,0:0:0:0:
257,369,55737,1,0,0:0:0:0:
291,192,56090,1,0,0:0:0:0:
283,224,56266,1,8,0:0:0:0:
282,239,56443,1,0,0:0:0:0:
330,317,56619,1,0,0:0:0:0:
340,230,56708,1,8,0:0:0:0:
279,205,56796,1,0,0:0:0:0:
312,288,56972,1,8,0:0:0:0:
416,241,57061,1,8,0:0:0:0:
341,239,57149,1,8,0:0:0:0:
281,304,57237,1,8,0:0:0:0:
296,320,57325,1,0,0:0:0:0:
420,183,57502,1,0,0:0:0:0:
349,289,57590,1,0,0:0:0:0:
274,230,57678,1,8,0:0:0:0:
265,252,57855,1,0,0:0:0:0:
271,293,58031,1,0,0:0:0:0:
271,196,58119,1,0,0:0:0:0:
381,196,58208,1,0,0:0:0:0:
300,207,58384,1,8,0:0:0:0:
264,240,58561,1,0,0:0:0:0:
263,182,58649,1,0,0:0:0:0:
224,280,58737,1,0,0:0:0:0:
238,273,58825,1,8,0:0:0:0:
312,256,58913,1,0,0:0:0:0:
309,219,59090,1,8,0:0:0:0:
269,210,59266,1,8,0:0:0:0:
192,240,59355,1,8,0:0:0:0:
270,177,59443,1,0,0:0:0:0:
304,264,59619,1,8,0:0:0:0:
190,204,59796,1,8,0:0:0:0:
233,100,60149,1,4,0:0:0:0:
278,79,60502,1,12,0:0:0:0:
225,352,60855,1,0,0:0:0:0:
190,320,60943,1,0,0:0:0:0:
296,288,61031,1,0,0:0:0:0:
235,184,61208,1,8,0:0:0:0:
275,193,61384,1,0,0:0:0:0:
228,202,61737,1,0,0:0:0:0:
348,201,61913,1,8,0:0:0:0:
348,209,62090,1,0,0:0:0:0:
250,104,62266,1,0,0:0:0:0:
330,176,62355,1,0,0:0:0:0:
308,142,62443,1,8,0:0:0:0:
248,226,62619,1,8,0:0:0:0:
272,196,62796,1,0,0:0:0:0:
118,259,62972,1,4,0:0:0:0:
328,240,63325,1,8,0:0:0:0:
292,177,63502,1,0,0:0:0:0:
348,193,63590,1,8,0:0:0:0:
304,232,63678,1,0,0:0:0:0:
332,215,63767,1,0,0:0:0:0:
263,195,63855,1,0,0:0:0:0:
134,319,64031,1,8,0:0:0:0:
187,318,64208,1,0,0:0:0:0:
161,173,64296,1,0,0:0:0:0:
300,225,64384,1,8,0:0:0:0:
221,188,64561,1,0,0:0:0:0:
216,280,64649,5,0,0:0:0:0:
287,168,64737,1,8,0:0:0:0:
248,264,64913,1,8,0:0:0:0:
248,264,65090,1,0,0:0:0:0:
216,280,65178,1,0,0:0:0:0:
216,280,65266,1,8,0:0:0:0:
280,304,65355,1,0,0:0:0:0:
216,280,65443,1,8,0:0:0:0:
192,244,65619,1,0,0:0:0:0:
343,253,65708,1,0,0:0:0:0:
148,190,65796,5,0,0:0:0:0:
159,207,65972,1,0,0:0:0:0:
127,200,66149,1,0,0:0:0:0:
160,136,66502,1,8,0:0:0:0:
224,251,66855,1,0,0:0:0:0:
152,176,67031,1,0,0:0:0:0:
224,144,67208,1,0,0:0:0:0:
243,231,67561,1,8,0:0:0:0:
185,241,67914,1,0,0:0:0:0:
208,144,68090,1,0,0:0:0:0:
202,236,68267,1,0,0:0:0:0:
180,167,68619,1,0,0:0:0:0:
248,195,68796,1,0,0:0:0:0:
160,96,68972,1,0,0:0:0:0:
16,104,69325,1,8,0:0:0:0:
152,112,69678,1,0,0:0:0:0:
208,120,69855,1,0,0:0:0:0:
152,112,70031,1,0,0:0:0:0:
280,120,70384,1,8,0:0:0:0:
128,104,70737,1,0,0:0:0:0:
192,160,70914,1,8,0:0:0:0:
144,112,71090,1,0,0:0:0:0:
160,40,71267,1,8,0:0:0:0:
248,200,71443,1,0,0:0:0:0:
176,168,71619,1,0,0:0:0:0:
112,136,71796,1,0,0:0:0:0:
112,136,72149,1,8,0:0:0:0:
112,136,72502,1,0,0:0:0:0:
112,136,72678,1,0,0:0:0:0:
112,136,72855,1,0,0:0:0:0:
112,136,73208,1,8,0:0:0:0:
248,176,73561,1,0,0:0:0:0:
184,160,73737,1,0,0:0:0:0:
128,136,73914,1,0,0:0:0:0:
272,128,74267,1,0,0:0:0:0:
208,136,74443,1,0,0:0:0:0:
144,136,74619,1,0,0:0:0:0:
272,128,74972,1,8,0:0:0:0:
152,88,75325,1,0,0:0:0:0:
200,144,75502,1,0,0:0:0:0:
232,208,75678,1,0,0:0:0:0:
176,96,76031,1,8,0:0:0:0:
200,144,76384,1,0,0:0:0:0:
144,136,76561,1,8,0:0:0:0:
48,128,76737,1,0,0:0:0:0:
176,96,77090,1,12,0:0:0:0:
280,104,77267,1,0,0:0:0:0:
280,104,77355,1,0,0:0:0:0:
280,104,77443,1,8,0:0:0:0:
192,64,77619,1,0,0:0:0:0:
112,144,77796,1,0,0:0:0:0:
144,112,77884,1,0,0:0:0:0:
144,112,77972,1,0,0:0:0:0:
144,112,78149,1,8,0:0:0:0:
208,152,78325,1,0,0:0:0:0:
128,120,78502,1,0,0:0:0:0:
160,80,78590,1,0,0:0:0:0:
192,48,78678,1,0,0:0:0:0:
96,80,78855,1,8,0:0:0:0:
240,128,79031,1,4,0:0:0:0:
240,128,79384,1,0,0:0:0:0:
144,144,79561,1,8,0:0:0:0:
128,120,79649,1,8,0:0:0:0:
144,144,79737,1,8,0:0:0:0:
144,144,79914,1,0,0:0:0:0:
144,32,80090,1,0,0:0:0:0:
144,80,80178,1,0,0:0:0:0:
144,128,80267,1,8,0:0:0:0:
232,88,80443,1,0,0:0:0:0:
128,248,80796,1,0,0:0:0:0:
176,144,80972,1,8,0:0:0:0:
224,88,81149,1,0,0:0:0:0:
128,136,81502,1,0,0:0:0:0:
136,136,81678,1,8,0:0:0:0:
144,128,81855,1,4,0:0:0:0:
296,24,82208,1,0,0:0:0:0:
216,80,82384,1,0,0:0:0:0:
168,80,82472,1,8,0:0:0:0:
168,80,82561,1,8,0:0:0:0:
168,80,82649,1,8,0:0:0:0:
312,272,83090,1,8,0:0:0:0:
128,24,83619,1,8,0:0:0:0:
296,256,84149,1,8,0:0:0:0:
184,96,84502,1,8,0:0:0:0:
296,264,84855,1,8,0:0:0:0:
184,96,85384,1,8,0:0:0:0:
472,176,85914,1,8,0:0:0:0:
304,128,86267,1,8,0:0:0:0:
472,168,86619,1,8,0:0:0:0:
344,144,87678,1,8,0:0:0:0:
