osu file format v12

[General]
AudioFilename: God only knows -Secrets of the Goddess- (Extract).mp3
AudioLeadIn: 1500
PreviewTime: 54502
Countdown: 0
SampleSet: None
StackLeniency: 0.3
Mode: 1
LetterboxInBreaks: 1
WidescreenStoryboard: 1

[Editor]
DistanceSpacing: 1.4
BeatDivisor: 4
GridSize: 8
TimelineZoom: 1

[Metadata]
Title:God only knows -Secrets of the Goddess- (Extract)
TitleUnicode:God only knows -Secrets of the Goddess- (Extract)
Artist:Oratorio The World God Only Knows
ArtistUnicode:Oratorio The World God Only Knows
Creator:No_Gu
Version:Muzu
Source:Kami Nomi zo Shiru Sekai Megami-hen
Tags:神のみぞ知るセカイ 女神篇 早見沙織 Hayami Saori The World God Only Knows alacat Azure KanaRin climbb65588
BeatmapID:404295
BeatmapSetID:104610

[Difficulty]
HPDrainRate:5
CircleSize:4
OverallDifficulty:5
ApproachRate:5
SliderMultiplier:1.4
SliderTickRate:1

[Events]
//Background and Video events
0,0,"BG.jpg",0,150
//Break Periods
//Storyboard Layer 0 (Background)
//Storyboard Layer 1 (Fail)
//Storyboard Layer 2 (Pass)
//Storyboard Layer 3 (Foreground)
//Storyboard Sound Samples
//Background Colour Transformations
3,100,163,162,255

[TimingPoints]
760,413.793103448276,3,1,0,70,1,0
760,-133.333333333333,3,1,0,70,0,0
20620,352.941176470588,4,1,0,70,1,0
43208,-100,4,1,0,70,0,1
65796,-100,4,1,0,70,0,0
83090,352.941176470588,5,1,0,70,1,0

[HitObjects]
256,192,760,5,4,0:0:0:0:
256,192,1173,1,8,0:0:0:0:
256,192,1794,1,8,0:0:0:0:
256,192,2001,1,0,0:0:0:0:
256,192,2415,1,0,0:0:0:0:
256,192,2622,1,0,0:0:0:0:
256,192,2828,1,0,0:0:0:0:
256,192,3242,1,0,0:0:0:0:
256,192,3656,1,8,0:0:0:0:
256,192,4070,1,8,0:0:0:0:
256,192,4484,1,0,0:0:0:0:
256,192,5311,1,8,0:0:0:0:
256,192,5725,1,0,0:0:0:0:
256,192,6139,1,8,0:0:0:0:
256,192,6760,1,8,0:0:0:0:
256,192,6966,1,0,0:0:0:0:
256,192,7794,1,8,0:0:0:0:
256,192,8208,1,0,0:0:0:0:
256,192,8622,1,0,0:0:0:0:
256,192,9035,1,8,0:0:0:0:
256,192,9449,1,8,0:0:0:0:
256,192,9863,1,0,0:0:0:0:
256,192,10277,1,0,0:0:0:0:
256,192,10691,1,4,0:0:0:0:
256,192,11104,1,8,0:0:0:0:
256,192,11725,1,8,0:0:0:0:
256,192,11932,1,0,0:0:0:0:
256,192,12346,1,0,0:0:0:0:
256,192,12553,1,0,0:0:0:0:
256,192,12760,1,0,0:0:0:0:
256,192,13173,1,0,0:0:0:0:
256,192,13587,1,8,0:0:0:0:
256,192,14001,1,8,0:0:0:0:
256,192,14415,1,0,0:0:0:0:
256,192,15242,1,8,0:0:0:0:
256,192,15656,1,0,0:0:0:0:
256,192,16070,1,8,0:0:0:0:
256,192,16691,1,8,0:0:0:0:
256,192,16897,1,0,0:0:0:0:
256,192,17725,1,0,0:0:0:0:
256,192,18139,1,8,0:0:0:0:
256,192,18553,1,8,0:0:0:0:
256,192,18966,1,0,0:0:0:0:
256,192,19380,1,8,0:0:0:0:
256,192,20620,1,4,0:0:0:0:
256,192,21855,1,0,0:0:0:0:
256,192,22031,1,4,0:0:0:0:
256,192,23443,1,4,0:0:0:0:
256,192,24678,1,0,0:0:0:0:
256,192,24854,1,4,0:0:0:0:
256,192,26267,5,4,0:0:0:0:
256,192,26619,1,8,0:0:0:0:
256,192,26796,1,0,0:0:0:0:
256,192,26972,1,0,0:0:0:0:
256,192,27325,1,8,0:0:0:0:
256,192,27502,1,0,0:0:0:0:
256,192,27590,1,8,0:0:0:0:
256,192,27678,1,0,0:0:0:0:
256,192,28031,1,8,0:0:0:0:
256,192,28384,1,0,0:0:0:0:
256,192,28561,1,0,0:0:0:0:
256,192,28737,1,8,0:0:0:0:
256,192,29090,1,0,0:0:0:0:
256,192,29442,1,8,0:0:0:0:
256,192,29619,1,0,0:0:0:0:
256,192,29796,1,0,0:0:0:0:
256,192,30148,1,8,0:0:0:0:
256,192,30501,1,0,0:0:0:0:
256,192,30854,1,8,0:0:0:0:
256,192,31207,1,0,0:0:0:0:
256,192,31296,1,8,0:0:0:0:
256,192,31384,1,0,0:0:0:0:
256,192,31472,1,0,0:0:0:0:
256,192,31560,1,8,0:0:0:0:
256,192,31914,1,4,0:0:0:0:
256,192,32267,1,8,0:0:0:0:
256,192,32619,1,0,0:0:0:0:
256,192,32972,1,8,0:0:0:0:
256,192,33149,1,8,0:0:0:0:
256,192,33325,1,0,0:0:0:0:
256,192,33679,1,8,0:0:0:0:
256,192,34032,1,0,0:0:0:0:
256,192,34384,1,8,0:0:0:0:
256,192,34649,1,8,0:0:0:0:
256,192,34737,1,0,0:0:0:0:
256,192,35090,1,8,0:0:0:0:
256,192,35442,1,0,0:0:0:0:
256,192,35795,1,8,0:0:0:0:
256,192,35972,1,8,0:0:0:0:
256,192,36148,1,0,0:0:0:0:
256,192,36502,1,8,0:0:0:0:
256,192,36855,1,0,0:0:0:0:
256,192,37031,1,8,0:0:0:0:
256,192,37208,1,0,0:0:0:0:
256,192,37384,1,8,0:0:0:0:
256,192,37561,1,0,0:0:0:0:
256,192,37914,1,8,0:0:0:0:
256,192,38266,1,0,0:0:0:0:
256,192,38619,1,8,0:0:0:0:
256,192,38796,1,8,0:0:0:0:
256,192,38972,1,0,0:0:0:0:
256,192,39326,1,8,0:0:0:0:
256,192,39679,1,0,0:0:0:0:
256,192,39855,1,0,0:0:0:0:
256,192,40031,1,8,0:0:0:0:
256,192,40384,1,0,0:0:0:0:
256,192,40737,1,8,0:0:0:0:
256,192,41002,1,8,0:0:0:0:
256,192,41089,1,0,0:0:0:0:
256,192,41443,1,8,0:0:0:0:
256,192,41796,1,0,0:0:0:0:
256,192,42149,1,8,0:0:0:0:
256,192,42502,1,0,0:0:0:0:
256,192,42678,1,0,0:0:0:0:
256,192,42855,1,8,0:0:0:0:
256,192,43208,1,4,0:0:0:0:
256,192,43561,1,8,0:0:0:0:
256,192,43914,1,0,0:0:0:0:
256,192,44267,1,8,0:0:0:0:
256,192,44443,1,4,0:0:0:0:
256,192,44796,1,0,0:0:0:0:
256,192,44972,1,8,0:0:0:0:
256,192,45325,1,0,0:0:0:0:
256,192,45678,1,8,0:0:0:0:
256,192,45943,1,8,0:0:0:0:
256,192,46031,1,0,0:0:0:0:
256,192,46384,1,8,0:0:0:0:
256,192,46737,1,0,0:0:0:0:
256,192,47090,1,8,0:0:0:0:
256,192,47266,1,4,0:0:0:0:
256,192,47619,1,0,0:0:0:0:
256,192,47795,1,8,0:0:0:0:
256,192,48148,1,0,0:0:0:0:
256,192,48325,1,8,0:0:0:0:
256,192,48501,1,8,0:0:0:0:
256,192,48678,1,0,0:0:0:0:
256,192,48855,1,0,0:0:0:0:
256,192,49208,1,8,0:0:0:0:
256,192,49561,1,0,0:0:0:0:
256,192,49914,1,8,0:0:0:0:
256,192,50090,1,4,0:0:0:0:
256,192,50443,1,0,0:0:0:0:
256,192,50619,1,8,0:0:0:0:
256,192,50972,1,0,0:0:0:0:
256,192,51325,1,8,0:0:0:0:
256,192,51678,1,0,0:0:0:0:
256,192,52031,1,8,0:0:0:0:
256,192,52296,1,8,0:0:0:0:
256,192,52384,1,0,0:0:0:0:
256,192,52737,1,8,0:0:0:0:
256,192,52913,1,4,0:0:0:0:
256,192,53090,1,0,0:0:0:0:
256,192,53442,1,8,0:0:0:0:
256,192,53795,1,0,0:0:0:0:
256,192,53884,1,0,0:0:0:0:
256,192,53972,1,8,0:0:0:0:
256,192,54061,1,8,0:0:0:0:
256,192,54148,1,0,0:0:0:0:
256,192,54325,1,8,0:0:0:0:
256,192,54502,1,4,0:0:0:0:
256,192,54855,1,8,0:0:0:0:
256,192,55208,1,0,0:0:0:0:
256,192,55561,1,8,0:0:0:0:
256,192,55737,1,4,0:0:0:0:
256,192,56090,1,0,0:0:0:0:
256,192,56266,1,8,0:0:0:0:
256,192,56619,1,0,0:0:0:0:
256,192,56972,1,8,0:0:0:0:
256,192,57237,1,8,0:0:0:0:
256,192,57325,1,0,0:0:0:0:
256,192,57678,1,8,0:0:0:0:
256,192,58031,1,0,0:0:0:0:
256,192,58384,1,8,0:0:0:0:
256,192,58560,1,4,0:0:0:0:
256,192,58913,1,0,0:0:0:0:
256,192,59089,1,8,0:0:0:0:
256,192,59442,1,0,0:0:0:0:
256,192,59619,1,8,0:0:0:0:
256,192,59795,1,8,0:0:0:0:
256,192,59972,1,0,0:0:0:0:
256,192,60149,1,0,0:0:0:0:
256,192,60502,1,8,0:0:0:0:
256,192,60855,1,0,0:0:0:0:
256,192,61208,1,8,0:0:0:0:
256,192,61384,1,4,0:0:0:0:
256,192,61737,1,0,0:0:0:0:
256,192,61913,1,8,0:0:0:0:
256,192,62266,1,0,0:0:0:0:
256,192,62619,1,8,0:0:0:0:
256,192,62972,1,0,0:0:0:0:
256,192,63325,1,8,0:0:0:0:
256,192,63590,1,8,0:0:0:0:
256,192,63678,1,0,0:0:0:0:
256,192,64031,1,8,0:0:0:0:
256,192,64207,1,4,0:0:0:0:
256,192,64384,1,0,0:0:0:0:
256,192,64736,1,8,0:0:0:0:
256,192,65089,1,0,0:0:0:0:
256,192,65266,1,8,0:0:0:0:
256,192,65355,1,8,0:0:0:0:
256,192,65442,1,8,0:0:0:0:
256,192,65619,1,0,0:0:0:0:
256,192,65796,1,0,0:0:0:0:
256,192,65972,1,0,0:0:0:0:
256,192,66149,1,0,0:0:0:0:
256,192,66502,1,8,0:0:0:0:
256,192,66855,1,0,0:0:0:0:
256,192,67031,1,0,0:0:0:0:
256,192,67208,1,0,0:0:0:0:
256,192,67561,1,8,0:0:0:0:
256,192,67914,1,0,0:0:0:0:
256,192,68090,1,0,0:0:0:0:
256,192,68267,1,8,0:0:0:0:
256,192,68619,1,0,0:0:0:0:
256,192,68795,1,0,0:0:0:0:
256,192,68972,1,0,0:0:0:0:
256,192,69325,1,8,0:0:0:0:
256,192,69678,1,0,0:0:0:0:
256,192,69854,1,0,0:0:0:0:
256,192,70031,1,0,0:0:0:0:
256,192,70384,1,8,0:0:0:0:
256,192,70737,1,0,0:0:0:0:
256,192,70913,1,0,0:0:0:0:
256,192,71090,1,8,0:0:0:0:
256,192,71267,1,8,0:0:0:0:
256,192,71443,1,0,0:0:0:0:
256,192,71619,1,0,0:0:0:0:
256,192,71796,1,0,0:0:0:0:
256,192,72149,1,8,0:0:0:0:
256,192,72502,1,0,0:0:0:0:
256,192,72678,1,0,0:0:0:0:
256,192,72855,1,0,0:0:0:0:
256,192,73208,1,8,0:0:0:0:
256,192,73561,1,0,0:0:0:0:
256,192,73737,1,0,0:0:0:0:
256,192,73914,1,8,0:0:0:0:
256,192,74266,1,0,0:0:0:0:
256,192,74442,1,0,0:0:0:0:
256,192,74619,1,0,0:0:0:0:
256,192,74972,1,8,0:0:0:0:
256,192,75325,1,0,0:0:0:0:
256,192,75501,1,0,0:0:0:0:
256,192,75678,1,0,0:0:0:0:
256,192,76031,1,8,0:0:0:0:
256,192,76384,1,0,0:0:0:0:
256,192,76560,1,8,0:0:0:0:
256,192,76737,1,0,0:0:0:0:
256,192,76914,1,8,0:0:0:0:
256,192,77090,1,4,0:0:0:0:
256,192,77443,1,8,0:0:0:0:
256,192,77619,1,4,0:0:0:0:
256,192,77972,1,0,0:0:0:0:
256,192,78149,1,8,0:0:0:0:
256,192,78325,1,4,0:0:0:0:
256,192,78678,1,0,0:0:0:0:
256,192,78855,1,8,0:0:0:0:
256,192,79031,1,4,0:0:0:0:
256,192,79384,1,0,0:0:0:0:
256,192,79561,1,8,0:0:0:0:
256,192,79737,1,8,0:0:0:0:
256,192,79825,1,8,0:0:0:0:
256,192,79914,1,0,0:0:0:0:
256,192,80267,1,8,0:0:0:0:
256,192,80443,1,4,0:0:0:0:
256,192,80796,1,0,0:0:0:0:
256,192,80972,1,8,0:0:0:0:
256,192,81149,1,4,0:0:0:0:
256,192,81502,1,0,0:0:0:0:
256,192,81678,1,8,0:0:0:0:
256,192,81855,1,4,0:0:0:0:
256,192,82208,1,0,0:0:0:0:
256,192,82296,1,0,0:0:0:0:
256,192,82384,1,8,0:0:0:0:
256,192,82561,1,8,0:0:0:0:
256,192,82649,1,8,0:0:0:0:
256,192,83090,1,8,0:0:0:0:
256,192,83619,1,8,0:0:0:0:
256,192,84149,1,8,0:0:0:0:
256,192,84502,1,0,0:0:0:0:
256,192,84855,1,8,0:0:0:0:
256,192,85384,1,8,0:0:0:0:
256,192,85914,1,8,0:0:0:0:
256,192,86267,1,0,0:0:0:0:
256,192,86619,1,8,0:0:0:0:
256,192,87678,1,8,0:0:0:0:
