osu file format v12

[General]
AudioFilename: God only knows -Secrets of the Goddess- (Extract).mp3
AudioLeadIn: 1500
PreviewTime: 54502
Countdown: 0
SampleSet: Soft
StackLeniency: 0.3
Mode: 0
LetterboxInBreaks: 1
WidescreenStoryboard: 1

[Editor]
DistanceSpacing: 1.4
BeatDivisor: 4
GridSize: 8
TimelineZoom: 1

[Metadata]
Title:God only knows -Secrets of the Goddess- (Extract)
TitleUnicode:God only knows -Secrets of the Goddess- (Extract)
Artist:Oratorio The World God Only Knows
ArtistUnicode:Oratorio The World God Only Knows
Creator:No_Gu
Version:Insane
Source:Kami Nomi zo Shiru Sekai Megami-hen
Tags:神のみぞ知るセカイ 女神篇 早見沙織 Hayami Saori The World God Only Knows alacat Azure KanaRin climbb65588
BeatmapID:274938
BeatmapSetID:104610

[Difficulty]
HPDrainRate:8
CircleSize:4
OverallDifficulty:8
ApproachRate:9
SliderMultiplier:1.6
SliderTickRate:1

[Events]
//Background and Video events
Video,-485,"video.avi"
0,0,"BG.jpg",0,0
//Break Periods
//Storyboard Layer 0 (Background)
//Storyboard Layer 1 (Fail)
//Storyboard Layer 2 (Pass)
//Storyboard Layer 3 (Foreground)
//Storyboard Sound Samples
//Background Colour Transformations
3,100,163,162,255

[TimingPoints]
760,413.793103448276,3,2,1,50,1,0
760,-133.333333333333,3,2,1,50,0,0
9449,-133.333333333333,3,2,1,25,0,0
9553,-133.333333333333,3,2,1,50,0,0
14828,-133.333333333333,3,2,1,25,0,0
15656,-133.333333333333,3,2,1,50,0,0
19173,-133.333333333333,3,2,1,15,0,0
20620,352.941176470588,4,2,1,50,1,0
31914,-100,4,2,1,60,0,0
42502,-100,4,2,1,30,0,0
43208,-100,4,2,1,70,0,1
48325,-100,4,2,1,50,0,1
48502,-100,4,2,1,70,0,1
54414,-100,4,2,1,70,0,0
54502,-100,4,2,1,70,0,1
59619,-100,4,2,1,50,0,1
59796,-100,4,2,1,70,0,1
65796,-133.333333333333,4,2,1,70,0,0
77090,-100,4,2,1,70,0,0
83090,352.941176470588,5,2,1,70,1,0

[Colours]
Combo1 : 128,255,128
Combo2 : 255,255,128
Combo3 : 255,128,128
Combo4 : 128,255,255

[HitObjects]
64,112,760,6,0,P|120:112|168:72,1,120.000004577637,4|2,0:2|0:0,0:0:0:0:
176,40,1794,1,2,0:0:0:0:
160,184,2001,2,0,L|144:312,1,120.000004577637,2|0,0:0|1:0,0:0:0:0:
192,376,2622,1,0,1:0:0:0:
232,304,2828,2,0,L|296:304,1,60.0000022888184,0|0,1:0|1:0,0:0:0:0:
352,152,3242,6,0,P|384:216|352:272,1,120.000004577637,0|2,0:0|0:0,0:0:0:0:
296,216,3863,1,0,0:0:0:0:
392,80,4070,6,0,L|512:88,2,120.000004577637,0|2|0,0:0|0:0|0:0,0:0:0:0:
96,144,5311,2,0,L|104:256,1,90.0000034332277,2|0,0:0|0:0,0:0:0:0:
160,280,5725,6,0,P|224:288|288:240,1,120.000004577637,0|2,0:0|0:0,0:0:0:0:
288,232,6760,1,0,0:0:0:0:
360,352,6966,6,0,L|368:232,1,120.000004577637,2|0,0:0|0:0,0:0:0:0:
440,176,7587,1,2,0:0:0:0:
360,144,7794,2,0,L|296:152,1,60.0000022888184,0|0,0:0|0:0,0:0:0:0:
200,8,8208,6,0,P|232:64|216:128,1,120.000004577637,2|0,0:0|0:0,0:0:0:0:
88,168,8932,1,0,0:0:0:0:
112,192,9035,2,0,L|232:200,2,120.000004577637,0|8|0,0:0|0:3|0:0,0:0:0:0:
88,168,9966,1,0,0:0:0:0:
64,144,10070,1,0,0:0:0:0:
40,120,10174,1,0,0:0:0:0:
144,344,10691,6,0,P|192:320|256:328,1,120.000004577637,4|2,0:0|0:0,0:0:0:0:
288,352,11725,1,0,0:0:0:0:
384,280,11932,2,0,L|368:160,1,120.000004577637,2|0,0:0|1:0,0:0:0:0:
360,72,12553,1,0,1:0:0:0:
280,128,12760,2,0,L|216:120,1,60.0000022888184,0|0,1:0|1:0,0:0:0:0:
176,200,13173,6,0,L|295:214,1,120.000004577637,2|0,0:0|0:0,0:0:0:0:
400,376,14001,2,0,L|280:361,1,120.000004577637,0|2,0:0|0:0,0:0:0:0:
112,200,14828,6,0,L|120:168,3,20.0000007629395,0|0|0|0,1:0|1:0|1:0|1:0,0:0:0:0:
112,96,15242,1,0,1:0:0:0:
40,40,15449,1,0,1:0:0:0:
200,56,15656,2,0,L|328:52,1,120.000004577637,2|0,0:0|0:0,0:0:0:0:
352,48,16691,1,0,0:0:0:0:
304,136,16897,6,0,P|304:200|360:256,1,120.000004577637,2|0,0:0|0:0,0:0:0:0:
144,336,17725,2,0,P|112:328|88:312,1,60.0000022888184,2|0,0:0|0:0,0:0:0:0:
40,224,18139,6,0,L|56:104,1,120.000004577637,0|2,0:0|0:0,0:0:0:0:
201,253,18966,1,0,0:0:0:0:
204,282,19069,1,2,0:0:0:0:
208,312,19173,2,0,L|212:334,2,15.0000005722046,0|0|0,1:0|1:0|1:0,0:0:0:0:
256,192,20620,5,4,1:2:0:0:
256,192,21855,5,0,1:0:0:0:
144,72,22031,1,4,1:2:0:0:
144,72,23443,5,4,1:2:0:0:
144,72,24678,5,0,1:0:0:0:
256,192,24855,1,4,1:2:0:0:
256,192,26267,6,0,P|336:208|400:160,1,160,4|8,0:0|0:0,0:0:0:0:
400,72,26797,1,0,0:0:0:0:
448,248,26973,2,0,L|472:328,1,80
328,368,27325,1,8,0:0:0:0:
192,304,27502,1,0,0:0:0:0:
192,304,27590,1,0,1:0:0:0:
192,304,27678,6,0,P|112:296|48:352,1,160,4|8,0:0|0:0,0:0:0:0:
48,192,28208,1,0,0:0:0:0:
40,160,28296,1,0,0:0:0:0:
32,128,28384,1,0,0:0:0:0:
24,96,28472,1,0,0:0:0:0:
16,64,28561,1,0,0:0:0:0:
144,96,28737,2,0,P|200:96|232:80,1,80,8|0,0:0|0:0,0:0:0:0:
344,48,29090,6,0,P|316:96|313:132,1,80,0|0,1:0|0:0,0:0:0:0:
288,240,29443,2,0,P|260:191|230:171,1,80,8|0,0:0|0:0,0:0:0:0:
168,176,29708,1,8,0:0:0:0:
168,176,29796,2,0,L|88:184,1,80,4|0,0:0|0:0,0:0:0:0:
40,328,30149,1,8,0:0:0:0:
184,360,30325,1,0,0:0:0:0:
184,360,30414,1,0,1:0:0:0:
184,360,30502,6,0,L|232:352,3,40
280,288,30855,2,0,L|328:280,3,40,8|0|0|0,0:0|0:0|0:0|0:0,0:0:0:0:
376,216,31208,2,0,L|424:208,3,40,2|0|0|0,0:0|0:0|0:0|0:0,0:0:0:0:
472,144,31561,2,0,L|520:136,3,40,10|0|0|0,0:0|0:0|0:0|0:0,0:0:0:0:
384,128,31914,6,0,P|352:72|360:8,1,120,4|0,0:0|0:0,0:0:0:0:
272,40,32267,2,0,L|192:32,1,80,8|0,0:0|0:0,0:0:0:0:
120,168,32619,2,0,L|200:176,1,80,2|0,0:0|0:0,0:0:0:0:
304,288,32972,2,0,P|272:312|232:320,1,80,8|0,0:2|1:0,0:0:0:0:
152,264,33325,5,2,0:0:0:0:
312,200,33502,1,0,0:0:0:0:
472,264,33678,2,0,P|480:224|472:184,1,80,8|0,0:0|0:0,0:0:0:0:
313,83,34031,1,2,0:0:0:0:
305,112,34119,1,0,0:0:0:0:
301,141,34207,1,0,0:0:0:0:
304,171,34295,1,0,0:0:0:0:
312,200,34384,2,8,P|328:272|304:344,1,120
248,352,34737,6,0,L|168:344,1,80,2|0,0:0|0:0,0:0:0:0:
96,200,35090,2,0,L|176:208,1,80,8|0,0:0|0:0,0:0:0:0:
263,75,35443,1,2,0:0:0:0:
243,73,35531,1,0,0:0:0:0:
224,72,35619,1,0,0:0:0:0:
204,70,35707,1,0,0:0:0:0:
184,68,35795,1,8,0:2:0:0:
304,176,35972,1,0,1:0:0:0:
464,152,36149,6,0,P|496:96|472:0,1,160,2|8,0:0|0:0,0:0:0:0:
328,80,36678,2,0,L|408:72,1,80,0|0,0:0|1:0,0:0:0:0:
272,160,37031,2,8,L|292:158,2,20
200,176,37208,1,0,1:0:0:0:
32,312,37384,2,8,L|12:310,2,20
104,288,37561,6,0,B|128:264|128:264|144:216|112:176,1,120,2|0,0:0|0:0,0:0:0:0:
64,120,37914,2,0,L|144:104,1,80,8|0,0:0|0:0,0:0:0:0:
272,160,38267,2,0,P|296:240|248:312,1,160,2|8,0:0|0:0,0:0:0:0:
208,224,38796,1,0,1:0:0:0:
328,88,38972,6,0,P|384:88|408:104,1,80,2|0,0:0|0:0,0:0:0:0:
384,224,39325,2,0,P|412:272|410:301,1,80,8|0,0:0|0:0,0:0:0:0:
288,320,39678,2,0,P|260:368|234:381,1,80,2|0,0:0|0:0,0:0:0:0:
120,296,40031,1,8,0:0:0:0:
168,160,40208,1,0,0:0:0:0:
168,160,40296,1,0,0:0:0:0:
168,160,40384,6,0,P|224:152|280:192,1,120,2|0,0:0|0:0,0:0:0:0:
344,152,40737,2,0,P|352:128|344:72,1,80,8|0,0:0|0:0,0:0:0:0:
392,16,41002,1,8,0:0:0:0:
392,16,41090,2,0,L|488:24,1,80,2|0,0:0|0:0,0:0:0:0:
512,168,41443,2,0,L|432:161,1,80,8|0,0:0|0:0,0:0:0:0:
115,291,41796,5,2,0:0:0:0:
142,294,41884,1,0,0:0:0:0:
168,296,41972,1,2,0:0:0:0:
195,298,42060,1,0,0:0:0:0:
232,280,42149,1,10,0:0:0:0:
259,283,42237,1,0,0:0:0:0:
285,285,42325,1,2,0:0:0:0:
312,287,42413,1,0,0:0:0:0:
352,264,42502,5,8,0:0:0:0:
370,240,42590,1,8,0:0:0:0:
383,213,42679,1,8,0:0:0:0:
391,184,42767,1,8,0:0:0:0:
394,154,42855,1,8,0:0:0:0:
391,125,42944,1,8,0:0:0:0:
382,96,43032,1,8,0:0:0:0:
368,69,43120,1,8,0:0:0:0:
352,48,43209,6,0,B|280:40|192:48,1,160,4|8,1:2|0:0,0:0:0:0:
80,168,43737,1,0,0:0:0:0:
80,168,43825,1,0,0:0:0:0:
80,168,43914,1,0,1:0:0:0:
240,208,44090,2,0,P|248:160|248:128,1,80,0|8,0:0|0:0,0:0:0:0:
152,224,44443,6,0,L|64:208,1,80,4|0,0:0|1:0,0:0:0:0:
328,224,44796,2,0,L|416:240,1,80,0|8,0:0|0:0,0:0:0:0:
176,304,45149,2,0,L|88:320,1,80,2|0,0:0|1:0,0:0:0:0:
312,144,45502,2,0,L|400:128,1,80,0|8,0:0|0:0,0:0:0:0:
224,248,45855,1,0,0:0:0:0:
224,248,45943,1,8,0:0:0:0:
224,248,46031,6,0,P|184:184|200:104,1,160,0|8,1:0|0:0,0:0:0:0:
280,56,46561,1,0,0:0:0:0:
104,104,46737,2,0,L|16:88,1,80,0|0,1:0|0:0,0:0:0:0:
88,232,47090,1,8,0:0:0:0:
232,168,47267,6,0,P|304:176|320:192,1,80,4|0,0:0|1:0,0:0:0:0:
328,24,47620,2,0,P|357:90|351:112,1,80,0|8,0:0|0:0,0:0:0:0:
512,64,47973,2,0,P|469:122|447:128,1,80,0|0,0:0|1:0,0:0:0:0:
272,144,48326,2,0,P|204:117|193:98,1,80,8|8,0:0|0:0,0:0:0:0:
272,56,48679,1,0,0:0:0:0:
312,224,48856,6,0,P|216:232|128:192,1,160,2|8,1:2|0:0,0:0:0:0:
96,128,49385,1,0,0:0:0:0:
96,128,49473,1,0,0:0:0:0:
96,128,49562,1,0,1:0:0:0:
144,40,49738,1,0,0:0:0:0:
0,144,49915,1,8,0:0:0:0:
192,120,50091,6,0,L|272:128,1,80,4|0,0:0|1:0,0:0:0:0:
336,256,50444,2,0,L|416:264,1,80,0|8,0:0|0:0,0:0:0:0:
240,352,50797,2,0,L|160:344,1,80,0|0,0:0|1:0,0:0:0:0:
72,192,51150,2,0,L|152:200,1,80,0|8,0:0|0:0,0:0:0:0:
304,144,51503,1,0,0:0:0:0:
304,144,51591,1,0,0:0:0:0:
304,144,51679,6,0,P|328:88|312:24,1,120,2|0,1:2|0:0,0:0:0:0:
240,16,52032,1,8,0:0:0:0:
352,216,52209,1,8,0:0:0:0:
352,216,52297,2,0,L|472:208,1,120,0|0,1:0|0:0,0:0:0:0:
344,320,52738,2,0,P|304:312|272:280,1,80,8|2,0:0|0:0,0:0:0:0:
224,128,53091,6,0,L|216:216,1,80,0|0,1:0|0:0,0:0:0:0:
48,96,53443,2,0,L|55:16,1,80,8|8,0:0|0:0,0:0:0:0:
128,48,53708,1,0,0:0:0:0:
200,16,53796,2,0,L|248:8,3,40,0|0|8|0,1:2|0:0|1:2|1:0,0:0:0:0:
352,48,54149,2,0,L|312:54,3,40,0|0|8|0,1:2|0:0|1:2|1:0,0:0:0:0:
256,120,54502,6,0,P|248:200|304:272,1,160,4|8,1:2|0:0,0:0:0:0:
344,176,55031,1,0,0:0:0:0:
344,176,55119,1,0,0:0:0:0:
344,176,55208,1,0,1:0:0:0:
200,304,55384,2,0,P|136:304|120:296,1,80,0|8,0:0|0:0,0:0:0:0:
64,168,55737,6,0,L|144:184,1,80,4|0,0:0|1:0,0:0:0:0:
360,120,56090,2,0,L|281:104,1,80,0|8,0:0|0:0,0:0:0:0:
240,296,56443,2,0,L|256:216,1,80,0|0,0:0|1:0,0:0:0:0:
192,0,56796,2,0,L|176:78,1,80,0|8,0:0|0:0,0:0:0:0:
280,256,57149,1,0,0:0:0:0:
280,256,57237,1,8,0:0:0:0:
280,256,57325,6,0,P|328:288|392:272,1,120,0|0,1:0|0:0,0:0:0:0:
432,216,57678,2,0,L|520:232,1,80,8|0,0:0|0:0,0:0:0:0:
320,360,58031,2,0,L|232:344,1,80,0|0,1:0|0:0,0:0:0:0:
184,256,58384,1,8,0:0:0:0:
248,168,58561,6,0,P|264:144|256:80,1,80,4|0,0:0|1:0,0:0:0:0:
120,64,58914,2,0,P|132:89|192:114,1,80,0|8,0:0|0:0,0:0:0:0:
272,8,59267,2,0,P|243:6|191:45,1,80,0|0,0:0|1:0,0:0:0:0:
144,200,59619,1,8,0:0:0:0:
272,328,59796,2,0,L|352:320,1,80,8|0,0:0|0:0,0:0:0:0:
472,192,60149,6,0,P|400:176|344:240,1,160,2|8,1:0|0:0,0:0:0:0:
432,264,60678,1,0,0:0:0:0:
432,264,60767,1,0,0:0:0:0:
432,264,60855,1,0,1:0:0:0:
336,120,61031,2,0,P|328:64|336:32,1,80,0|8,0:0|0:0,0:0:0:0:
256,176,61384,6,0,L|176:168,1,80,4|0,0:0|1:0,0:0:0:0:
80,312,61737,2,0,L|160:320,1,80,0|8,0:0|0:0,0:0:0:0:
280,152,62090,2,0,L|200:144,1,80,0|0,0:0|1:0,0:0:0:0:
56,336,62443,2,0,L|136:344,1,80,0|8,0:0|0:0,0:0:0:0:
320,304,62796,1,0,0:0:0:0:
320,304,62884,1,0,0:0:0:0:
320,304,62972,6,0,P|352:240|336:192,1,120,2|0,1:0|0:0,0:0:0:0:
280,152,63325,1,8,0:0:0:0:
168,264,63502,1,0,0:0:0:0:
168,264,63590,1,8,0:0:0:0:
168,264,63678,2,0,P|112:272|72:264,1,80,0|0,1:0|0:0,0:0:0:0:
64,120,64031,2,0,P|120:112|160:120,1,80,8|2,0:0|0:0,0:0:0:0:
288,184,64384,6,0,L|280:272,1,80,0|0,1:0|0:0,0:0:0:0:
448,200,64737,2,0,L|455:120,1,80,8|0,0:0|0:0,0:0:0:0:
408,64,65002,1,0,0:0:0:0:
336,72,65090,2,0,L|296:64,3,40,0|0|4|0,1:0|0:0|0:0|0:0,0:0:0:0:
184,96,65443,2,0,L|224:104,3,40,12|0|0|0,1:2|0:0|1:2|0:0,0:0:0:0:
264,176,65796,5,0,1:0:0:0:
304,280,65972,1,0,1:0:0:0:
216,352,66149,2,0,P|160:368|96:328,1,120.000004577637,8|0,1:2|0:0,0:0:0:0:
96,312,66855,1,0,1:0:0:0:
168,232,67032,1,0,1:0:0:0:
144,128,67208,5,0,1:0:0:0:
144,128,67561,1,8,0:2:0:0:
144,128,67914,1,0,1:0:0:0:
240,112,68090,1,0,1:0:0:0:
336,96,68267,1,0,1:2:0:0:
336,96,68619,5,0,1:0:0:0:
240,112,68796,1,0,1:0:0:0:
144,128,68972,2,0,P|80:120|48:72,1,120.000004577637,8|0,1:2|0:0,0:0:0:0:
40,48,69678,1,0,1:0:0:0:
72,208,69855,1,0,1:0:0:0:
232,184,70031,6,0,L|360:192,1,120.000004577637,0|8,1:2|0:0,0:0:0:0:
432,144,70561,2,0,P|440:112|432:80,1,60.0000022888184,0|0,0:0|1:0,0:0:0:0:
320,264,70914,2,0,L|334:265,2,15.0000005722046,8|8|8,0:0|0:0|0:0,0:0:0:0:
248,256,71090,1,0,1:0:0:0:
104,336,71267,2,8,L|89:337,2,15.0000005722046,8|8|8,0:0|0:0|0:0,0:0:0:0:
176,328,71443,5,0,1:0:0:0:
248,256,71619,1,0,1:0:0:0:
208,160,71796,2,0,P|192:120|208:64,1,90.0000034332277,8|0,0:0|0:0,0:0:0:0:
232,48,72149,2,0,L|296:56,1,60.0000022888184
408,224,72502,1,0,1:0:0:0:
360,152,72678,2,0,L|300:144,1,60.0000022888184,0|0,1:0|1:0,0:0:0:0:
300,144,73208,5,8,0:0:0:0:
300,144,73561,1,0,1:0:0:0:
200,80,73737,1,0,1:0:0:0:
192,200,73914,1,0,1:0:0:0:
192,200,74267,5,0,1:0:0:0:
200,80,74444,1,0,1:0:0:0:
300,144,74619,2,0,P|352:152|416:120,1,120.000004577637,8|0,1:2|0:0,0:0:0:0:
456,40,75149,1,0,0:0:0:0:
504,120,75325,2,0,L|496:192,1,60.0000022888184,0|0,1:0|1:0,0:0:0:0:
424,336,75678,6,0,L|408:192,2,120.000004577637,0|8|0,1:0|0:0|1:0,0:0:0:0:
192,280,76561,2,8,L|194:298,2,15.0000005722046
184,208,76737,1,0,1:0:0:0:
288,48,76914,2,8,L|290:30,2,15.0000005722046
280,120,77090,6,0,P|280:160|304:200,1,80,4|0,1:2|0:0,0:0:0:0:
368,136,77443,1,8,0:0:0:0:
208,72,77619,2,0,P|128:80|88:152,1,160,4|0,1:2|1:2,0:0:0:0:
96,264,78149,1,8,0:0:0:0:
184,344,78325,6,0,P|264:336|304:264,1,160,4|0,1:2|1:2,0:0:0:0:
208,64,78855,1,8,0:0:0:0:
24,176,79031,2,0,B|80:200|120:160|120:160|152:168|168:192,1,160,4|0,1:2|1:0,0:0:0:0:
248,360,79561,1,8,0:0:0:0:
250,327,79649,1,0,0:0:0:0:
253,294,79737,1,8,0:0:0:0:
256,261,79825,1,8,0:0:0:0:
259,228,79914,6,0,L|248:144,1,80,4|0,1:2|0:0,0:0:0:0:
160,104,80267,1,8,0:0:0:0:
344,128,80443,2,0,P|416:112|440:32,1,160,4|0,1:2|1:0,0:0:0:0:
352,40,80972,1,8,0:0:0:0:
336,216,81149,6,0,L|360:296,1,80,4|0,1:2|0:0,0:0:0:0:
232,352,81502,2,0,L|209:275,1,80,0|8,1:0|0:0,0:0:0:0:
72,272,81855,2,0,L|96:352,1,80,4|0,1:2|0:0,0:0:0:0:
144,168,82208,1,0,1:0:0:0:
150,145,82296,1,0,1:0:0:0:
157,122,82384,1,8,0:0:0:0:
164,99,82472,1,2,0:0:0:0:
171,76,82560,1,0,1:0:0:0:
178,53,82649,1,8,0:0:0:0:
