osu file format v12

[General]
AudioFilename: God only knows -Secrets of the Goddess- (Extract).mp3
AudioLeadIn: 1500
PreviewTime: 54502
Countdown: 0
SampleSet: None
StackLeniency: 0.3
Mode: 1
LetterboxInBreaks: 1
WidescreenStoryboard: 1

[Editor]
DistanceSpacing: 1.4
BeatDivisor: 4
GridSize: 8
TimelineZoom: 1

[Metadata]
Title:God only knows -Secrets of the Goddess- (Extract)
TitleUnicode:God only knows -Secrets of the Goddess- (Extract)
Artist:Oratorio The World God Only Knows
ArtistUnicode:Oratorio The World God Only Knows
Creator:No_Gu
Version:Inner
Source:Kami Nomi zo Shiru Sekai Megami-hen
Tags:神のみぞ知るセカイ 女神篇 早見沙織 Hayami Saori The World God Only Knows alacat Azure KanaRin climbb65588
BeatmapID:404294
BeatmapSetID:104610

[Difficulty]
HPDrainRate:5
CircleSize:4
OverallDifficulty:5
ApproachRate:5
SliderMultiplier:1.4
SliderTickRate:1

[Events]
//Background and Video events
0,0,"BG.jpg",0,150
//Break Periods
//Storyboard Layer 0 (Background)
//Storyboard Layer 1 (Fail)
//Storyboard Layer 2 (Pass)
//Storyboard Layer 3 (Foreground)
//Storyboard Sound Samples
//Background Colour Transformations
3,100,163,162,255

[TimingPoints]
760,413.793103448276,3,1,0,70,1,0
760,-133.333333333333,3,1,0,70,0,0
20620,352.941176470588,4,1,0,70,1,0
31914,-100,4,1,0,70,0,0
42502,-100,4,1,0,70,0,0
43208,-80,4,1,0,70,0,1
65796,-100,4,1,0,70,0,0
77090,-100,4,1,0,70,0,0
83090,352.941176470588,5,1,0,70,1,0

[HitObjects]
256,176,760,5,4,0:0:0:0:
128,128,1173,1,8,0:0:0:0:
136,112,1242,1,8,0:0:0:0:
112,120,1311,1,8,0:0:0:0:
112,120,1380,1,8,0:0:0:0:
136,112,1794,1,8,0:0:0:0:
336,152,2001,1,0,0:0:0:0:
216,88,2415,1,4,0:0:0:0:
264,112,2622,1,4,0:0:0:0:
264,112,2828,1,4,0:0:0:0:
376,112,3035,1,4,0:0:0:0:
304,120,3242,1,4,0:0:0:0:
424,184,3656,1,8,0:0:0:0:
296,120,4070,1,8,0:0:0:0:
280,120,4139,1,8,0:0:0:0:
256,128,4208,1,8,0:0:0:0:
232,128,4277,1,8,0:0:0:0:
208,136,4346,1,8,0:0:0:0:
184,136,4415,1,8,0:0:0:0:
160,136,4484,1,0,0:0:0:0:
56,80,4897,1,8,0:0:0:0:
232,128,5311,1,8,0:0:0:0:
232,128,5518,1,8,0:0:0:0:
232,128,5725,1,0,0:0:0:0:
240,104,6139,1,8,0:0:0:0:
456,160,6760,1,8,0:0:0:0:
432,152,6828,1,8,0:0:0:0:
408,152,6897,1,8,0:0:0:0:
384,152,6966,1,0,0:0:0:0:
240,112,7380,1,8,0:0:0:0:
104,80,7794,1,8,0:0:0:0:
248,112,8208,1,0,0:0:0:0:
120,80,8622,1,0,0:0:0:0:
248,152,9035,1,8,0:0:0:0:
120,88,9242,1,8,0:0:0:0:
144,96,9311,1,8,0:0:0:0:
160,112,9380,1,8,0:0:0:0:
168,136,9449,1,0,0:0:0:0:
312,160,9863,1,8,0:0:0:0:
312,160,10277,1,8,0:0:0:0:
304,184,10346,1,8,0:0:0:0:
288,208,10415,1,8,0:0:0:0:
280,232,10484,1,8,0:0:0:0:
288,208,10553,1,8,0:0:0:0:
264,208,10622,1,8,0:0:0:0:
472,144,10691,1,0,0:0:0:0:
472,144,11104,1,8,0:0:0:0:
400,128,11311,1,8,0:0:0:0:
240,120,11725,1,8,0:0:0:0:
264,120,11794,1,8,0:0:0:0:
288,128,11863,1,8,0:0:0:0:
312,128,11932,1,0,0:0:0:0:
176,64,12346,1,12,0:0:0:0:
240,120,12553,1,12,0:0:0:0:
240,120,12760,1,12,0:0:0:0:
176,152,12966,1,8,0:0:0:0:
352,208,13173,1,0,0:0:0:0:
248,104,13587,1,0,0:0:0:0:
328,112,13794,1,8,0:0:0:0:
280,280,14208,1,8,0:0:0:0:
288,256,14415,1,0,0:0:0:0:
136,184,14828,1,8,0:0:0:0:
112,176,14897,1,8,0:0:0:0:
112,152,14966,1,8,0:0:0:0:
112,152,15035,1,8,0:0:0:0:
184,136,15242,1,0,0:0:0:0:
248,120,15449,1,8,0:0:0:0:
248,120,15656,1,0,0:0:0:0:
112,88,16070,1,8,0:0:0:0:
232,96,16484,1,8,0:0:0:0:
280,96,16553,1,8,0:0:0:0:
296,120,16622,1,8,0:0:0:0:
296,120,16691,1,8,0:0:0:0:
200,136,16897,1,0,0:0:0:0:
344,144,17311,1,8,0:0:0:0:
200,120,17725,1,8,0:0:0:0:
264,128,17932,1,8,0:0:0:0:
328,144,18139,1,0,0:0:0:0:
208,64,18553,1,8,0:0:0:0:
328,144,18966,1,8,0:0:0:0:
312,128,19035,1,8,0:0:0:0:
312,128,19104,1,8,0:0:0:0:
312,128,19173,1,8,0:0:0:0:
312,128,19242,1,8,0:0:0:0:
312,128,19311,1,8,0:0:0:0:
288,120,19380,1,0,0:0:0:0:
312,248,20620,5,4,0:0:0:0:
248,232,21855,1,0,0:0:0:0:
368,240,22031,1,4,0:0:0:0:
368,216,23443,1,4,0:0:0:0:
168,160,24678,1,0,0:0:0:0:
320,224,24855,1,4,0:0:0:0:
440,280,26267,5,4,0:0:0:0:
352,288,26443,1,0,0:0:0:0:
171,151,26531,1,0,0:0:0:0:
344,336,26619,1,8,0:0:0:0:
322,288,26796,1,8,0:0:0:0:
374,267,26884,1,8,0:0:0:0:
328,208,26972,1,0,0:0:0:0:
121,180,27061,1,0,0:0:0:0:
341,284,27149,1,0,0:0:0:0:
269,277,27325,1,8,0:0:0:0:
231,337,27502,1,8,0:0:0:0:
480,264,27678,1,4,0:0:0:0:
306,304,27855,1,0,0:0:0:0:
306,304,27943,1,0,0:0:0:0:
384,175,28031,1,8,0:0:0:0:
408,256,28208,1,0,0:0:0:0:
288,280,28296,1,8,0:0:0:0:
288,280,28384,1,0,0:0:0:0:
307,305,28561,1,0,0:0:0:0:
314,263,28737,1,8,0:0:0:0:
394,195,28825,1,8,0:0:0:0:
263,284,28914,1,8,0:0:0:0:
344,264,29002,1,8,0:0:0:0:
344,264,29090,1,0,0:0:0:0:
330,262,29267,1,0,0:0:0:0:
371,182,29443,1,8,0:0:0:0:
255,321,29619,1,8,0:0:0:0:
337,173,29708,1,8,0:0:0:0:
295,333,29796,1,0,0:0:0:0:
328,235,29972,1,0,0:0:0:0:
360,258,30149,1,8,0:0:0:0:
331,218,30325,1,8,0:0:0:0:
328,235,30414,1,8,0:0:0:0:
256,290,30502,1,0,0:0:0:0:
278,260,30678,1,0,0:0:0:0:
245,277,30767,1,0,0:0:0:0:
275,286,30855,5,8,0:0:0:0:
283,281,31031,1,0,0:0:0:0:
230,236,31119,1,0,0:0:0:0:
352,240,31208,1,0,0:0:0:0:
352,240,31296,1,8,0:0:0:0:
348,307,31384,1,0,0:0:0:0:
373,271,31561,1,8,0:0:0:0:
120,136,31737,1,8,0:0:0:0:
205,184,31914,5,0,0:0:0:0:
192,160,32090,1,0,0:0:0:0:
160,128,32178,1,0,0:0:0:0:
112,80,32267,1,8,0:0:0:0:
200,128,32443,1,8,0:0:0:0:
160,104,32531,1,8,0:0:0:0:
160,104,32619,1,0,0:0:0:0:
216,152,32708,1,0,0:0:0:0:
160,128,32796,1,0,0:0:0:0:
72,128,32972,1,8,0:0:0:0:
144,160,33149,1,8,0:0:0:0:
160,104,33325,1,0,0:0:0:0:
160,104,33414,1,0,0:0:0:0:
160,104,33502,1,0,0:0:0:0:
160,104,33590,1,0,0:0:0:0:
160,104,33678,1,8,0:0:0:0:
72,152,33855,1,8,0:0:0:0:
112,128,33943,1,8,0:0:0:0:
160,112,34031,1,0,0:0:0:0:
160,104,34119,1,8,0:0:0:0:
160,104,34208,1,0,0:0:0:0:
240,160,34384,1,8,0:0:0:0:
144,128,34561,1,0,0:0:0:0:
72,152,34649,1,8,0:0:0:0:
120,152,34737,1,0,0:0:0:0:
168,136,34825,1,0,0:0:0:0:
168,136,34914,1,0,0:0:0:0:
144,128,35090,1,8,0:0:0:0:
192,128,35178,1,8,0:0:0:0:
192,128,35267,1,8,0:0:0:0:
192,128,35355,1,8,0:0:0:0:
192,128,35443,1,0,0:0:0:0:
192,128,35531,1,0,0:0:0:0:
192,128,35619,1,0,0:0:0:0:
112,184,35796,1,8,0:0:0:0:
192,128,35972,1,8,0:0:0:0:
232,104,36061,1,8,0:0:0:0:
192,128,36149,1,0,0:0:0:0:
168,136,36325,1,0,0:0:0:0:
168,136,36502,1,8,0:0:0:0:
144,128,36590,1,8,0:0:0:0:
112,88,36678,1,8,0:0:0:0:
112,88,36767,1,8,0:0:0:0:
112,88,36855,1,0,0:0:0:0:
232,104,36943,1,0,0:0:0:0:
112,88,37031,1,8,0:0:0:0:
96,40,37208,1,0,0:0:0:0:
192,128,37296,1,0,0:0:0:0:
192,128,37384,1,8,0:0:0:0:
248,208,37561,1,0,0:0:0:0:
240,176,37649,1,0,0:0:0:0:
192,96,37737,1,0,0:0:0:0:
168,56,37825,1,0,0:0:0:0:
224,48,37914,1,8,0:0:0:0:
144,128,38090,1,8,0:0:0:0:
168,96,38178,1,8,0:0:0:0:
144,136,38267,1,0,0:0:0:0:
216,208,38443,1,0,0:0:0:0:
168,96,38619,1,8,0:0:0:0:
168,96,38796,1,0,0:0:0:0:
168,96,38884,1,8,0:0:0:0:
208,128,38972,1,0,0:0:0:0:
208,128,39061,1,0,0:0:0:0:
208,128,39149,1,0,0:0:0:0:
120,96,39325,1,8,0:0:0:0:
168,96,39414,1,8,0:0:0:0:
168,96,39502,1,8,0:0:0:0:
168,96,39590,1,8,0:0:0:0:
264,112,39678,1,0,0:0:0:0:
256,168,39767,1,0,0:0:0:0:
264,112,39855,1,0,0:0:0:0:
232,120,39943,1,0,0:0:0:0:
248,32,40031,1,8,0:0:0:0:
176,80,40208,1,8,0:0:0:0:
136,104,40296,1,8,0:0:0:0:
96,128,40384,1,0,0:0:0:0:
176,152,40561,1,0,0:0:0:0:
112,120,40737,1,8,0:0:0:0:
160,128,40825,1,0,0:0:0:0:
160,128,40914,1,0,0:0:0:0:
160,128,41090,1,8,0:0:0:0:
160,128,41178,1,0,0:0:0:0:
168,104,41267,1,0,0:0:0:0:
144,64,41355,1,0,0:0:0:0:
144,64,41443,1,8,0:0:0:0:
160,128,41619,1,8,0:0:0:0:
136,120,41796,1,0,0:0:0:0:
176,112,41884,1,0,0:0:0:0:
136,120,41972,1,0,0:0:0:0:
112,120,42149,1,8,0:0:0:0:
112,120,42325,1,0,0:0:0:0:
184,120,42414,1,8,0:0:0:0:
112,120,42502,1,8,0:0:0:0:
176,112,42590,1,0,0:0:0:0:
176,112,42678,1,0,0:0:0:0:
176,112,42767,1,0,0:0:0:0:
248,88,42855,1,8,0:0:0:0:
144,160,43031,1,8,0:0:0:0:
256,96,43208,1,4,0:0:0:0:
414,200,43384,1,0,0:0:0:0:
457,223,43472,1,0,0:0:0:0:
244,114,43561,1,8,0:0:0:0:
259,255,43737,1,8,0:0:0:0:
359,207,43825,1,8,0:0:0:0:
343,213,43914,1,0,0:0:0:0:
348,227,44002,1,0,0:0:0:0:
294,220,44090,1,8,0:0:0:0:
329,235,44267,1,0,0:0:0:0:
247,212,44443,1,8,0:0:0:0:
372,210,44620,1,0,0:0:0:0:
340,178,44708,1,8,0:0:0:0:
327,230,44796,1,0,0:0:0:0:
348,170,44884,1,0,0:0:0:0:
348,242,44973,1,8,0:0:0:0:
308,178,45149,1,0,0:0:0:0:
269,205,45237,1,8,0:0:0:0:
380,366,45325,1,0,0:0:0:0:
244,146,45414,1,0,0:0:0:0:
244,146,45502,1,8,0:0:0:0:
268,186,45590,1,0,0:0:0:0:
244,146,45678,1,8,0:0:0:0:
164,162,45855,1,8,0:0:0:0:
246,211,45943,1,8,0:0:0:0:
266,230,46031,1,0,0:0:0:0:
300,138,46208,1,0,0:0:0:0:
388,122,46384,1,8,0:0:0:0:
277,222,46561,1,0,0:0:0:0:
275,234,46649,1,8,0:0:0:0:
351,243,46737,1,0,0:0:0:0:
164,162,46825,1,0,0:0:0:0:
388,130,46914,1,0,0:0:0:0:
267,224,47090,1,8,0:0:0:0:
348,98,47178,1,8,0:0:0:0:
316,194,47267,1,0,0:0:0:0:
316,194,47443,1,0,0:0:0:0:
314,201,47620,1,0,0:0:0:0:
410,177,47708,1,0,0:0:0:0:
265,244,47796,1,8,0:0:0:0:
277,187,47973,1,0,0:0:0:0:
291,225,48061,1,0,0:0:0:0:
292,221,48149,1,0,0:0:0:0:
305,220,48237,1,8,0:0:0:0:
284,130,48325,1,8,0:0:0:0:
284,130,48502,1,8,0:0:0:0:
280,218,48590,1,8,0:0:0:0:
380,154,48678,1,8,0:0:0:0:
404,162,48767,1,8,0:0:0:0:
330,227,48855,1,0,0:0:0:0:
281,175,49031,1,0,0:0:0:0:
276,82,49208,1,8,0:0:0:0:
331,322,49384,1,0,0:0:0:0:
308,154,49473,1,8,0:0:0:0:
308,154,49561,1,0,0:0:0:0:
294,315,49649,1,0,0:0:0:0:
291,293,49737,1,8,0:0:0:0:
175,193,49825,1,0,0:0:0:0:
289,267,49914,1,8,0:0:0:0:
311,270,50090,1,0,0:0:0:0:
364,226,50178,1,0,0:0:0:0:
375,263,50267,1,0,0:0:0:0:
364,226,50355,1,8,0:0:0:0:
412,234,50443,1,0,0:0:0:0:
308,261,50531,1,0,0:0:0:0:
300,317,50620,1,8,0:0:0:0:
228,202,50796,1,0,0:0:0:0:
284,311,50884,1,0,0:0:0:0:
265,316,50973,1,8,0:0:0:0:
225,244,51149,1,0,0:0:0:0:
195,241,51325,1,8,0:0:0:0:
244,256,51414,1,8,0:0:0:0:
299,240,51502,1,8,0:0:0:0:
292,162,51590,1,8,0:0:0:0:
330,260,51678,1,0,0:0:0:0:
364,210,51855,1,0,0:0:0:0:
289,325,51943,1,0,0:0:0:0:
273,380,52031,1,8,0:0:0:0:
305,268,52208,1,0,0:0:0:0:
292,162,52296,1,0,0:0:0:0:
246,265,52384,1,8,0:0:0:0:
296,237,52561,1,0,0:0:0:0:
340,146,52737,1,8,0:0:0:0:
292,162,52825,1,8,0:0:0:0:
350,345,52914,1,8,0:0:0:0:
292,162,53002,1,0,0:0:0:0:
327,221,53090,1,0,0:0:0:0:
246,265,53267,1,0,0:0:0:0:
364,210,53355,1,0,0:0:0:0:
385,244,53443,1,8,0:0:0:0:
292,162,53619,1,8,0:0:0:0:
347,227,53796,1,0,0:0:0:0:
456,197,53884,1,0,0:0:0:0:
364,276,53972,1,8,0:0:0:0:
314,234,54061,1,8,0:0:0:0:
364,210,54149,1,0,0:0:0:0:
417,208,54237,1,0,0:0:0:0:
319,199,54325,1,8,0:0:0:0:
326,233,54502,5,0,0:0:0:0:
248,160,54590,1,0,0:0:0:0:
248,160,54678,1,0,0:0:0:0:
248,160,54767,1,0,0:0:0:0:
248,160,54855,1,8,0:0:0:0:
144,136,55031,1,8,0:0:0:0:
144,136,55119,1,8,0:0:0:0:
144,136,55208,1,0,0:0:0:0:
144,136,55296,1,0,0:0:0:0:
144,136,55384,1,8,0:0:0:0:
144,136,55472,1,0,0:0:0:0:
192,136,55561,1,0,0:0:0:0:
192,136,55737,1,8,0:0:0:0:
120,64,55914,1,0,0:0:0:0:
152,96,56002,1,0,0:0:0:0:
136,152,56090,1,0,0:0:0:0:
144,104,56178,1,0,0:0:0:0:
144,32,56267,1,8,0:0:0:0:
184,96,56443,1,0,0:0:0:0:
224,160,56531,1,0,0:0:0:0:
248,128,56619,1,0,0:0:0:0:
248,128,56708,1,8,0:0:0:0:
248,128,56796,1,0,0:0:0:0:
224,88,56884,1,0,0:0:0:0:
248,128,56972,1,8,0:0:0:0:
328,112,57149,1,8,0:0:0:0:
280,120,57237,1,8,0:0:0:0:
280,120,57325,1,0,0:0:0:0:
192,136,57502,1,0,0:0:0:0:
104,152,57678,1,8,0:0:0:0:
192,104,57855,1,0,0:0:0:0:
152,128,57943,1,0,0:0:0:0:
192,104,58031,1,8,0:0:0:0:
144,112,58119,1,8,0:0:0:0:
104,144,58208,1,0,0:0:0:0:
192,136,58384,1,8,0:0:0:0:
144,176,58472,1,8,0:0:0:0:
176,80,58561,1,0,0:0:0:0:
216,40,58649,1,0,0:0:0:0:
176,80,58737,1,0,0:0:0:0:
192,104,58914,1,0,0:0:0:0:
192,104,59090,1,8,0:0:0:0:
216,192,59267,1,0,0:0:0:0:
208,144,59355,1,0,0:0:0:0:
208,144,59443,1,0,0:0:0:0:
208,144,59531,1,8,0:0:0:0:
208,144,59619,1,8,0:0:0:0:
208,144,59708,1,0,0:0:0:0:
208,144,59796,1,8,0:0:0:0:
112,120,59972,1,8,0:0:0:0:
88,112,60061,1,8,0:0:0:0:
136,120,60149,1,0,0:0:0:0:
216,192,60325,1,0,0:0:0:0:
216,192,60502,1,8,0:0:0:0:
184,120,60590,1,8,0:0:0:0:
136,112,60678,1,0,0:0:0:0:
184,120,60767,1,8,0:0:0:0:
184,120,60855,1,0,0:0:0:0:
184,120,60943,1,0,0:0:0:0:
184,120,61031,1,8,0:0:0:0:
264,88,61208,1,8,0:0:0:0:
176,64,61384,1,0,0:0:0:0:
128,48,61472,1,8,0:0:0:0:
80,32,61561,1,8,0:0:0:0:
128,48,61649,1,0,0:0:0:0:
80,40,61737,1,0,0:0:0:0:
160,104,61914,1,8,0:0:0:0:
264,72,62090,1,0,0:0:0:0:
216,88,62178,1,8,0:0:0:0:
176,112,62267,1,8,0:0:0:0:
216,88,62355,1,8,0:0:0:0:
216,88,62443,1,0,0:0:0:0:
216,88,62531,1,0,0:0:0:0:
248,104,62619,1,8,0:0:0:0:
152,128,62796,1,8,0:0:0:0:
200,112,62884,1,8,0:0:0:0:
200,112,62972,1,0,0:0:0:0:
128,64,63149,1,0,0:0:0:0:
168,144,63325,1,8,0:0:0:0:
152,128,63414,1,0,0:0:0:0:
264,112,63502,1,0,0:0:0:0:
200,112,63590,1,8,0:0:0:0:
200,112,63678,1,0,0:0:0:0:
152,128,63855,1,0,0:0:0:0:
152,128,64031,1,8,0:0:0:0:
200,112,64119,1,0,0:0:0:0:
152,112,64208,1,8,0:0:0:0:
200,112,64296,1,0,0:0:0:0:
152,120,64384,1,8,0:0:0:0:
216,48,64561,1,0,0:0:0:0:
272,176,64649,1,8,0:0:0:0:
216,152,64737,1,8,0:0:0:0:
200,112,64825,1,0,0:0:0:0:
200,112,64914,1,8,0:0:0:0:
200,112,65002,1,0,0:0:0:0:
200,112,65090,1,0,0:0:0:0:
176,112,65178,1,0,0:0:0:0:
128,104,65267,1,8,0:0:0:0:
152,128,65443,1,8,0:0:0:0:
152,128,65619,1,8,0:0:0:0:
200,112,65796,1,4,0:0:0:0:
245,258,65972,5,4,0:0:0:0:
310,278,66149,1,4,0:0:0:0:
280,380,66502,1,8,0:0:0:0:
235,384,66855,1,4,0:0:0:0:
360,208,67031,1,4,0:0:0:0:
262,347,67208,1,4,0:0:0:0:
218,381,67561,1,8,0:0:0:0:
327,143,67914,1,4,0:0:0:0:
271,370,68090,1,4,0:0:0:0:
213,302,68267,1,4,0:0:0:0:
332,217,68619,1,4,0:0:0:0:
238,296,68796,1,4,0:0:0:0:
352,288,68972,1,4,0:0:0:0:
496,280,69325,1,8,0:0:0:0:
235,233,69678,1,4,0:0:0:0:
305,351,69855,1,4,0:0:0:0:
257,321,70031,1,4,0:0:0:0:
282,320,70384,1,8,0:0:0:0:
384,280,70737,1,0,0:0:0:0:
281,332,70914,1,8,0:0:0:0:
275,378,71090,1,0,0:0:0:0:
317,186,71267,1,8,0:0:0:0:
292,328,71443,1,4,0:0:0:0:
246,270,71619,1,4,0:0:0:0:
400,248,71796,1,4,0:0:0:0:
400,248,72149,1,8,0:0:0:0:
400,248,72502,1,4,0:0:0:0:
400,248,72678,1,4,0:0:0:0:
400,248,72855,1,4,0:0:0:0:
400,248,73208,1,8,0:0:0:0:
307,275,73561,1,4,0:0:0:0:
299,311,73737,1,4,0:0:0:0:
338,310,73914,1,4,0:0:0:0:
240,256,74267,1,4,0:0:0:0:
291,322,74443,1,4,0:0:0:0:
286,316,74619,1,4,0:0:0:0:
240,256,74972,1,8,0:0:0:0:
360,296,75325,1,4,0:0:0:0:
379,310,75502,1,4,0:0:0:0:
237,330,75678,1,4,0:0:0:0:
336,288,76031,1,8,0:0:0:0:
312,240,76384,1,4,0:0:0:0:
321,298,76561,1,12,0:0:0:0:
353,299,76737,1,4,0:0:0:0:
336,288,77090,1,12,0:0:0:0:
232,280,77267,1,0,0:0:0:0:
232,280,77355,1,0,0:0:0:0:
232,280,77443,1,8,0:0:0:0:
320,320,77619,1,8,0:0:0:0:
400,240,77796,1,0,0:0:0:0:
368,272,77884,1,0,0:0:0:0:
368,272,77972,1,8,0:0:0:0:
368,272,78149,1,8,0:0:0:0:
304,232,78325,1,0,0:0:0:0:
384,264,78502,1,0,0:0:0:0:
352,304,78590,1,8,0:0:0:0:
320,336,78678,1,0,0:0:0:0:
259,253,78767,1,0,0:0:0:0:
416,304,78855,1,8,0:0:0:0:
272,256,79031,1,4,0:0:0:0:
272,256,79384,1,0,0:0:0:0:
368,240,79561,1,8,0:0:0:0:
384,264,79649,1,8,0:0:0:0:
368,240,79737,1,8,0:0:0:0:
384,264,79825,1,8,0:0:0:0:
368,240,79914,1,0,0:0:0:0:
368,352,80090,1,0,0:0:0:0:
368,304,80178,1,0,0:0:0:0:
368,256,80267,1,8,0:0:0:0:
280,296,80443,1,0,0:0:0:0:
121,179,80619,1,0,0:0:0:0:
163,194,80708,1,0,0:0:0:0:
384,136,80796,1,0,0:0:0:0:
336,240,80972,1,8,0:0:0:0:
288,296,81149,1,0,0:0:0:0:
384,248,81502,1,0,0:0:0:0:
376,248,81678,1,8,0:0:0:0:
368,256,81855,1,4,0:0:0:0:
216,360,82208,1,0,0:0:0:0:
225,237,82384,1,8,0:0:0:0:
344,304,82472,1,8,0:0:0:0:
282,306,82561,1,8,0:0:0:0:
287,293,82649,1,8,0:0:0:0:
337,171,83090,1,8,0:0:0:0:
338,170,83619,1,8,0:0:0:0:
320,171,84149,1,8,0:0:0:0:
330,166,84502,1,8,0:0:0:0:
321,194,84855,1,8,0:0:0:0:
328,178,85384,1,8,0:0:0:0:
248,196,85914,1,8,0:0:0:0:
275,188,86267,1,8,0:0:0:0:
240,209,86619,1,8,0:0:0:0:
255,216,87678,1,8,0:0:0:0:
