osu file format v12

[General]
AudioFilename: God only knows -Secrets of the Goddess- (Extract).mp3
AudioLeadIn: 1500
PreviewTime: 54502
Countdown: 0
SampleSet: Soft
StackLeniency: 0.3
Mode: 0
LetterboxInBreaks: 1
WidescreenStoryboard: 1

[Editor]
DistanceSpacing: 1.1
BeatDivisor: 4
GridSize: 4

[Metadata]
Title:God only knows -Secrets of the Goddess- (Extract)
TitleUnicode:God only knows -Secrets of the Goddess- (Extract)
Artist:Oratorio The World God Only Knows
ArtistUnicode:Oratorio The World God Only Knows
Creator:No_Gu
Version:Hard
Source:Kami Nomi zo Shiru Sekai Megami-hen
Tags:神のみぞ知るセカイ 女神篇 早見沙織 Hayami Saori The World God Only Knows alacat Azure KanaRin climbb65588
BeatmapID:277511
BeatmapSetID:104610

[Difficulty]
HPDrainRate:6
CircleSize:4
OverallDifficulty:6
ApproachRate:8
SliderMultiplier:1.6
SliderTickRate:1

[Events]
//Background and Video events
Video,-485,"video.avi"
0,0,"BG.jpg",0,0
//Break Periods
//Storyboard Layer 0 (Background)
//Storyboard Layer 1 (Fail)
//Storyboard Layer 2 (Pass)
//Storyboard Layer 3 (Foreground)
//Storyboard Sound Samples
//Background Colour Transformations
3,100,163,162,255

[TimingPoints]
760,413.793103448276,3,2,1,50,1,0
760,-125,3,2,1,50,0,0
10277,-125,3,2,1,40,0,0
10484,-125,3,2,1,30,0,0
10691,-125,3,2,1,50,0,0
19380,-125,3,2,1,40,0,0
20208,-125,3,2,1,30,0,0
20620,352.941176470588,4,2,1,50,1,0
23443,-100,4,2,1,60,0,0
26267,-100,4,2,1,70,0,0
26355,-100,4,2,1,60,0,0
29796,-100,4,2,1,40,0,0
29884,-100,4,2,1,60,0,0
30502,-100,4,2,1,50,0,0
30590,-100,4,2,1,60,0,0
31914,-100,4,2,1,70,0,0
32002,-100,4,2,1,60,0,0
37561,-100,4,2,1,70,0,0
37649,-100,4,2,1,60,0,0
42502,-100,4,2,1,50,0,0
42855,-100,4,2,1,60,0,0
43208,-100,4,2,1,80,0,1
43296,-100,4,2,1,70,0,1
48855,-100,4,2,1,80,0,1
48943,-100,4,2,1,70,0,1
54414,-100,4,2,1,70,0,0
54502,-100,4,2,1,80,0,1
54590,-100,4,2,1,70,0,1
60149,-100,4,2,1,80,0,1
60237,-100,4,2,1,70,0,1
65796,-100,4,2,1,70,0,0
75678,-100,4,2,1,50,0,0
76384,-100,4,2,1,60,0,0
77090,-100,4,2,1,70,0,0
82561,-100,4,2,1,50,0,0
83090,352.941176470588,5,2,1,50,1,0

[Colours]
Combo1 : 128,255,128
Combo2 : 255,255,128
Combo3 : 255,128,128
Combo4 : 128,255,255

[HitObjects]
72,212,760,2,0,L|200:192,1,128,4|2,0:0|0:0,0:0:0:0:
212,208,1794,1,0,0:0:0:0:
256,280,2001,1,2,0:0:0:0:
432,224,2415,2,0,L|424:288,1,64,0|0,1:0|0:0,0:0:0:0:
364,176,2828,2,0,L|356:112,1,64,0|0,1:0|0:0,0:0:0:0:
308,44,3242,6,0,P|256:36|212:40,1,96,2|0,0:0|0:0,0:0:0:0:
176,56,3656,2,0,L|180:120,1,64,0|0,0:0|0:0,0:0:0:0:
140,192,4070,1,2,0:0:0:0:
268,352,4484,2,0,P|296:300|300:232,1,128,2|0,0:0|0:0,0:0:0:0:
52,304,5311,2,0,L|148:296,1,96,2|0,0:0|0:0,0:0:0:0:
188,288,5725,6,0,P|216:236|220:168,1,128,2|2,0:0|0:0,0:0:0:0:
212,148,6760,1,0,0:0:0:0:
160,84,6967,1,2,0:0:0:0:
436,172,7380,2,0,P|440:140|436:108,1,64,2|0,0:0|0:0,0:0:0:0:
356,136,7794,2,0,L|292:152,1,64
220,112,8208,6,0,P|148:108|92:116,2,128,2|0|2,0:0|0:0|0:0,0:0:0:0:
364,220,9449,1,0,0:0:0:0:
468,352,9863,2,0,P|488:316|492:292,1,64,2|0,0:0|0:0,0:0:0:0:
448,224,10277,1,0,0:0:0:0:
472,144,10484,1,0,0:0:0:0:
420,80,10691,6,0,L|292:96,1,128,4|2,0:0|0:0,0:0:0:0:
276,108,11725,1,0,0:0:0:0:
252,188,11932,1,2,0:0:0:0:
61,311,12346,2,0,L|124:296,1,64,0|0,1:0|0:0,0:0:0:0:
268,284,12760,2,0,L|206:269,1,64,0|0,1:0|0:0,0:0:0:0:
140,216,13173,6,0,B|129:129|129:129|140:88,1,128,2|0,0:0|0:0,0:0:0:0:
268,284,14001,1,2,0:0:0:0:
484,192,14415,2,0,P|420:176|360:184,1,128,2|0,0:0|0:0,0:0:0:0:
223,66,15242,2,0,L|204:128,1,64,0|0,0:0|0:0,0:0:0:0:
120,116,15656,6,0,P|96:176|108:236,1,128,2|2,0:0|0:0,0:0:0:0:
120,256,16691,1,0,0:0:0:0:
104,336,16898,1,2,0:0:0:0:
256,200,17311,1,2,0:0:0:0:
416,160,17725,2,0,P|424:124|424:96,1,64
368,36,18139,6,0,L|240:52,2,128,2|0|2,0:0|0:0|0:0,0:0:0:0:
180,208,19380,2,0,L|308:192,2,128,2|0|2,0:0|0:0|0:0,0:0:0:0:
160,224,20620,5,4,1:2:0:0:
388,296,21855,2,0,L|352:224,1,80,0|4,1:0|1:2,0:0:0:0:
400,320,23443,5,4,1:2:0:0:
76,248,24678,2,0,L|112:320,1,80,0|4,1:0|1:2,1:0:0:0:
472,140,26267,6,0,P|484:220|444:284,1,160,4|8,0:0|0:0,0:0:0:0:
356,280,26796,1,0,0:0:0:0:
356,280,26884,1,0,0:0:0:0:
356,280,26972,2,0,L|364:360,1,80
280,232,27325,2,0,L|288:152,1,80,8|0,0:0|0:0,0:0:0:0:
336,80,27678,6,0,P|272:36|192:40,1,160,4|8,0:0|0:0,0:0:0:0:
140,112,28208,1,0,0:0:0:0:
140,112,28296,1,0,0:0:0:0:
140,112,28384,2,0,L|60:120,1,80
16,196,28737,1,8,0:0:0:0:
16,196,29090,6,0,P|12:240|20:276,1,80
88,328,29443,1,8,0:0:0:0:
168,296,29619,1,0,0:0:0:0:
192,304,29708,1,0,0:0:0:0:
216,312,29796,2,0,L|296:320,1,80,4|0,0:0|0:0,0:0:0:0:
376,232,30149,2,0,L|296:224,1,80,8|0,0:0|0:0,0:0:0:0:
228,168,30502,6,0,B|172:176|172:176|124:160|124:160|72:172,1,160,4|8,0:0|0:0,0:0:0:0:
24,100,31031,1,0,0:0:0:0:
24,244,31208,2,0,L|20:284,2,40,4|0|0,0:0|0:0|0:0,0:0:0:0:
72,172,31561,1,8,0:0:0:0:
136,112,31737,5,0,0:0:0:0:
152,96,31826,1,0,0:0:0:0:
172,84,31914,2,0,P|212:76|252:76,1,80,4|0,0:0|0:0,0:0:0:0:
400,140,32267,2,0,P|360:140|320:132,1,80,8|0,0:0|0:0,0:0:0:0:
424,168,32619,2,0,L|436:248,1,80,2|0,0:0|0:0,0:0:0:0:
376,312,32972,1,8,0:0:0:0:
280,212,33149,1,0,0:0:0:0:
376,56,33325,6,0,P|416:56|456:64,2,80,2|0|8,0:0|0:0|0:0,0:0:0:0:
136,56,34031,2,0,P|96:56|56:64,2,80,2|0|8,0:0|0:0|0:0,0:0:0:0:
208,108,34561,5,0,0:0:0:0:
208,108,34649,1,0,0:0:0:0:
208,108,34737,2,0,L|192:228,1,120,2|0,0:0|0:0,0:0:0:0:
152,248,35090,2,0,L|172:328,1,80,8|0,0:0|0:0,0:0:0:0:
248,368,35443,1,2,0:0:0:0:
328,336,35619,1,0,0:0:0:0:
472,308,35796,1,8,0:0:0:0:
392,276,35972,1,0,0:0:0:0:
348,200,36149,6,0,L|360:120,1,80,2|0,0:0|0:0,0:0:0:0:
284,60,36502,2,0,L|272:140,1,80,8|0,0:0|0:0,0:0:0:0:
216,208,36855,1,2,0:0:0:0:
64,220,37031,1,8,0:0:0:0:
136,168,37208,1,2,0:0:0:0:
208,296,37384,5,8,0:0:0:0:
224,312,37472,1,0,0:0:0:0:
240,328,37561,2,0,P|324:340|360:332,1,120,4|0,0:0|0:0,0:0:0:0:
392,304,37914,2,0,L|408:224,1,80,8|0,0:0|0:0,0:0:0:0:
452,148,38267,1,2,0:0:0:0:
496,224,38443,1,0,0:0:0:0:
364,152,38619,2,0,L|280:140,1,80,8|0,0:0|0:0,0:0:0:0:
240,64,38972,6,0,P|160:80|152:148,1,160,2|8,0:0|0:0,0:0:0:0:
68,234,39502,1,0,0:0:0:0:
68,234,39590,1,0,0:0:0:0:
68,234,39678,2,0,P|72:196|64:156,1,80,2|0,0:0|0:0,0:0:0:0:
36,72,40031,2,0,P|76:64|114:67,1,80,8|0,0:0|0:0,0:0:0:0:
248,172,40384,6,0,P|312:172|364:152,1,120,2|0,0:0|0:0,0:0:0:0:
404,132,40737,2,0,L|396:212,1,80,8|0,0:0|0:0,0:0:0:0:
356,292,41090,1,2,0:0:0:0:
248,172,41267,1,0,0:0:0:0:
324,36,41443,2,0,L|316:116,1,80,8|0,0:0|0:0,0:0:0:0:
216,252,41796,6,0,P|140:240|108:168,1,160,4|8,0:0|0:0,0:0:0:0:
140,88,42325,1,2,0:0:0:0:
316,116,42502,2,0,L|356:116,3,40,8|0|0|0,0:0|0:0|0:0|0:0,0:0:0:0:
388,140,42855,2,0,L|428:140,3,40,8|0|0|0,0:0|0:0|0:0|0:0,0:0:0:0:
468,160,43208,6,0,B|488:280|488:280|476:316,1,160,4|8,0:0|0:0,0:0:0:0:
400,364,43737,1,0,0:0:0:0:
332,308,43914,1,2,0:0:0:0:
364,228,44090,1,0,0:0:0:0:
244,316,44267,1,8,0:0:0:0:
168,360,44443,6,0,L|88:348,1,80,4|0,0:0|0:0,0:0:0:0:
52,260,44796,2,0,L|132:272,1,80,2|8,0:0|0:0,0:0:0:0:
188,204,45149,2,0,B|240:192|240:192|288:208|288:208|344:200,1,160,2|2,0:0|0:0,0:0:0:0:
392,104,45678,2,0,L|312:116,1,80,8|0,0:0|0:0,0:0:0:0:
152,52,46031,6,0,B|144:132|144:132|164:168,1,120,4|0,0:0|0:0,0:0:0:0:
188,204,46384,2,0,L|176:284,1,80,8|0,0:0|0:0,0:0:0:0:
92,316,46737,1,2,0:0:0:0:
228,356,46914,2,0,L|308:348,1,80,0|8,0:0|0:0,0:0:0:0:
364,280,47267,5,4,0:0:0:0:
448,304,47443,1,0,0:0:0:0:
308,200,47619,2,0,P|300:160|308:120,1,80,2|8,0:0|0:0,0:0:0:0:
376,64,47972,1,2,0:0:0:0:
448,116,48149,1,0,0:0:0:0:
308,200,48325,1,8,0:0:0:0:
188,88,48502,1,8,0:0:0:0:
164,112,48855,6,0,P|108:136|48:128,1,120,4|0,0:0|0:0,0:0:0:0:
12,108,49208,2,0,L|24:192,1,80,8|0,0:0|0:0,0:0:0:0:
44,272,49561,1,2,0:0:0:0:
112,328,49737,1,0,0:0:0:0:
196,300,49914,1,8,0:0:0:0:
216,216,50090,6,0,P|264:152|340:136,1,160,4|2,0:0|0:0,0:0:0:0:
328,256,50619,1,8,0:0:0:0:
204,184,50796,2,0,P|252:120|328:104,1,160,2|2,0:0|0:0,0:0:0:0:
404,36,51325,2,0,P|424:68|432:112,1,80,8|0,0:0|0:0,0:0:0:0:
480,252,51678,6,0,P|404:276|328:256,1,160,4|8,0:0|0:0,0:0:0:0:
204,184,52208,2,0,P|128:164|52:188,1,160,2|2,0:0|0:0,0:0:0:0:
24,272,52737,1,8,0:0:0:0:
136,124,52914,5,2,0:0:0:0:
136,124,53002,1,0,0:0:0:0:
136,124,53090,2,0,P|144:80|144:44,1,80,0|2,0:0|0:0,0:0:0:0:
220,204,53443,2,0,P|212:248|212:284,1,80,8|0,0:0|0:0,0:0:0:0:
268,352,53796,1,2,0:0:0:0:
304,272,53972,1,8,0:0:0:0:
220,204,54149,1,8,0:0:0:0:
360,348,54325,5,0,0:0:0:0:
360,348,54414,1,0,0:0:0:0:
360,348,54502,2,0,P|424:348|472:316,1,120,4|0,0:0|0:0,0:0:0:0:
488,276,54855,2,0,L|472:196,1,80,8|0,0:0|0:0,0:0:0:0:
352,113,55208,2,0,L|368:192,2,80,2|0|8,0:0|0:0|0:0,0:0:0:0:
288,52,55737,6,0,P|248:44|208:48,1,80,4|0,0:0|0:0,0:0:0:0:
153,127,56090,2,0,P|193:135|232:132,1,80,2|8,0:0|0:0,0:0:0:0:
104,52,56443,2,0,P|64:120|96:196,1,160,2|2,0:0|0:0,0:0:0:0:
176,216,56972,1,8,0:0:0:0:
264,348,57149,1,0,0:0:0:0:
336,296,57325,6,0,B|216:316|216:316|180:304,1,160,4|8,0:0|0:0,0:0:0:0:
100,268,57855,1,2,0:0:0:0:
100,268,57943,1,0,0:0:0:0:
100,268,58031,2,0,L|20:276,1,80,0|2,0:0|0:0,0:0:0:0:
176,216,58384,1,8,0:0:0:0:
264,232,58561,6,0,P|276:188|276:152,1,80,4|0,0:0|0:0,0:0:0:0:
224,84,58914,1,2,0:0:0:0:
92,184,59090,1,8,0:0:0:0:
180,320,59267,2,0,P|192:276|192:240,1,80,2|0,0:0|0:0,0:0:0:0:
176,156,59619,1,8,0:0:0:0:
120,21,59796,2,0,P|108:65|108:100,1,80,8|0,0:0|0:0,0:0:0:0:
264,232,60149,6,0,P|352:232|400:184,1,160,4|8,0:0|0:0,0:0:0:0:
372,100,60678,1,0,0:0:0:0:
476,220,60855,2,0,L|484:300,2,80,2|0|8,0:0|0:0|0:0,0:0:0:0:
492,88,61384,6,0,P|416:52|348:76,1,160,4|2,0:0|0:0,0:0:0:0:
292,144,61914,1,8,0:0:0:0:
158,65,62090,2,0,P|165:149|220:196,1,160,2|2,0:0|0:0,0:0:0:0:
308,306,62619,2,0,P|312:268|304:228,1,80,8|0,0:0|0:0,0:0:0:0:
240,104,62972,6,0,L|96:172,1,160,4|8,0:0|0:0,0:0:0:0:
12,144,63502,1,2,0:0:0:0:
12,144,63590,1,0,0:0:0:0:
12,144,63678,2,0,P|8:184|24:224,1,80,0|2,0:0|0:0,0:0:0:0:
104,256,64031,1,8,0:0:0:0:
156,328,64208,1,4,0:0:0:0:
244,328,64384,6,0,P|312:284|328:208,1,160,2|8,0:0|0:0,0:0:0:0:
260,152,64914,1,0,0:0:0:0:
172,164,65090,1,2,0:0:0:0:
172,164,65178,1,0,0:0:0:0:
172,164,65267,1,0,0:0:0:0:
172,164,65355,1,0,0:0:0:0:
172,164,65443,2,0,P|152:124|148:88,1,80,8|0,0:0|0:0,0:0:0:0:
216,32,65796,5,4,0:0:0:0:
296,72,65972,1,2,0:0:0:0:
376,32,66149,1,10,0:0:0:0:
320,216,66502,1,0,0:0:0:0:
68,348,66855,5,2,0:0:0:0:
148,308,67031,1,2,0:0:0:0:
228,348,67208,1,2,0:0:0:0:
172,164,67561,1,8,0:0:0:0:
372,296,67914,2,0,L|452:296,2,80,2|2|2,0:0|0:0|0:0,0:0:0:0:
72,180,68619,6,0,P|68:224|76:260,1,80,4|2,0:0|0:0,0:0:0:0:
148,308,68972,1,10,0:0:0:0:
256,148,69325,1,0,0:0:0:0:
480,300,69678,6,0,P|484:256|476:220,1,80,2|2,0:0|0:0,0:0:0:0:
412,164,70031,1,2,0:0:0:0:
328,196,70208,1,0,0:0:0:0:
256,148,70384,2,0,P|252:104|260:68,1,80,8|0,0:0|0:0,0:0:0:0:
400,248,70737,2,0,P|328:284|260:252,1,160,2|2,0:0|0:0,0:0:0:0:
92,192,71443,5,4,0:0:0:0:
24,132,71619,1,2,0:0:0:0:
8,220,71796,1,10,0:0:0:0:
256,148,72149,1,0,0:0:0:0:
420,192,72502,5,2,0:0:0:0:
488,252,72678,1,2,0:0:0:0:
504,164,72855,1,2,0:0:0:0:
256,56,73208,1,8,0:0:0:0:
176,316,73561,2,0,L|168:236,1,80,2|2,0:0|0:0,0:0:0:0:
92,192,73914,2,0,L|100:112,1,80,2|0,0:0|0:0,0:0:0:0:
152,40,74267,6,0,P|192:32|232:40,1,80,4|2,0:0|0:0,0:0:0:0:
288,104,74619,1,10,0:0:0:0:
176,316,74972,1,2,0:0:0:0:
92,284,75149,1,0,0:0:0:0:
176,316,75325,2,0,L|256:308,1,80,2|2,0:0|0:0,0:0:0:0:
340,328,75678,6,0,P|360:288|364:252,1,80,4|0,0:0|0:0,0:0:0:0:
227,173,76031,2,0,P|252:211|280:232,1,80,8|0,0:0|0:0,0:0:0:0:
452,240,76384,2,0,P|464:160|436:88,1,160,4|10,0:0|0:0,0:0:0:0:
360,44,76914,1,0,0:0:0:0:
296,104,77090,6,0,P|256:108|216:104,1,80,4|0,0:0|0:0,0:0:0:0:
152,44,77443,1,8,0:0:0:0:
76,84,77619,2,0,B|60:164|60:164|96:188|92:232,1,160,4|2,0:0|0:0,0:0:0:0:
40,300,78149,1,8,0:0:0:0:
96,368,78325,2,0,L|256:348,1,160,4|2,0:0|0:0,0:0:0:0:
320,288,78855,1,8,0:0:0:0:
400,324,79031,2,0,L|480:336,2,80,4|0|2,0:0|0:0|0:0,0:0:0:0:
320,288,79561,1,8,0:0:0:0:
284,208,79737,5,2,0:0:0:0:
284,208,79825,1,0,0:0:0:0:
284,208,79914,2,0,P|268:168|268:128,1,80,4|0,0:0|0:0,0:0:0:0:
304,52,80267,1,8,0:0:0:0:
180,144,80443,2,0,P|104:164|24:148,2,160,4|2|4,0:0|0:0|0:0,0:0:0:0:
392,140,81502,2,0,L|372:217,1,80,2|8,0:0|0:0,0:0:0:0:
320,288,81855,2,0,P|244:308|164:292,1,160,4|4,0:0|0:0,0:0:0:0:
108,224,82384,1,8,0:0:0:0:
108,224,82561,1,4,0:0:0:0:
