osu file format v9

[General]
AudioFilename: God only knows.ogg
AudioLeadIn: 500
PreviewTime: 199275
Countdown: 0
SampleSet: Soft
StackLeniency: 0.4
Mode: 1
LetterboxInBreaks: 0
StoryFireInFront: 0

[Editor]
Bookmarks: 1630,89486,142500,199384,280391,391415,463016
DistanceSpacing: 1.5
BeatDivisor: 4
GridSize: 4

[Metadata]
Title:God only knows
Artist:Oratorio The World God Only Knows
Creator:ykcarrot
Version:Taiko Collab
Source:Kami Nomi zo Shiru Sekai
Tags:ELISA aabc271 KanaRin kanpakyin

[Difficulty]
HPDrainRate:4
CircleSize:5
OverallDifficulty:5
ApproachRate:5
SliderMultiplier:1.4
SliderTickRate:1

[Events]
//Background and Video events
0,0,"Taiko BG.jpg"
//Break Periods
2,142700,146947
2,280123,290215
//Storyboard Layer 0 (Background)
//Storyboard Layer 1 (Fail)
//Storyboard Layer 2 (Pass)
//Storyboard Layer 3 (Foreground)
Sprite,Foreground,Centre,"Taiko SB\aabc271.png",320,240 M,0,1630,,78,451 F,0,1630,2130,0,1 F,0,2130,87486,1 F,0,87486,87986,1,0
Sprite,Foreground,Centre,"Taiko SB\kanpakyin.png",320,240 M,0,89486,,90,451 F,0,89486,90222,0,1 F,0,90222,141755,1 F,0,141755,142500,1,0
Sprite,Foreground,Centre,"Taiko SB\KanaRin.png",320,240 M,0,148147,,80,451 F,0,148147,148500,0,1 F,0,148500,279923,1 F,0,279923,280391,1,0
Sprite,Foreground,Centre,"Taiko SB\kanpakyin.png",320,240 M,0,291053,,90,451 F,0,291053,291595,0,1 F,0,291595,386058,1 F,0,386058,386858,1,0
Sprite,Foreground,Centre,"Taiko SB\aabc271.png",320,240 M,0,391415,,78,451 F,0,391415,391915,0,1 F,0,391915,455216,1 F,0,455216,455816,1,0
Sprite,Foreground,Centre,"Taiko SB\KanaRin.png",320,240 M,0,463016,,80,451 F,0,463016,463416,0,1 F,0,463416,488216,1 F,0,488216,488616,1,0
//Storyboard Sound Samples
//Background Colour Transformations
3,100,0,0,0

[TimingPoints]
130,500,3,2,1,50,1,0
1630,-125,3,2,1,50,0,0
4350,500,3,2,1,50,1,0
4350,-125,3,2,1,50,0,0
8850,-125,3,2,1,30,0,0
9100,500,3,2,1,50,1,0
9100,-125,3,2,1,50,0,0
10600,-111.111111111111,3,2,1,60,0,0
22600,-100,3,2,1,80,0,0
34600,-90.9090909090909,3,2,1,100,0,0
46601,-100,3,2,1,70,0,0
47100,-101.010101010101,3,2,1,70,0,0
47600,-102.040816326531,3,2,1,70,0,0
48100,-103.092783505155,3,2,1,70,0,0
48600,-104.166666666667,3,2,1,70,0,0
49100,-105.263157894737,3,2,1,70,0,0
49600,-106.382978723404,3,2,1,70,0,0
50100,-107.52688172043,3,2,1,70,0,0
50600,-108.695652173913,3,2,1,70,0,0
51100,-109.89010989011,3,2,1,70,0,0
51600,-111.111111111111,3,2,1,70,0,0
52100,-112.359550561798,3,2,1,70,0,0
52600,-113.636363636364,3,2,1,70,0,0
53100,-114.942528735632,3,2,1,70,0,0
53600,-116.279069767442,3,2,1,70,0,0
54100,-117.647058823529,3,2,1,70,0,0
54600,-119.047619047619,3,2,1,70,0,0
55100,-120.481927710843,3,2,1,70,0,0
55600,-121.951219512195,3,2,1,70,0,0
56100,-123.456790123457,3,2,1,70,0,0
56600,666.666666666667,3,2,1,70,1,0
57276,705.882352941176,3,2,1,70,1,0
58686,800,3,2,1,70,1,0
59486,500,3,2,1,90,1,0
82986,-100,3,2,1,50,0,0
89486,368.098159509202,4,2,1,100,1,0
142500,352.941176470588,4,2,1,80,1,0
176382,-100,4,1,1,80,0,1
197554,400,4,2,1,100,1,0
199154,461.54,4,2,1,100,1,0
280391,361.44578313253,4,2,1,100,1,0
291415,-100,4,1,1,70,0,0
326294,-100,4,1,1,80,0,0
377258,400,4,2,1,100,1,0
386858,444.444444444444,4,2,1,100,1,0
386858,-90.0900900900901,4,2,1,100,0,0
387746,-100,4,2,1,100,0,0
388635,571.428571428571,4,2,1,100,1,0
389777,750,4,2,1,100,1,0
391415,1000,4,2,1,80,1,1
423116,600,3,2,1,100,1,0
423416,600,3,2,1,100,1,0
463016,400,4,2,1,100,1,0

[Colours]
Combo1 : 255,255,32
Combo2 : 255,128,32
Combo3 : 32,255,32
Combo4 : 32,32,255
Combo5 : 255,32,192
SliderBorder : 255,255,255

[HitObjects]
256,192,1630,1,2
256,192,2130,5,0
256,192,3130,5,2
256,192,3630,5,0
256,192,5850,1,0
256,192,6350,5,2
256,192,7350,1,2
256,192,7850,5,0
256,192,8850,5,2
256,192,10600,1,2
256,192,11100,5,0
256,192,11600,1,0
256,192,12100,5,2
256,192,12600,5,0
256,192,13600,1,0
256,192,14100,5,2
256,192,14600,5,0
256,192,15100,5,2
256,192,15600,5,0
256,192,16600,5,2
256,192,17100,1,2
256,192,17600,5,0
256,192,18100,5,2
256,192,18600,5,0
256,192,19600,5,2
256,192,20100,5,0
256,192,20600,1,0
256,192,21100,5,2
256,192,21600,1,2
256,192,22600,5,4
256,192,23100,5,2
256,192,23600,5,0
256,192,24100,1,0
256,192,24600,5,2
256,192,25100,5,0
256,192,25600,1,0
256,192,26100,5,2
256,192,26600,5,0
256,192,27100,1,0
256,192,27266,5,2
256,192,27433,5,0
256,192,27600,1,0
256,192,28600,1,0
256,192,29100,5,2
256,192,29600,1,2
256,192,30100,5,0
256,192,30600,5,2
256,192,31100,5,0
256,192,31600,1,0
256,192,32100,5,2
256,192,32600,5,0
256,192,33100,1,0
256,192,33350,5,2
256,192,33475,1,2
256,192,33600,5,0
256,192,34600,1,4
256,192,35100,5,2
256,192,35350,5,2
256,192,35600,5,0
256,192,36100,5,0
256,192,36600,5,2
256,192,37100,5,0
256,192,37600,5,2
256,192,38100,5,2
256,192,38350,5,0
256,192,38600,5,0
256,192,39100,5,0
256,192,39266,5,2
256,192,39433,5,2
256,192,39600,5,0
256,192,40100,5,0
256,192,40600,5,0
256,192,41100,5,2
256,192,41350,5,0
256,192,41600,5,0
256,192,42100,5,0
256,192,42600,5,2
256,192,43100,5,0
256,192,43600,1,0
256,192,44100,5,2
256,192,44350,1,2
256,192,44600,5,0
256,192,45100,1,0
256,192,45350,5,2
256,192,45475,5,0
256,192,45600,1,0
256,192,46100,1,0
256,192,46600,1,4
256,192,47600,5,2
256,192,48100,5,0
256,192,48600,5,2
256,192,49100,1,2
256,192,49600,5,0
256,192,50350,1,0
256,192,50600,5,2
256,192,51100,1,2
256,192,51600,5,0
256,192,52100,5,2
256,192,52350,5,0
256,192,52600,5,2
256,192,53350,1,2
256,192,53600,5,0
256,192,53850,1,0
256,192,54100,5,2
256,192,55100,5,0
256,192,55600,5,2
256,192,56350,1,2
256,192,56600,1,2
256,192,56933,5,0
256,192,57276,1,0
256,192,57981,1,0
256,192,58686,5,2
256,192,59486,5,4
256,192,59986,5,2
256,192,60236,1,2
256,192,60486,5,0
256,192,60986,1,0
256,192,61486,5,2
256,192,61736,5,0
256,192,61986,1,0
256,192,62486,1,0
256,192,62986,5,2
256,192,63486,5,0
256,192,63986,1,0
256,192,64152,5,2
256,192,64319,1,2
256,192,64486,5,0
256,192,64986,1,0
256,192,65486,1,0
256,192,65986,5,2
256,192,66486,5,0
256,192,66736,1,0
256,192,66986,1,0
256,192,67486,5,2
256,192,67986,5,0
256,192,68486,1,0
256,192,68986,5,2
256,192,69236,5,0
256,192,69486,1,0
256,192,69986,1,0
256,192,70236,5,2
256,192,70361,1,2
256,192,70486,5,0
256,192,70986,1,0
256,192,71486,1,0
256,192,71986,5,2
256,192,72486,5,0
256,192,72736,1,0
256,192,72986,5,2
256,192,73236,5,0
256,192,73486,5,2
256,192,73986,5,0
256,192,74486,1,0
256,192,74986,5,2
256,192,75236,5,0
256,192,75486,1,0
256,192,75986,1,0
256,192,76152,5,2
256,192,76319,5,0
256,192,76486,1,0
256,192,76986,1,0
256,192,77486,1,0
256,192,77986,5,2
256,192,78486,5,0
256,192,78736,5,2
256,192,78986,5,0
256,192,79236,1,0
256,192,79486,5,2
256,192,79986,5,2
256,192,80486,1,0
256,192,80986,5,2
256,192,81236,1,2
256,192,81486,5,0
256,192,81986,1,0
256,192,82236,5,2
256,192,82361,5,0
256,192,82486,1,0
256,192,82986,12,0,83986
256,192,84986,1,0
256,192,85486,5,0
256,192,85986,5,2
256,192,86486,5,0
256,192,86736,1,0
256,192,86986,5,2
256,192,87236,5,0
256,192,87486,1,0
256,192,87736,5,2
256,192,87986,1,6
384,104,89486,1,4
384,104,89762,1,0
384,104,89854,1,8
384,104,90038,1,0
384,104,90406,1,0
384,104,90590,1,8
384,104,90958,1,0
384,104,91326,1,0
384,104,91694,1,0
384,104,92062,1,8
384,104,92430,1,4
384,104,92706,1,0
384,104,92798,1,8
384,104,92982,1,0
384,104,93351,1,0
384,104,93535,1,8
384,104,93903,1,0
384,104,94087,1,0
384,104,94179,1,0
384,104,94271,1,8
384,104,94455,1,0
384,104,94639,1,0
384,104,94823,1,0
384,104,95007,1,8
384,104,95191,1,0
384,104,95375,1,8
384,104,95467,1,0
384,104,95651,1,0
384,104,95743,1,8
384,104,95927,1,0
384,104,96295,1,0
384,104,96479,1,8
384,104,96755,1,0
384,104,96847,1,8
384,104,97032,1,0
384,104,97216,1,0
384,104,97584,1,8
384,104,97952,1,0
384,104,98136,1,0
384,104,98228,1,0
384,104,98320,1,8
384,104,98504,1,8
384,104,98872,1,8
384,104,99240,1,0
384,104,99332,1,0
384,104,99424,1,8
384,104,99792,1,0
384,104,99976,1,8
384,104,100160,1,0
384,104,100344,1,0
384,104,100528,1,8
384,104,101081,1,0
384,104,101173,1,0
384,104,101265,1,0
384,104,101449,1,8
384,104,101633,1,0
384,104,101817,1,0
384,104,101909,1,8
384,104,102093,1,0
384,104,102185,1,0
384,104,102277,1,2
384,104,102369,1,0
384,104,102553,1,0
384,104,102645,1,0
384,104,102737,1,2
384,104,102921,1,0
384,104,103105,1,0
384,104,103289,1,2
384,104,103473,1,2
384,104,103749,1,0
384,104,103841,1,2
384,104,104025,1,0
384,104,104117,1,0
384,104,104209,1,2
384,104,104393,1,0
384,104,104578,1,0
384,104,104670,1,0
384,104,104762,1,0
384,104,104854,1,0
384,104,104946,1,2
384,104,105130,1,0
384,104,105222,1,0
384,104,105314,1,2
384,104,105498,1,0
384,104,105682,1,0
384,104,106050,1,0
384,104,106418,1,2
384,104,106786,1,2
384,104,106970,1,2
384,104,107062,1,2
384,104,107154,1,0
384,104,107338,1,0
384,104,107522,1,0
384,104,107706,1,2
384,104,108074,1,2
384,104,108166,1,2
384,104,108259,1,0
384,104,108443,1,0
384,104,108627,1,2
384,104,108811,1,0
384,104,108903,1,0
384,104,108995,1,0
384,104,109179,1,0
384,104,109363,1,2
384,104,109455,1,0
384,104,109547,1,0
384,104,109639,1,2
384,104,109731,1,0
384,104,109915,1,0
384,104,110099,1,4
384,104,110375,1,0
384,104,110467,1,2
384,104,110651,1,0
384,104,110835,1,0
384,104,110927,1,2
384,104,111111,1,0
384,104,111203,1,2
256,192,111387,12,0,112124
384,104,112308,5,2
384,104,112400,1,2
384,104,112492,1,0
384,104,112584,1,0
384,104,112676,1,2
384,104,112860,1,0
384,104,113044,1,6
384,104,113320,1,0
384,104,113412,1,2
384,104,113596,1,0
384,104,113688,1,0
384,104,113780,1,2
384,104,113872,1,0
384,104,114056,1,0
384,104,114148,1,2
384,104,114332,1,0
384,104,114516,1,2
384,104,114884,1,2
384,104,115068,1,2
384,104,115160,1,2
384,104,115252,1,0
384,104,115436,1,0
384,104,115528,1,0
384,104,115620,1,2
384,104,115805,1,0
384,104,115989,1,2
384,104,116173,1,0
384,104,116265,1,0
384,104,116357,1,2
384,104,116541,1,0
384,104,116725,1,0
384,104,116817,1,0
384,104,116909,1,2
384,104,117001,1,0
384,104,117093,1,2
384,104,117461,1,0
384,104,117829,1,2
384,104,118013,1,0
384,104,118197,1,2
384,104,118289,1,2
384,104,118381,1,0
384,104,118473,1,0
384,104,118565,1,2
384,104,118657,1,2
384,104,118749,1,0
384,104,118841,1,0
384,104,118933,1,2
384,104,119209,1,0
384,104,119301,1,2
384,104,119485,1,0
384,104,119578,1,0
384,104,119670,1,0
384,104,119854,1,0
384,104,120038,1,2
384,104,120222,1,2
384,104,120406,1,0
384,104,120682,1,0
384,104,120774,1,2
384,104,120958,1,0
384,104,121050,1,0
384,104,121142,1,0
384,104,121326,1,2
384,104,121510,1,2
384,104,121602,1,0
384,104,121694,1,0
384,104,121786,1,0
384,104,121878,1,2
384,104,122062,1,0
384,104,122246,1,0
384,104,122430,1,2
384,104,122614,1,2
384,104,122798,1,2
384,104,122890,1,0
384,104,122982,1,2
384,104,123166,1,0
384,104,123351,1,2
384,104,123535,1,0
384,104,123719,1,2
384,104,124087,1,2
384,104,124179,1,2
384,104,124271,1,0
384,104,124363,1,0
384,104,124455,1,0
384,104,124639,1,0
384,104,124731,1,0
384,104,124823,1,2
384,104,125007,1,0
384,104,125099,1,0
384,104,125191,1,2
384,104,125375,1,0
384,104,125559,1,0
384,104,125743,1,2
384,104,125927,1,2
384,104,126111,1,0
384,104,126295,1,2
384,104,126571,1,0
384,104,126663,1,2
384,104,126847,1,0
384,104,126939,1,0
384,104,127032,1,0
384,104,127216,1,0
384,104,127400,1,2
384,104,127584,1,0
384,104,127768,1,0
384,104,127952,1,0
384,104,128136,1,2
384,104,128320,1,0
384,104,128412,1,2
384,104,128504,1,0
384,104,128688,1,0
384,104,128872,1,2
384,104,128964,1,0
384,104,129148,1,2
384,104,129240,1,0
384,104,129424,1,0
384,104,129516,1,0
384,104,129608,1,2
384,104,129792,1,0
384,104,129884,1,0
384,104,129976,1,2
384,104,130068,1,0
384,104,130252,1,0
384,104,130344,1,2
384,104,130436,1,0
384,104,130528,1,2
384,104,130620,1,0
384,104,130712,1,2
384,104,130897,1,0
384,104,130989,1,0
384,104,131081,1,0
384,104,131265,1,0
384,104,131449,1,2
384,104,131633,1,0
384,104,131817,1,2
384,104,132001,1,2
384,104,132185,1,0
384,104,132461,1,0
384,104,132553,1,2
384,104,132737,1,0
384,104,132829,1,0
384,104,132921,1,2
384,104,133105,1,0
384,104,133289,1,2
384,104,133473,1,2
384,104,133565,1,0
384,104,133657,1,2
384,104,133841,1,0
384,104,134025,1,0
384,104,134117,1,0
384,104,134209,1,0
384,104,134301,1,0
384,104,134393,1,2
384,104,134578,1,0
384,104,134762,1,0
384,104,134854,1,2
384,104,135038,1,0
384,104,135130,1,2
384,104,135314,1,0
384,104,135406,1,2
384,104,135498,1,0
384,104,135682,1,0
384,104,135866,1,2
384,104,136234,1,0
384,104,136326,1,0
384,104,136418,1,0
384,104,136510,1,0
384,104,136602,1,2
384,104,136970,1,0
384,104,137522,1,4
384,104,137706,1,6
384,104,137890,1,4
384,104,138259,1,4
384,104,138443,1,6
384,104,138627,1,4
384,104,138995,1,2
384,104,139179,1,0
384,104,139271,1,0
384,104,139363,1,2
384,104,139455,1,2
384,104,139547,1,2
384,104,139731,1,2
384,104,140283,1,0
384,104,140467,1,4
384,104,140651,1,6
384,104,140835,1,4
384,104,141203,1,8
384,104,141387,1,0
384,104,141571,1,2
384,104,141755,1,12
144,116,142500,1,4
256,188,148147,5,4
256,188,148500,1,0
256,188,148852,1,0
256,188,149205,1,0
320,168,149382,1,2
256,188,149558,1,0
256,188,149911,1,0
256,188,150264,1,0
256,228,150441,1,2
256,188,150617,1,0
220,188,150970,1,2
220,188,151323,1,2
220,188,151500,1,0
148,148,151852,1,0
220,188,152029,1,2
256,192,152382,12,0,153441
224,156,153794,1,4
264,172,154147,1,0
116,168,154323,1,2
280,184,154500,1,0
184,200,154588,1,0
352,316,154676,1,2
68,116,154852,1,0
200,184,155029,1,2
324,264,155205,1,0
256,188,155558,1,0
372,284,155735,1,2
344,216,155823,1,2
256,188,155911,1,0
372,284,156088,1,2
344,216,156264,1,0
264,172,156441,1,0
360,284,156617,1,0
372,300,156970,1,0
68,116,157147,1,2
200,184,157323,1,0
372,284,157411,1,0
256,188,157500,1,2
372,284,157676,1,0
256,188,157852,1,2
372,284,158029,1,0
372,300,158117,1,2
256,188,158205,1,0
372,284,158382,1,0
256,188,158558,1,2
264,172,158823,1,0
360,284,158911,1,2
280,184,159088,1,0
372,300,159264,1,2
68,116,159441,1,0
256,188,159794,1,0
372,284,159970,1,2
256,188,160147,1,0
372,284,160323,1,2
360,284,160411,1,2
256,188,160500,1,0
372,284,160676,1,2
256,188,160852,1,0
264,172,161029,5,2
424,280,161117,1,2
360,284,161205,1,0
280,184,161382,1,2
372,300,161558,1,0
372,284,161647,1,0
68,116,161735,1,2
200,184,161911,1,0
256,188,162088,1,2
372,284,162264,1,0
328,272,162352,1,0
256,188,162441,1,2
328,272,162529,1,2
328,272,162617,1,0
256,188,162794,1,2
372,284,162970,1,0
256,188,163235,1,2
264,172,163323,1,0
360,284,163500,1,2
280,184,163676,1,0
372,300,163852,1,2
312,296,163941,1,2
68,116,164029,1,0
200,184,164205,1,2
256,188,164382,1,0
372,284,164558,1,2
344,236,164647,1,2
336,336,164735,1,0
336,336,164823,1,0
372,284,164911,1,2
256,188,165088,1,4
256,188,165441,1,0
264,172,165617,5,2
360,284,165794,1,0
372,284,165882,1,0
280,184,165970,1,2
372,300,166147,1,0
68,116,166323,1,2
352,208,166411,1,2
200,184,166500,1,0
256,188,166676,1,2
372,284,166852,1,0
256,188,167029,1,2
364,232,167117,1,0
372,284,167205,1,2
256,188,167382,1,2
372,284,167558,1,0
256,188,167735,1,2
264,172,167911,5,0
120,168,168000,1,0
360,284,168088,1,2
168,192,168176,1,2
280,184,168264,1,0
372,300,168441,1,2
68,116,168617,1,0
360,284,168705,1,0
200,184,168794,1,2
256,188,168970,1,0
372,284,169147,1,2
344,356,169323,1,0
344,356,169411,1,0
344,356,169500,1,2
256,188,169676,1,0
372,284,169852,1,2
344,356,170029,1,0
320,292,170117,1,2
264,172,170205,5,0
360,284,170382,1,2
348,320,170470,1,0
280,184,170558,1,2
348,320,170647,1,2
372,300,170735,1,0
68,116,170911,1,2
200,184,171088,1,0
256,188,171264,1,2
352,256,171352,1,0
372,284,171441,1,0
256,188,171617,1,2
372,284,171794,1,0
256,188,171970,1,2
372,300,172058,1,2
372,284,172147,1,0
256,188,172323,1,2
264,172,172500,5,0
360,284,172676,1,2
228,188,172764,1,2
280,184,172852,1,0
372,300,173029,1,2
200,184,173117,1,2
68,116,173205,1,0
200,184,173382,1,2
256,188,173558,1,0
200,184,173823,1,0
256,188,173911,1,2
372,284,174088,1,0
256,188,174264,1,0
372,284,174529,1,0
256,188,174617,1,2
264,172,174794,5,0
360,284,174970,1,4
200,184,175147,1,2
256,228,175235,1,2
372,300,175323,1,0
320,272,175500,1,0
320,272,175588,1,0
200,184,175676,1,0
320,272,175764,1,0
256,188,175852,1,2
320,272,175941,1,2
372,284,176029,1,2
320,272,176117,1,2
256,188,176205,1,2
372,284,176382,1,4
256,188,176558,1,2
292,260,176647,1,2
372,284,176735,1,0
256,188,176911,1,2
292,260,177000,1,2
264,172,177088,5,0
360,284,177264,1,2
280,184,177441,1,0
360,284,177529,1,0
372,300,177617,1,2
68,116,177794,1,0
200,184,177970,1,2
348,312,178058,1,2
256,188,178147,1,0
372,284,178323,1,2
348,312,178411,1,2
256,188,178500,1,0
372,284,178676,1,2
256,188,178852,1,0
372,284,179029,1,2
256,188,179205,1,0
328,288,179294,1,0
264,172,179382,5,2
312,256,179470,1,2
360,284,179558,1,0
280,184,179735,1,2
372,300,179911,1,0
200,184,180000,1,0
68,116,180088,1,2
200,184,180264,1,0
268,264,180352,1,0
256,188,180441,1,2
372,284,180617,1,2
120,196,180705,1,0
256,188,180794,1,2
328,288,180882,1,2
372,284,180970,1,0
256,188,181147,1,2
372,284,181323,1,0
372,284,181411,1,0
256,188,181500,1,2
264,172,181676,5,0
360,284,181852,1,2
280,184,182029,1,0
228,216,182117,1,0
372,300,182205,1,2
68,116,182382,1,0
280,252,182470,1,0
200,184,182558,1,2
256,188,182735,1,2
348,200,182823,1,0
372,284,182911,1,2
256,188,183088,1,0
372,284,183264,1,2
256,188,183441,1,0
372,300,183529,1,0
372,284,183617,1,2
256,188,183794,1,2
372,284,183882,1,0
264,172,183970,5,2
360,284,184147,1,0
372,284,184235,1,0
280,184,184323,1,2
372,300,184500,1,0
68,116,184676,1,2
200,184,184852,1,4
372,284,185205,1,2
256,188,185382,1,4
256,188,185735,1,0
372,284,185911,1,2
256,188,186088,1,4
360,284,186441,1,0
280,184,186617,1,2
372,300,186794,1,0
68,116,186970,1,4
256,188,187323,1,2
340,232,187411,1,2
372,284,187500,1,2
340,232,187588,1,2
256,188,187676,1,0
372,284,187852,1,2
256,188,188029,1,0
340,232,188117,1,0
372,284,188205,1,2
256,188,188382,1,0
264,172,188558,5,2
360,284,188735,1,0
340,232,188823,1,0
280,184,188911,1,2
372,300,189088,1,0
68,116,189264,1,2
200,184,189441,1,0
352,256,189529,1,0
256,188,189617,1,2
372,284,189794,1,0
320,176,189882,1,0
256,188,189970,1,2
372,284,190147,1,0
320,176,190235,1,0
256,188,190323,1,2
372,284,190500,1,0
352,256,190588,1,0
256,188,190676,1,2
352,256,190764,1,2
264,172,190852,5,0
360,284,191029,1,2
280,184,191205,1,0
352,256,191294,1,0
372,300,191382,1,2
352,256,191470,1,2
352,256,191558,1,0
352,256,191735,1,0
256,188,191911,1,2
200,184,192000,1,0
372,284,192088,1,2
68,116,192176,1,2
256,188,192264,1,0
372,284,192441,1,2
256,188,192617,1,0
200,184,192705,1,0
372,284,192794,1,2
256,188,192970,1,0
264,172,193147,5,2
360,284,193323,1,4
372,300,193852,1,6
372,284,194382,1,4
256,188,194911,1,0
372,284,195088,1,2
264,172,195441,5,6
280,184,195794,1,6
68,116,196147,5,4
256,188,196500,1,0
256,188,196852,1,0
256,188,197205,1,2
256,188,197554,1,0
360,284,197954,1,0
372,300,198354,1,2
200,184,198754,1,0
220,4,199154,1,4
200,184,199384,1,0
240,200,199615,1,0
240,200,199730,1,0
240,200,199846,1,0
240,200,200077,1,2
328,308,200307,1,0
240,200,200538,1,0
240,200,200769,1,0
328,308,200884,1,0
240,200,201000,1,2
216,212,201230,1,0
328,308,201461,1,0
328,308,201692,1,0
280,228,201807,1,0
328,308,201923,1,2
348,352,202154,1,0
328,308,202384,1,0
328,308,202615,1,0
328,308,202730,1,0
328,308,202846,1,2
304,180,203077,1,0
304,180,203307,1,0
304,180,203538,1,0
304,180,203654,1,0
304,180,203769,1,2
304,180,204000,1,0
304,180,204230,1,0
296,224,204461,1,0
296,224,204577,1,0
296,224,204692,1,2
296,224,204923,1,0
296,224,205038,1,0
296,224,205154,1,0
320,260,205384,1,0
320,260,205615,1,2
320,260,205730,1,2
320,260,205846,1,2
320,260,205961,1,2
320,260,206077,1,0
320,260,206192,1,0
320,260,206307,1,0
320,260,206538,1,6
164,208,206769,1,0
204,216,207000,1,0
204,216,207115,1,0
204,216,207230,1,0
348,184,207461,1,6
308,232,207923,1,2
308,232,208038,1,2
308,232,208154,1,0
308,232,208384,1,4
352,232,208846,1,0
352,232,208961,1,2
352,232,209077,1,0
352,232,209307,1,4
332,252,209769,1,0
332,252,209884,1,0
332,252,210000,1,2
352,232,210230,1,4
352,232,210692,1,2
332,252,210923,1,0
332,252,211038,1,0
332,252,211154,1,0
336,320,211384,1,0
336,320,211500,1,0
336,320,211615,1,2
344,280,211846,1,0
332,252,212077,1,2
332,252,212192,1,2
332,252,212307,1,0
332,252,212538,1,0
332,252,212654,1,0
344,280,212769,1,2
280,192,213000,1,0
280,192,213115,1,0
280,192,213230,1,0
280,192,213346,1,0
280,192,213461,1,2
280,192,213577,1,2
280,192,213692,1,2
280,192,213923,1,4
332,252,214154,1,0
332,252,214269,1,0
332,252,214384,1,2
332,252,214615,1,0
344,224,214846,1,2
336,316,215192,1,0
332,252,215307,1,2
332,252,215538,1,0
332,252,215769,1,0
336,316,216115,1,0
384,264,216230,1,2
384,264,216461,1,0
384,264,216692,1,0
352,288,217038,1,0
384,264,217154,1,2
384,264,217384,1,0
384,264,217615,1,0
352,288,218077,1,2
352,288,218307,1,0
352,288,218423,1,0
352,288,218538,1,0
352,288,218769,1,0
212,184,219000,1,2
248,200,219115,1,2
248,200,219230,1,0
248,200,219461,1,0
248,200,219692,1,0
344,216,219923,1,2
344,216,220154,1,0
344,216,220384,1,0
328,252,220500,1,0
344,216,220615,1,0
328,252,220730,1,0
328,252,220846,1,2
328,252,220961,1,2
328,252,221077,1,2
220,4,221307,1,4
200,184,221538,1,0
240,200,221769,1,0
240,200,221884,1,0
240,200,222000,1,0
240,200,222231,1,2
328,308,222461,1,0
240,200,222692,1,0
240,200,222923,1,0
328,308,223038,1,0
240,200,223154,1,2
216,212,223384,1,0
328,308,223615,1,0
328,308,223846,1,0
280,228,223961,1,0
328,308,224077,1,2
348,352,224307,1,0
328,308,224538,1,0
328,308,224769,1,0
328,308,224884,1,0
328,308,225000,1,2
304,180,225231,1,0
304,180,225461,1,0
304,180,225692,1,0
304,180,225807,1,0
304,180,225923,1,2
304,180,226154,1,0
304,180,226384,1,0
296,224,226615,1,0
296,224,226731,1,2
296,224,226846,1,0
296,224,227077,1,0
296,224,227192,1,0
296,224,227307,1,2
320,260,227538,1,0
320,260,227769,1,2
320,260,227884,1,2
320,260,228000,1,2
320,260,228115,1,2
320,260,228231,1,0
320,260,228346,1,0
320,260,228461,1,0
280,192,228692,1,4
332,252,228923,1,0
332,252,229154,1,0
332,252,229269,1,0
332,252,229384,1,0
344,224,229615,1,2
332,252,230077,1,0
332,252,230307,1,0
332,252,230538,1,2
384,264,231000,1,2
384,264,231231,1,0
384,264,231461,1,2
384,264,231807,1,0
384,264,231923,1,2
384,264,232154,1,0
384,264,232384,1,2
384,264,232731,1,0
352,288,232846,1,2
352,288,233077,1,0
352,288,233307,1,2
248,200,233654,1,0
248,200,233769,1,2
136,144,234000,1,0
248,200,234231,1,2
184,156,234346,1,2
248,200,234461,1,0
344,216,234692,1,2
344,216,234923,1,0
344,216,235154,1,0
328,252,235269,1,0
344,216,235384,1,0
328,252,235500,1,0
328,252,235615,1,2
328,252,235731,1,2
328,252,235846,1,2
220,4,236077,1,4
344,216,236307,1,0
344,352,236423,1,0
344,216,236538,1,2
328,252,236769,1,0
344,216,236884,1,0
328,252,237000,1,2
344,216,237231,1,0
344,216,237461,1,2
344,216,237692,1,0
344,216,237807,1,0
344,216,237923,1,2
344,216,238154,1,0
344,216,238384,1,2
344,216,238500,1,2
344,216,238615,1,0
344,216,238731,1,0
164,160,238846,1,2
332,272,239077,1,0
332,272,239307,1,0
332,272,239423,1,0
332,272,239538,1,0
332,272,239654,1,0
332,272,239769,1,2
356,292,240000,1,0
332,272,240231,1,2
332,272,240346,1,2
332,272,240461,1,0
356,292,240692,1,2
320,236,240923,1,0
320,236,241154,1,0
320,236,241384,1,0
320,236,241500,1,0
320,236,241615,1,2
320,304,241846,1,0
320,304,241961,1,0
320,304,242077,1,2
356,264,242307,1,0
356,264,242538,1,0
356,264,242654,1,0
356,264,242769,1,0
356,264,242884,1,0
356,264,243000,1,2
356,264,243115,1,2
356,264,243231,1,2
360,304,243461,1,4
324,280,243692,1,0
324,280,243923,1,2
324,280,244038,1,2
352,224,244154,1,0
352,224,244384,1,0
128,184,244731,1,0
160,192,244846,1,2
236,212,245077,1,0
236,212,245308,1,0
236,212,245538,1,0
236,212,245654,1,0
236,212,245769,1,2
344,216,246000,1,0
344,216,246115,1,0
344,216,246231,1,0
348,264,246461,1,0
348,264,246692,1,2
348,264,246808,1,2
348,264,246923,1,0
348,264,247154,1,0
156,172,247500,1,0
348,264,247615,1,2
256,200,247846,1,0
256,200,248077,1,0
348,264,248538,1,2
348,264,248769,1,0
348,264,248884,1,0
348,264,249000,1,0
360,216,249231,1,0
360,216,249461,1,2
360,216,249692,1,0
360,216,249923,1,0
220,164,250038,1,0
220,164,250154,1,0
220,164,250269,1,0
220,164,250384,1,2
220,164,250500,1,2
220,164,250615,1,2
220,164,250846,1,4
320,288,251077,1,0
320,288,251308,1,2
320,288,251423,1,0
320,288,251538,1,0
320,288,251769,1,0
352,332,252115,1,0
352,332,252231,1,2
352,332,252461,1,0
352,332,252577,1,0
352,332,252692,1,0
144,188,252923,1,0
144,188,253154,1,2
172,188,253269,1,2
172,188,253384,1,0
172,188,253615,1,0
172,188,253846,1,0
360,296,254077,1,2
360,296,254308,1,0
360,296,254423,1,0
360,296,254538,1,0
352,356,254769,1,0
360,296,255000,1,2
360,296,255115,1,2
360,296,255231,1,0
360,296,255461,1,0
360,296,255692,1,0
124,176,255923,1,2
124,176,256038,1,2
124,176,256154,1,0
124,176,256384,1,0
152,188,256615,1,0
152,188,256731,1,0
152,188,256846,1,2
264,200,257077,1,0
368,260,257308,1,2
368,260,257423,1,2
368,260,257538,1,2
368,260,257654,1,2
368,260,257769,1,0
368,260,257884,1,0
368,260,258000,1,0
220,4,258231,1,4
200,184,258461,1,2
240,200,258692,1,0
240,200,258808,1,0
240,200,258923,1,0
240,200,259154,1,2
328,308,259384,1,0
240,200,259615,1,0
240,200,259846,1,0
328,308,259961,1,0
240,200,260077,1,2
216,212,260308,1,0
328,308,260538,1,0
328,308,260769,1,0
280,228,260884,1,0
328,308,261000,1,2
348,352,261231,1,0
328,308,261461,1,0
328,308,261692,1,0
328,308,261808,1,0
328,308,261923,1,2
304,180,262154,1,0
304,180,262384,1,0
304,180,262615,1,0
304,180,262731,1,0
304,180,262846,1,2
304,180,263077,1,0
304,180,263308,1,0
296,224,263538,1,0
296,224,263769,1,2
296,224,263884,1,0
296,224,264000,1,0
296,224,264115,1,2
296,224,264231,1,0
320,260,264461,1,0
320,260,264692,1,2
320,260,264808,1,2
320,260,264923,1,2
320,260,265038,1,2
320,260,265154,1,0
320,260,265269,1,0
320,260,265384,1,0
280,192,265615,1,4
256,220,265846,1,2
320,260,266077,1,0
248,160,266192,1,0
376,212,266308,1,0
352,248,266538,1,2
380,280,266769,1,0
352,248,266884,1,0
352,248,267000,1,0
380,280,267231,1,0
316,184,267461,1,2
316,184,267692,1,0
368,312,267808,1,0
316,184,267923,1,0
316,184,268154,1,0
316,184,268269,1,0
316,184,268385,1,2
316,184,268615,1,0
316,184,268846,1,0
368,312,269077,1,0
368,312,269308,1,2
348,296,269538,1,0
348,296,269654,1,0
348,296,269769,1,0
368,312,270000,1,0
368,312,270231,1,2
368,312,270461,1,0
368,312,270577,1,0
368,312,270692,1,0
368,312,270923,1,0
384,280,271038,1,0
384,280,271154,1,2
384,280,271385,1,0
384,280,271615,1,2
288,208,271846,1,0
288,208,272077,1,2
288,208,272192,1,2
288,208,272308,1,2
312,220,272423,1,2
312,220,272538,1,0
312,220,272654,1,0
312,220,272769,1,0
312,220,273000,1,6
380,304,273461,1,0
380,304,273923,1,2
352,164,274385,1,4
352,164,274846,1,4
352,324,275308,1,2
352,324,275769,1,4
352,324,276231,1,2
352,324,276692,1,0
352,324,277154,1,6
352,324,277615,1,4
352,324,278077,1,2
352,324,278538,1,0
332,200,279000,1,6
332,200,279461,1,0
332,200,279692,1,2
332,200,279923,1,2
359,114,291415,5,0
359,114,291595,1,8
359,114,291957,1,4
359,114,292228,1,0
359,114,292499,1,8
359,114,292860,1,0
359,114,293041,1,0
359,114,293222,1,8
359,114,293403,1,0
359,114,293493,1,0
359,114,293583,1,8
359,114,293674,1,0
359,114,293764,1,8
359,114,293945,1,0
359,114,294306,1,0
359,114,294397,1,0
359,114,294487,1,8
359,114,294668,1,0
359,114,294848,1,0
359,114,295119,1,0
359,114,295390,1,8
359,114,295752,1,0
359,114,295842,1,0
359,114,295933,1,0
359,114,296113,1,8
359,114,296294,1,0
359,114,296384,1,0
359,114,296475,1,0
359,114,296656,1,8
359,114,296927,1,0
359,114,297017,1,0
359,114,297198,1,0
359,114,297378,1,8
359,114,297559,1,0
359,114,297740,1,0
359,114,298011,1,0
359,114,298282,1,8
359,114,298372,1,0
359,114,298463,1,0
359,114,298644,1,0
359,114,298824,1,0
359,114,299005,1,8
359,114,299366,1,0
359,114,299547,1,8
359,114,299728,1,0
359,114,299818,1,0
359,114,299909,1,0
359,114,300180,1,0
359,114,300270,1,8
359,114,300451,1,0
359,114,300631,1,2
359,114,300722,1,0
359,114,300812,1,2
359,114,300903,1,2
359,114,300993,1,0
359,114,301174,1,8
359,114,301535,1,0
359,114,301716,1,0
359,114,301897,1,8
359,114,302077,1,0
359,114,302258,1,0
359,114,302348,1,0
359,114,302439,1,8
359,114,302710,1,8
359,114,302800,1,0
359,114,302981,1,0
359,114,303162,1,8
359,114,303252,1,0
359,114,303523,1,12
359,114,303704,1,0
359,114,303884,1,8
359,114,303975,1,8
336,94,304065,1,0
359,114,304156,1,0
359,114,304246,1,8
359,114,304427,1,0
359,114,304517,1,0
359,114,304607,1,8
359,114,304788,1,8
359,114,304969,1,0
359,114,305150,1,8
359,114,305511,1,0
359,114,305692,1,8
359,114,305872,1,8
359,114,305963,1,0
359,114,306053,1,8
359,114,306234,1,0
359,114,306415,1,0
359,114,306686,1,0
359,114,306957,1,8
359,114,307318,1,0
359,114,307499,1,8
359,114,307680,1,0
359,114,307860,1,0
359,114,308041,1,8
359,114,308131,1,8
359,114,308222,1,8
359,114,308403,1,0
359,114,308583,1,8
359,114,308945,1,8
359,114,309125,1,0
359,114,309306,1,8
359,114,309397,1,0
359,114,309577,1,0
359,114,309668,1,8
359,114,309848,1,0
359,114,310029,1,12
359,114,310391,1,8
359,114,310752,1,0
359,114,310933,1,8
359,114,311023,1,8
359,114,311113,1,0
359,114,311294,1,0
359,114,311475,1,8
359,114,311656,1,0
359,114,312017,1,0
359,114,312198,1,8
359,114,312469,1,0
359,114,312740,1,0
359,114,312921,1,8
359,114,313101,1,0
359,114,313192,1,0
359,114,313282,1,8
359,114,313463,1,0
359,114,313644,1,8
359,114,313824,1,0
359,114,314005,1,8
359,114,314186,1,0
359,114,314276,1,0
359,114,314366,1,0
359,114,314547,1,8
359,114,314728,1,2
359,114,314818,1,0
359,114,315089,1,12
359,114,315270,1,0
359,114,315360,1,0
359,114,315451,1,8
359,114,315631,1,0
359,114,315812,1,0
359,114,316174,1,8
359,114,316354,1,0
359,114,316716,1,0
359,114,316897,1,8
359,114,317077,1,0
359,114,317168,1,8
359,114,317258,1,0
359,114,317439,1,0
359,114,317619,1,8
359,114,317710,1,8
359,114,317800,1,0
359,114,317890,1,0
359,114,317981,1,8
359,114,318342,1,0
359,114,318523,1,8
359,114,318704,1,0
359,114,318884,1,0
359,114,318975,1,0
359,114,319065,1,0
359,114,319246,1,8
359,114,319427,1,0
359,114,319607,1,0
359,114,319698,1,0
359,114,319788,1,8
359,114,319878,1,0
359,114,320059,1,0
359,114,320150,1,0
359,114,320330,1,8
359,114,320421,1,0
359,114,320511,1,0
359,114,320692,1,8
359,114,320872,1,4
256,192,321234,12,0,323403
328,142,323764,5,4
328,142,324125,1,0
328,142,324306,1,8
328,142,324487,1,8
328,142,324577,1,8
328,142,324668,1,0
328,142,324758,1,0
328,142,324848,1,8
328,142,325029,1,0
328,142,325210,1,0
328,142,325300,1,0
328,142,325390,1,8
328,142,325571,1,8
328,142,325752,1,0
328,142,325933,1,8
328,142,326113,1,0
328,142,326294,1,0
328,142,326384,1,0
328,142,326475,1,8
328,142,326565,1,8
328,142,326656,1,0
328,142,327017,1,0
328,142,327378,1,8
328,142,327740,1,0
328,142,327921,1,8
328,142,328101,1,0
328,142,328282,1,8
328,142,328372,1,0
328,142,328463,1,8
328,142,328644,1,0
328,142,328824,1,8
328,142,329005,1,0
328,142,329095,1,0
328,142,329186,1,8
328,142,329366,1,8
328,142,329547,1,0
328,142,329909,1,0
328,142,330089,1,8
328,142,330180,1,0
328,142,330270,1,8
328,142,330451,1,0
328,142,330631,1,8
328,142,330812,1,8
328,142,330993,1,0
328,142,331083,1,0
328,142,331174,1,8
328,142,331264,1,0
328,142,331354,1,8
328,142,331535,1,0
328,142,331716,1,8
328,142,331806,1,0
328,142,331987,1,0
328,142,332077,1,8
328,142,332258,1,8
328,142,332348,1,0
328,142,332439,1,8
328,142,332619,1,0
328,142,332800,1,0
328,142,332981,1,8
328,142,333071,1,8
328,142,333162,1,8
328,142,333342,1,0
328,142,333523,1,8
328,142,333704,1,0
328,142,333884,1,8
328,142,333975,1,8
328,142,334065,1,8
328,142,334156,1,8
328,142,334246,1,0
328,142,334427,1,0
328,142,334607,1,12
328,142,334969,1,12
328,142,335330,1,4
328,142,335511,1,0
328,142,335601,1,0
328,142,335692,1,0
328,142,335872,1,0
328,142,336053,1,8
328,142,336324,1,0
328,142,336415,1,8
328,142,336595,1,0
328,142,336776,1,8
328,142,336866,1,0
328,142,337047,1,0
328,142,337137,1,8
328,142,337228,1,8
328,142,337318,1,0
328,142,337499,1,8
328,142,337680,1,0
328,142,337860,1,0
328,142,338041,1,8
328,142,338131,1,8
328,142,338222,1,8
328,142,338493,1,0
328,142,338583,1,2
328,142,338764,1,0
328,142,338945,1,8
328,142,339035,1,8
328,142,339125,1,0
328,142,339216,1,0
328,142,339306,1,0
328,142,339487,1,8
328,142,339668,1,0
328,142,339848,1,0
328,142,339939,1,0
328,142,340029,1,8
328,142,340119,1,0
328,142,340300,1,0
328,142,340390,1,8
328,142,340571,1,0
328,142,340752,1,8
328,142,340842,1,8
328,142,340933,1,0
328,142,341113,1,4
328,142,341294,1,8
328,142,341384,1,8
328,142,341475,1,8
328,142,341656,1,0
328,142,341836,1,8
328,142,341927,1,8
328,142,342017,1,0
328,142,342107,1,0
328,142,342198,1,8
328,142,342378,1,0
328,142,342559,1,8
328,142,342650,1,0
328,142,342830,1,0
328,142,342921,1,8
328,142,343101,1,8
328,142,343192,1,0
328,142,343282,1,8
328,142,343644,1,0
328,142,344005,1,4
328,142,344186,1,8
328,142,344366,1,8
328,142,344547,1,8
328,142,344637,1,0
328,142,344728,1,8
328,142,344909,1,8
328,142,344999,1,8
328,142,345089,1,0
328,142,345180,1,0
328,142,345270,1,8
328,142,345360,1,8
328,142,345451,1,0
328,142,345631,1,0
328,142,345722,1,0
328,142,345812,1,8
328,142,345993,1,0
328,142,346174,1,8
328,142,346535,1,8
328,142,346716,1,8
328,142,346897,1,0
328,142,347077,1,0
328,142,347168,1,0
328,142,347258,1,0
328,142,347439,1,8
328,142,347619,1,8
328,142,347800,1,0
328,142,347890,1,0
328,142,347981,1,0
328,142,348162,1,0
328,142,348342,1,8
328,142,348523,1,0
328,142,348613,1,0
328,142,348704,1,8
328,142,348884,1,8
328,142,349065,1,0
328,142,349156,1,0
328,142,349246,1,0
328,142,349336,1,0
328,142,349427,1,8
328,142,349607,1,0
328,142,349788,1,8
328,142,349969,1,0
328,142,350150,1,0
328,142,350330,1,0
328,142,350511,1,2
328,142,350692,1,0
328,142,350782,1,0
328,142,350872,1,8
328,142,351053,1,8
328,142,351234,1,0
328,142,351415,1,0
328,142,351595,1,8
328,142,351776,1,0
328,142,351957,1,8
328,142,352137,1,0
328,142,352318,1,0
328,142,352499,1,8
328,142,352589,1,8
328,142,352680,1,0
328,142,352860,1,0
328,142,353041,1,0
328,142,353222,1,0
328,142,353312,1,0
328,142,353403,1,8
328,142,353583,1,0
328,142,353764,1,8
328,142,354125,1,0
328,142,354487,1,0
328,142,354848,1,8
328,142,355210,1,0
328,142,355390,1,0
328,142,355571,1,8
328,142,355752,1,0
328,142,355933,1,0
328,142,356113,1,0
328,142,356294,1,8
328,142,356475,1,0
328,142,356656,1,0
328,142,356836,1,0
328,142,357017,1,12
328,142,357198,1,0
328,142,357378,1,0
328,142,357559,1,0
328,142,357740,1,8
328,142,357921,1,0
328,142,358011,1,0
328,142,358101,1,0
328,142,358282,1,0
328,142,358463,1,8
328,142,358734,1,0
328,142,358824,1,8
328,142,359005,1,0
328,142,359095,1,0
328,142,359186,1,8
328,142,359366,1,0
328,142,359547,1,8
328,142,359728,1,0
328,142,359909,1,12
328,142,360089,1,0
328,142,360270,1,0
328,142,360451,1,0
328,142,360541,1,0
328,142,360631,1,8
328,142,360812,1,0
328,142,360993,1,0
328,142,361174,1,0
328,142,361264,1,0
328,142,361354,1,8
328,142,361535,1,0
328,142,361716,1,0
328,142,361897,1,0
328,142,362077,1,8
328,142,362258,1,0
328,142,362439,1,0
328,142,362619,1,0
328,142,362800,1,8
328,142,362981,1,0
328,142,363162,1,0
328,142,363252,1,0
328,142,363342,1,0
328,142,363433,1,0
328,142,363523,1,8
328,142,363704,1,0
328,142,363884,1,0
328,142,364065,1,0
328,142,364246,1,8
328,142,364607,1,4
328,142,364969,1,12
328,142,365330,1,4
328,142,365692,1,12
328,142,365872,1,0
328,142,366053,1,0
328,142,366234,1,0
328,142,366415,1,8
328,142,366595,1,0
328,142,366776,1,0
328,142,366957,1,0
328,142,367137,1,8
328,142,367318,1,0
328,142,367409,1,0
328,142,367499,1,0
328,142,367680,1,0
328,142,367860,1,8
328,142,368041,1,0
328,142,368222,1,0
328,142,368312,1,0
328,142,368403,1,0
328,142,368493,1,0
328,142,368583,1,8
328,142,368764,1,0
328,142,368945,1,2
328,142,369306,1,4
328,142,370029,1,12
328,142,370752,1,4
328,142,371475,1,12
328,142,372017,1,6
328,142,372559,1,4
328,142,373101,1,0
328,142,373282,1,2
328,142,373463,1,0
328,142,373553,1,0
328,142,373644,1,2
328,142,373734,1,2
328,142,373824,1,0
328,142,373915,1,0
328,142,374005,1,2
328,142,374095,1,2
328,142,374186,1,0
328,142,374366,1,4
328,142,374728,1,0
328,142,374909,1,6
328,142,375270,1,0
328,142,375451,1,12
328,142,375812,1,0
328,142,375993,1,8
328,142,376083,1,0
328,142,376174,1,0
328,142,376354,1,0
328,142,376535,1,2
328,142,376716,1,0
328,142,376897,1,2
328,142,377077,1,0
328,142,377258,1,6
328,142,377658,1,2
328,142,377858,1,4
328,142,378258,1,4
328,142,378458,1,2
328,142,378858,1,0
328,142,379058,1,8
328,142,379258,1,0
328,142,379458,1,8
328,142,379558,1,8
328,142,379658,1,0
328,142,379858,1,8
328,142,380058,1,12
328,142,380458,1,4
328,142,380658,1,12
328,142,381058,1,12
328,142,381658,1,4
328,142,382058,1,0
328,142,382258,1,8
328,142,382458,1,0
328,142,382658,1,8
328,142,382858,1,0
328,142,382958,1,0
328,142,383058,1,0
328,142,383258,1,12
328,142,383458,1,0
328,142,383658,1,12
328,142,384058,1,12
328,142,384258,1,0
328,142,384658,1,0
328,142,384858,1,12
328,142,385258,1,8
328,142,385858,1,0
328,142,386058,1,8
328,142,386191,1,8
328,142,386324,1,8
328,142,386458,1,0
328,142,386591,1,0
328,142,386724,1,0
328,142,386858,1,12
328,142,387746,1,4
328,142,388635,1,4
328,142,389777,1,4
256,192,391415,5,4
256,192,394415,1,0
256,192,395415,1,0
256,192,396165,1,0
256,192,396415,5,2
256,192,397165,1,2
256,192,397415,5,0
256,192,398165,1,0
256,192,398415,1,0
256,192,399165,1,0
256,192,399415,5,2
256,192,400415,1,2
256,192,400915,1,2
256,192,401415,5,0
256,192,401915,5,2
256,192,402415,5,0
256,192,402915,1,0
256,192,403415,1,0
256,192,404165,1,0
256,192,404415,5,2
256,192,404915,5,0
256,192,405415,1,0
256,192,406415,1,0
256,192,406790,1,0
256,192,407165,5,2
256,192,407415,5,0
256,192,408415,1,0
256,192,409415,1,0
256,192,410415,5,2
256,192,411415,1,2
256,192,413415,5,0
256,192,413915,5,2
256,192,414915,5,0
256,192,415415,5,2
256,192,415915,5,0
256,192,416415,1,0
256,192,416665,1,0
256,192,416915,5,2
256,192,417165,1,2
256,192,417415,5,0
256,192,418415,1,0
256,192,419415,5,2
256,192,419915,12,0,422415
256,192,423116,5,0
256,192,423416,5,12
256,192,424316,1,8
256,192,424916,5,0
256,192,425066,1,0
256,192,425216,5,8
256,192,425366,5,0
256,192,425666,1,0
256,192,425816,1,0
256,192,426116,1,0
256,192,426416,5,8
256,192,426716,5,0
256,192,427016,1,4
256,192,427616,5,8
256,192,427916,1,8
256,192,428516,5,0
256,192,428666,1,0
256,192,428816,5,8
256,192,428966,1,0
256,192,429266,1,0
256,192,429416,1,0
256,192,429716,5,8
256,192,430016,5,0
256,192,430316,1,0
256,192,430616,1,0
256,192,431216,1,0
256,192,431516,5,8
256,192,432116,1,8
256,192,432266,1,8
256,192,432416,5,0
256,192,432566,1,0
256,192,432866,1,0
256,192,433016,5,8
256,192,433316,5,8
256,192,433616,1,8
256,192,433916,5,0
256,192,434216,1,0
256,192,434816,5,8
256,192,435116,1,8
256,192,435716,1,8
256,192,436016,5,0
256,192,436166,1,0
256,192,436316,5,8
256,192,436616,1,8
256,192,436916,5,0
256,192,437216,1,0
256,192,437366,1,0
256,192,437516,1,0
256,192,437816,5,8
256,192,438116,5,0
256,192,438416,1,0
256,192,438716,5,8
256,192,439316,1,8
256,192,439616,5,0
256,192,439916,5,8
256,192,440216,5,0
256,192,440516,5,8
256,192,440816,1,8
256,192,441116,1,8
256,192,441416,5,4
256,192,442016,1,0
256,192,442316,5,8
256,192,442616,5,0
256,192,442766,1,0
256,192,442916,5,8
256,192,443216,1,8
256,192,443816,5,0
256,192,444416,5,8
256,192,444716,5,0
256,192,445016,5,8
256,192,445616,1,8
256,192,445916,5,0
256,192,446216,5,8
256,192,446366,1,8
256,192,446516,5,0
256,192,446816,5,8
256,192,447116,5,0
256,192,447416,5,8
256,192,447716,1,8
256,192,448016,1,8
256,192,448616,5,4
256,192,449216,1,0
256,192,449516,5,8
256,192,449816,5,0
256,192,449966,1,0
256,192,450116,5,8
256,192,450416,1,8
256,192,451016,5,0
256,192,451616,5,8
256,192,451916,5,0
256,192,452216,5,8
256,192,452516,1,8
256,192,452666,1,8
256,192,452816,1,8
256,192,453116,5,0
256,192,453416,5,8
256,192,453716,1,8
256,192,454016,5,0
256,192,454916,5,8
256,192,455216,5,0
256,192,455516,1,0
256,192,455816,1,4
256,192,456116,12,0,459416
348,336,463016,5,4
352,200,463616,1,0
324,240,463816,1,2
336,272,464216,1,0
336,272,464416,1,0
324,240,464616,1,2
324,240,464816,1,0
324,240,465216,1,0
324,240,465416,1,2
324,180,465816,1,0
224,188,466216,1,4
348,288,466816,1,0
324,240,467016,1,2
348,288,467416,1,0
348,288,467616,1,0
324,240,467816,1,2
348,288,468016,1,0
328,200,468416,1,0
324,240,468616,1,2
372,304,469016,1,0
224,188,469416,1,4
324,240,470216,1,2
344,328,470816,1,0
324,240,471016,1,2
344,328,471416,1,0
344,328,471816,1,2
344,328,472216,1,0
128,180,472416,1,0
224,188,472616,1,6
324,240,473016,1,0
184,176,473216,1,2
260,192,473616,1,0
260,192,473816,1,2
324,240,474216,1,0
272,116,474416,1,2
272,116,474816,1,0
324,240,475016,1,2
368,212,475416,1,2
224,188,475816,1,4
324,240,476616,1,2
324,240,477416,1,2
328,288,477616,1,0
328,288,478016,1,0
324,240,478216,1,2
368,316,478616,1,0
224,188,479016,1,4
324,240,479816,1,2
352,276,480416,1,0
324,240,480616,1,2
352,276,481016,1,0
388,248,481216,1,0
324,240,481416,1,2
128,212,481816,1,2
256,192,482216,12,0,485216
256,192,485416,12,0,488616
