osu file format v9

[General]
AudioFilename: A Whole New World God Only Knows (TV Size).mp3
AudioLeadIn: 0
PreviewTime: 40014
Countdown: 0
SampleSet: Normal
StackLeniency: 0.7
Mode: 0
LetterboxInBreaks: 0

[Editor]
DistanceSpacing: 1.2
BeatDivisor: 4
GridSize: 16

[Metadata]
Title:A Whole New World God Only Knows (TV Size)
Artist:Oratorio The World God Only Knows
Creator:DJPop
Version:Normal
Source:Kami Nomi zo Shiru Sekai II
Tags:ELISA kanpakyin KanaRin

[Difficulty]
HPDrainRate:3
CircleSize:3
OverallDifficulty:4
ApproachRate:5
SliderMultiplier:1.28
SliderTickRate:2

[Events]
//Background and Video events
0,0,"A Whole New World God Only Knows (TV Size).png"
Video,365,"A Whole New World God Only Knows (TV Size).avi"
//Break Periods
//Storyboard Layer 0 (Background)
//Storyboard Layer 1 (Fail)
//Storyboard Layer 2 (Pass)
//Storyboard Layer 3 (Foreground)
//Storyboard Sound Samples
//Background Colour Transformations
3,100,0,0,0

[TimingPoints]
415,397.350993377483,4,1,1,50,1,0
14421,-100,4,1,1,60,0,0
14620,-100,4,1,1,70,0,0
22269,-100,4,1,2,70,0,0
22368,-100,4,1,1,70,0,0
23064,-100,4,2,2,70,0,0
23163,-100,4,1,1,70,0,0
23858,-100,4,2,2,70,0,0
23958,-100,4,1,1,70,0,0
24653,-100,4,2,2,70,0,0
24752,-100,4,1,1,70,0,0
25448,-100,4,2,2,70,0,0
25547,-100,4,1,1,70,0,0
27435,400,5,2,1,50,1,0
27635,-200,5,2,1,50,0,0
28535,-200,5,1,2,50,0,0
28835,-200,5,2,1,50,0,0
29235,-200,5,1,2,50,0,0
29535,-200,5,2,1,50,0,0
30535,-200,5,1,2,50,0,0
31535,-200,5,2,1,50,0,0
32535,-200,5,1,2,50,0,0
32735,-200,5,2,1,50,0,0
33235,-200,5,1,2,50,0,0
33535,-200,5,2,1,50,0,0
34535,-200,5,1,2,50,0,0
34735,-200,5,2,1,50,0,0
35235,-200,5,1,2,50,0,0
35535,-200,5,2,1,50,0,0
36135,-200,5,2,1,25,0,0
36435,-200,5,1,2,50,0,0
36735,-200,5,2,1,50,0,0
37335,-200,5,1,2,50,0,0
37635,-200,5,1,2,80,0,0
37935,-200,5,2,2,80,0,0
40635,-100,5,1,1,80,0,0
41036,392.156862745098,4,1,1,80,1,1
45349,-100,4,2,2,80,0,1
45447,-100,4,1,1,80,0,1
47702,-100,4,2,2,80,0,1
47800,-100,4,1,1,80,0,1
48486,-100,4,2,2,80,0,1
48585,-100,4,1,1,80,0,1
49271,-100,4,2,2,80,0,1
49369,-100,4,1,1,80,0,1
50055,-100,4,2,2,80,0,1
50153,-100,4,1,1,80,0,1
54761,-100,4,2,2,80,0,1
54859,-100,4,1,1,80,0,1
57114,-100,4,2,2,80,0,1
57212,-100,4,1,1,80,0,1
62800,-200,4,1,1,80,0,1
63094,-200,4,2,1,50,0,0
69075,-200,4,2,2,80,0,0
69663,-125,4,2,1,65,0,0
70447,-125,4,2,2,65,0,0
71232,-125,4,2,1,65,0,0
72016,-100,4,1,1,80,0,0
72604,-100,4,2,1,80,0,0
72702,-100,4,1,1,80,0,0
73977,-100,4,2,1,80,0,0
74075,-100,4,1,1,80,0,0
74565,-100,4,1,1,80,0,0
75349,-100,4,1,1,80,0,0
75741,-100,4,2,1,80,0,0
75839,-100,4,1,1,80,0,0
76134,-100,4,2,1,80,0,0
76232,-100,4,1,1,80,0,0
76526,-100,4,2,1,80,0,0
76624,-100,4,1,1,80,0,0
77310,-100,4,2,1,80,0,0
77408,-100,4,1,1,80,0,0
77702,-100,4,2,1,80,0,0
77800,-100,4,1,1,80,0,0
78094,-100,4,2,1,80,0,0
78192,-100,4,1,1,80,0,0
78684,392.156862745098,3,1,1,80,1,1
78782,-100,3,2,1,50,0,1
83978,-100,3,2,1,35,0,1
85154,-125,3,2,1,20,0,1
86331,-166.666666666667,3,2,1,5,0,1
87507,-166.666666666667,3,2,1,0,0,0

[Colours]
Combo1 : 0,255,0
Combo2 : 0,255,255
Combo3 : 255,0,255
Combo4 : 255,255,0

[HitObjects]
64,136,14322,5,0
64,136,14520,1,0
64,136,14719,2,0,B|40:160|27:192|40:224|64:248,3,128,0|8|0|8
256,288,16309,2,0,B|230:304|195:312|158:304|134:288,1,128,0|8
134,95,17103,2,0,B|158:79|195:71|230:79|256:96,1,128,0|8
448,136,17898,6,0,B|472:160|485:192|472:224|448:248,3,128,0|8|0|8
256,288,19488,2,0,B|281:304|316:312|353:304|377:288,1,128,0|8
377,95,20282,2,0,B|353:79|316:71|281:79|256:96,1,128,0|8
255,95,20878,1,0
255,95,21077,1,0
176,224,21474,5,8
176,224,21673,2,0,B|110:246|71:292,2,128
336,224,22865,2,0,B|402:246|440:292,3,128
400,352,24256,6,0,B|352:352|311:336|288:272|336:224,1,192
175,223,25249,2,0,B|224:272|201:336|160:352|112:352,3,192
70,293,27236,1,0
128,80,27835,5,2
225,32,28235,2,0,B|256:25|287:32,1,64,0|2
384,80,29035,1,0
303,144,29435,2,0,B|256:154|209:144,2,96,0|0|2
32,128,31435,6,0,B|76:172,1,64,0|2
144,240,32235,2,0,B|188:284,1,64,0|2
256,352,33035,1,0
256,352,33435,6,0,B|301:306,1,64,0|2
368,240,34235,2,0,B|413:194,1,64,0|2
480,128,35035,1,0
416,48,35435,6,0,B|304:112,1,128,2|0
207,111,36635,2,0,B|96:48,1,128,2|2
32,128,37835,1,2
256,192,37935,12,0,39535
352,336,41036,6,0,B|462:272,3,128,4|8|0|8
444,208,42408,2,0,B|392:182|347:200|309:230|305:288,1,192,0|8
160,336,43388,1,0
68,208,43781,1,8
200,128,44173,6,0,B|96:48,2,128,0|8|0
200,192,45153,2,0,B|224:216|256:229|288:216|312:192,1,128,0|4
413,49,46134,2,0,B|312:128,2,128,8|4|8
480,192,47310,6,0,B|480:296|392:352,1,192,4|0
312,224,48290,2,0,B|288:200|256:187|224:200|200:224,3,128
120,352,49859,2,0,B|32:296|32:192,1,192,0|4
32,32,51035,5,4
256,352,51820,1,4
480,32,52604,1,4
256,32,53585,6,0,B|256:160,1,128,4|8
256,160,54173,1,0
224,304,54565,2,0,B|104:352,2,128
288,304,55545,2,0,B|408:352,2,128,8|0|8
336,160,56722,6,0,B|304:208|256:215|208:208|176:160,2,192,0|0|8
336,160,58094,1,0
336,160,58290,1,0
456,64,58683,2,0,B|332:32,1,128,8|0
179,32,59467,2,0,B|56:64,1,128,8|0
32,192,60251,5,8
32,192,60447,1,4
256,352,61035,1,8
256,352,61232,1,4
480,192,61820,1,8
480,192,62016,1,4
256,32,62604,1,8
192,132,62996,6,0,B|155:192|192:252,3,128,4|0|0|0
256,352,65741,1,2
319,252,66134,2,0,B|357:192|320:132,3,128,2|0|0|0
256,32,68879,1,2
256,32,69271,5,2
32,192,70055,1,8
256,352,70839,1,8
480,192,71624,1,8
216,32,72408,6,0,B|176:64|168:88|166:112|168:136|176:160|216:192,1,192,6|6
256,112,73388,1,2
296,32,73781,2,0,B|336:64|344:88|346:112|344:136|336:160|296:192,1,192,6|8
448,212,74761,6,0,B|485:272|448:332,1,128,4|8
320,352,75545,2,0,B|192:352,3,128,4|8|0|8
64,332,77114,2,0,B|27:272|64:212,3,128,4|8|0|8
256,192,78684,5,4
256,192,78782,12,2,83389
256,32,84566,1,2
256,192,85742,5,2
256,352,86919,5,2
