osu file format v9

[General]
AudioFilename: A Whole New World God Only Knows (TV Size).mp3
AudioLeadIn: 0
PreviewTime: 40014
Countdown: 0
SampleSet: Normal
StackLeniency: 0.7
Mode: 0
LetterboxInBreaks: 0

[Editor]
DistanceSpacing: 1.7
BeatDivisor: 4
GridSize: 16

[Metadata]
Title:A Whole New World God Only Knows (TV Size)
Artist:Oratorio The World God Only Knows
Creator:DJPop
Version:Hard
Source:Kami Nomi zo Shiru Sekai II
Tags:ELISA kanpakyin KanaRin

[Difficulty]
HPDrainRate:4
CircleSize:4
OverallDifficulty:5
ApproachRate:7
SliderMultiplier:1.6
SliderTickRate:2

[Events]
//Background and Video events
0,0,"A Whole New World God Only Knows (TV Size).png"
Video,365,"A Whole New World God Only Knows (TV Size).avi"
//Break Periods
//Storyboard Layer 0 (Background)
//Storyboard Layer 1 (Fail)
//Storyboard Layer 2 (Pass)
//Storyboard Layer 3 (Foreground)
//Storyboard Sound Samples
//Background Colour Transformations
3,100,0,0,0

[TimingPoints]
415,397.350993377483,4,1,1,50,1,0
12732,-200,4,2,1,50,0,0
13825,-200,4,2,1,25,0,0
14123,-100,4,1,1,50,0,0
14421,-100,4,1,1,60,0,0
14620,-100,4,1,1,70,0,0
16706,-100,4,1,2,70,0,0
16805,-100,4,1,1,70,0,0
17501,-100,4,1,2,70,0,0
17600,-100,4,1,1,70,0,0
19885,-100,4,1,2,70,0,0
19984,-100,4,1,1,70,0,0
22269,-100,4,1,2,70,0,0
22368,-100,4,1,1,70,0,0
27435,400,5,2,1,50,1,0
27635,-200,5,2,1,50,0,0
28535,-200,5,1,2,50,0,0
28835,-200,5,2,1,50,0,0
29235,-200,5,1,2,50,0,0
29535,-200,5,2,1,50,0,0
30535,-200,5,1,2,50,0,0
31535,-200,5,2,1,50,0,0
32535,-200,5,1,2,50,0,0
32735,-200,5,2,1,50,0,0
33235,-200,5,1,2,50,0,0
33535,-200,5,2,1,50,0,0
34535,-200,5,1,2,50,0,0
34735,-200,5,2,1,50,0,0
35235,-200,5,1,2,50,0,0
35535,-200,5,2,1,50,0,0
36135,-200,5,2,1,25,0,0
36435,-200,5,1,2,50,0,0
36735,-200,5,2,1,50,0,0
37335,-200,5,1,2,50,0,0
37635,-200,5,1,2,80,0,0
37935,-200,5,2,1,80,0,0
39335,-200,5,2,2,80,0,0
39835,-100,5,2,1,50,0,0
40435,-100,5,2,1,65,0,0
40835,-100,5,1,1,80,0,0
41036,392.156862745098,4,1,1,80,1,1
42212,-100,4,2,2,80,0,1
42310,-100,4,1,1,80,0,1
45349,-100,4,2,2,80,0,1
45447,-100,4,1,1,80,0,1
54761,-100,4,2,2,80,0,1
54859,-100,4,1,1,80,0,1
57114,-100,4,2,2,80,0,1
57212,-100,4,1,1,80,0,1
62898,-188.679245283019,4,1,1,80,0,1
63094,-188.679245283019,4,2,1,50,0,0
65937,-188.679245283019,4,2,1,50,0,0
69173,-123.456790123457,4,2,2,80,0,0
69565,-123.456790123457,4,2,2,65,0,0
69957,-123.456790123457,4,2,1,65,0,0
70349,-123.456790123457,4,2,2,65,0,0
71526,-123.456790123457,4,2,1,65,0,0
71918,-123.456790123457,4,1,1,65,0,0
72310,-188.679245283019,4,1,1,80,0,0
73977,-188.679245283019,4,2,1,80,0,0
74075,-188.679245283019,4,1,1,80,0,0
74565,-100,4,1,1,80,0,0
75349,-100,4,1,1,80,0,0
75741,-100,4,2,1,80,0,0
75839,-100,4,1,1,80,0,0
76526,-100,4,2,1,80,0,0
76624,-100,4,1,1,80,0,0
77310,-100,4,2,1,80,0,0
77408,-100,4,1,1,80,0,0
78094,-100,4,2,1,80,0,0
78192,-100,4,1,1,80,0,0
78684,392.156862745098,3,1,1,80,1,1
78782,-100,3,2,1,50,0,1
83585,-100,3,2,1,35,0,1
84762,-125,3,2,1,20,0,1
85938,-166.666666666667,3,2,1,5,0,1
87507,-166.666666666667,3,2,1,0,0,0

[Colours]
Combo1 : 0,255,0
Combo2 : 0,255,255
Combo3 : 255,0,255
Combo4 : 255,255,0

[HitObjects]
256,192,13130,2,0,B|256:352,1,160
256,192,14322,5,0
256,112,14520,1,0
208,48,14719,2,0,B|148:1|96:32|80:80,1,160,0|8
51,155,15315,1,0
122,191,15514,1,0
57,238,15713,1,0
128,274,15911,1,8
256,112,16309,5,0
304,48,16507,2,0,B|364:1|416:32|432:80,1,160
464,156,17103,2,0,B|496:245|456:328|368:336,1,240
288,352,17898,1,0
112,336,18295,5,8
32,352,18494,2,0,B|28:320|36:261|96:252|128:256,1,160
129,256,19090,1,8
32,32,19487,1,0
32,32,19686,2,0,B|28:64|36:123|96:132|128:128,1,160
112,48,20282,1,0
256,112,20679,5,8
256,192,20878,1,0
256,272,21077,1,0
416,240,21474,1,8
416,240,21673,2,0,B|395:278|400:320|432:352|480:352,2,160
416,32,22865,1,0
480,80,23064,1,8
416,128,23262,2,0,B|384:128|352:128|336:112|328:80|296:80|288:48|272:32|240:32|208:32,1,240,0|8
144,80,24057,5,0
80,128,24256,1,0
32,352,24653,2,0,B|96:304,1,80,8|0
256,352,25249,5,0
256,272,25448,1,8
256,32,25845,2,0,B|256:112,1,80
432,128,26441,5,0
368,80,26640,1,0
416,304,27037,2,0,B|480:352,1,80
224,352,27835,5,2
80,256,28235,1,0
32,192,28435,1,0
80,128,28635,1,2
224,32,29035,1,0
224,192,29435,1,0
368,256,29835,1,2
440,288,30035,1,0
368,128,30435,1,0
440,96,30635,1,2
80,148,31435,6,0,B|40:143,2,40,0|0|2
112,76,32035,2,0,B|92:41,2,40
191,84,32635,2,0,B|206:47,2,40,2|0|0
80,236,33435,6,0,B|40:240,1,40
112,308,33835,2,0,B|92:342,1,40,2|0
191,300,34235,2,0,B|206:336,1,40
160,228,34635,2,0,B|176:208|175:192|176:176|160:156,1,80,2|0
368,32,35435,6,0,B|376:32|400:24|463:34|472:96|464:120|464:128,1,160,2|0
463,254,36635,2,0,B|463:263|471:287|462:349|399:359|375:351|367:351,1,160,2|2
368,192,37835,2,0,B|48:192,1,320,2|0
256,96,40035,5,0
256,96,40235,1,0
256,288,40635,1,0
144,40,41036,6,0,B|32:152,1,160,4|8
30,230,41624,2,0,B|144:344,3,160
224,352,42996,1,8
104,192,43388,1,0
224,32,43781,1,8
384,32,44173,6,0,B|463:73|480:152,1,160,0|8
480,231,44761,2,0,B|463:311|384:352,2,160,0|0|4
288,256,45937,2,0,B|336:192,1,80,0|8
288,128,46330,2,0,B|336:192,1,80,0|4
136,232,46918,1,8
136,152,47114,1,0
64,120,47310,6,0,B|40:152|32:168|32:192|32:216|40:232|64:264,1,160,4|8
64,264,47898,1,0
208,352,48290,1,0
288,336,48486,1,8
368,320,48683,2,0,B|432:304|496:272|490:199|464:144,1,240,0|8
435,68,49467,1,0
256,32,49859,1,0
240,112,50055,1,8
176,64,50251,1,0
160,144,50447,1,4
96,96,50643,6,0,B|40:40,2,80,0|8|4
96,288,51428,6,0,B|40:344,2,80,0|8|4
416,288,52212,6,0,B|472:344,2,80,0|8|4
416,96,52996,6,0,B|472:40,2,80,0|8|4
432,192,53585,5,4
288,272,53977,1,8
224,320,54173,2,0,B|152:380|80:320,2,160
288,112,55349,1,0
224,64,55545,2,0,B|152:4|80:64,2,160,8|0|8
128,256,56722,6,0,B|32:256|29:193|32:128|128:128,2,240,0|0|8
176,192,58094,1,0
256,192,58290,1,0
368,352,58683,1,8
480,192,59075,1,0
368,32,59467,1,8
208,32,59859,6,0,B|124:32|80:112,1,160,4|8
48,186,60447,1,4
60,264,60643,1,0
128,304,60839,2,0,B|64:352,2,80,0|8|4
384,304,61624,2,0,B|448:352,2,80,0|8|4
251,196,62408,1,0
328,173,62604,1,8
403,150,62800,1,0
480,128,62996,6,0,B|464:56|416:15|367:15|336:31|320:63|336:112|304:143|256:149|208:143|175:111|192:63|176:31|144:16|96:15|48:55|32:128,1,593.600009906769,4|2
176,208,66134,6,0,B|112:318,1,127.200002122879,2|0
192,352,66918,2,0,B|320:352,1,127.200002122879
399,318,67702,2,0,B|336:208,1,127.200002122879
256,175,68486,2,0,B|256:260,2,84.8000014152527,0|2|2
256,32,69859,5,8
256,32,70055,1,8
160,304,70643,2,0,B|132:288,2,32.4000005407333,8|8|0
256,352,71134,1,8
352,304,71428,2,0,B|407:272,1,64.8000010814667,8|8
368,80,72212,5,0
312,136,72408,1,6
144,80,72800,5,0
200,136,72996,1,6
256,32,73388,5,2
256,192,73781,2,0,B|256:320,1,127.200002122879,6|8
413,219,74761,6,0,B|255:191,1,160,4|8
378,89,75545,6,0,B|255:191,1,160,4|8
256,32,76330,6,0,B|256:192,1,160,0|8
133,89,77114,6,0,B|255:191,1,160,4|8
98,219,77898,6,0,B|255:191,1,160,0|8
256,192,78684,5,4
256,192,78782,12,2,83389
177,336,83782,6,0,B|256:353|335:336,1,160
256,48,84566,1,2
193,240,84958,6,0,B|256:253|319:240,1,128
256,48,85742,1,2
209,144,86134,6,0,B|256:154|303:144,1,96.0000022888184
256,48,86919,1,2
