osu file format v9

[General]
AudioFilename: A Whole New World God Only Knows (TV Size).mp3
AudioLeadIn: 0
PreviewTime: 40014
Countdown: 0
SampleSet: Normal
StackLeniency: 0.7
Mode: 0
LetterboxInBreaks: 0

[Editor]
DistanceSpacing: 1
BeatDivisor: 4
GridSize: 32

[Metadata]
Title:A Whole New World God Only Knows (TV Size)
Artist:Oratorio The World God Only Knows
Creator:DJPop
Version:Easy
Source:Kami Nomi zo Shiru Sekai II
Tags:ELISA kanpakyin KanaRin

[Difficulty]
HPDrainRate:1
CircleSize:3
OverallDifficulty:3
ApproachRate:3
SliderMultiplier:0.64
SliderTickRate:1

[Events]
//Background and Video events
0,0,"A Whole New World God Only Knows (TV Size).png"
Video,365,"A Whole New World God Only Knows (TV Size).avi"
//Break Periods
//Storyboard Layer 0 (Background)
//Storyboard Layer 1 (Fail)
//Storyboard Layer 2 (Pass)
//Storyboard Layer 3 (Foreground)
//Storyboard Sound Samples
//Background Colour Transformations
3,100,0,0,0

[TimingPoints]
415,397.350993377483,4,1,1,70,1,0
24653,-100,4,2,1,70,0,0
24752,-100,4,1,1,70,0,0
25050,-100,4,2,1,70,0,0
25150,-100,4,1,1,70,0,0
25845,-100,4,2,1,70,0,0
25944,-100,4,1,1,70,0,0
26242,-100,4,2,1,70,0,0
26342,-100,4,1,1,70,0,0
27037,-100,4,2,1,70,0,0
27136,-100,4,1,1,70,0,0
27435,400,5,1,2,50,1,0
37635,-200,5,1,2,80,0,0
40635,-100,5,1,1,80,0,0
41036,392.156862745098,4,1,1,80,1,1
50839,-100,4,2,1,80,0,1
50937,-100,4,1,1,80,0,1
52212,-100,4,2,1,80,0,1
52310,-100,4,1,1,80,0,1
60251,-100,4,2,1,80,0,1
60349,-100,4,1,1,80,0,1
61624,-100,4,2,1,80,0,1
61722,-100,4,1,1,80,0,1
63094,-100,4,1,1,80,0,0
64565,-100,4,2,1,50,0,0
69075,-100,4,2,2,80,0,0
69565,-100,4,2,1,65,0,0
70349,-100,4,2,1,65,0,0
70741,-100,4,2,2,65,0,0
71134,-100,4,2,1,65,0,0
72310,-100,4,1,1,80,0,0
75937,-100,4,2,1,80,0,0
76036,-100,4,1,1,80,0,0
77506,-100,4,2,1,80,0,0
77604,-100,4,1,1,80,0,0
78684,392.156862745098,3,1,1,80,1,1
78880,-100,3,2,2,0,0,1
87507,-100,3,2,2,0,0,0

[Colours]
Combo1 : 0,255,0
Combo2 : 0,255,255
Combo3 : 255,0,255
Combo4 : 255,255,0

[HitObjects]
103,251,14719,6,0,B|191:343,3,128
320,344,17898,2,0,B|408:252,3,128
400,120,21077,6,0,B|397:44|320:40,1,128
192,39,22666,2,0,B|114:43|111:119,1,128
209,200,24256,6,0,B|256:210|303:200,5,96
160,352,28635,5,2
64,256,29435,1,0
352,352,30635,5,2
448,256,31435,1,0
160,32,32635,5,2
64,128,33435,1,0
352,32,34635,5,2
448,128,35435,1,2
256,256,36635,5,2
256,128,37435,1,2
256,128,37835,1,2
192,288,41036,6,0,B|72:328,2,128,4|0|0
320,288,43388,5,0
320,288,43781,1,0
320,288,44173,2,0,B|440:328,3,128,0|0|0|4
448,192,47310,5,4
320,160,48094,1,0
192,192,48879,1,0
64,160,49663,1,0
144,64,50447,6,0,B|236:84,1,96,4|4
464,64,51820,2,0,B|340:88,1,128,4|4
416,240,53585,5,4
319,328,54369,2,0,B|256:341|193:328,1,128
193,192,55937,5,0
193,192,56330,1,0
193,192,56722,2,0,B|256:179|319:192,1,128
384,80,58290,5,0
320,64,58683,1,0
256,48,59075,1,0
192,64,59467,1,0
128,80,59859,6,0,B|81:92|48:128,1,96,4|4
48,256,61232,2,0,B|56:336|128:336,1,128,4|4
128,192,62996,5,4
384,192,65741,5,2
384,192,66134,1,2
256,192,68879,5,2
256,192,69271,2,0,B|256:320,4,128,2|8|8|8|6
256,64,72996,5,6
256,64,73388,1,2
256,64,73781,1,6
256,256,74761,1,4
128,224,75545,6,0,B|192:336,1,128,4|0
320,335,77114,2,0,B|384:224,1,128,4|0
256,192,78684,1,4
256,192,78880,12,0,83389
