osu file format v9

[General]
AudioFilename: A Whole New World God Only Knows.mp3
AudioLeadIn: 0
PreviewTime: 79874
Countdown: 0
SampleSet: Soft
StackLeniency: 0.7
Mode: 0
LetterboxInBreaks: 1

[Editor]
Bookmarks: 28236,39361
DistanceSpacing: 1.2
BeatDivisor: 4
GridSize: 4

[Metadata]
Title:A Whole New World God Only Knows
Artist:Oratorio The World God Only Knows
Creator:KanaRin
Version:Hinacle
Source:Kami Nomi zo Shiru Sekai II
Tags:Elisa Lia sorda s_o_r_d_a Hinacle TW-KUMA01 OzzyOzrock

[Difficulty]
HPDrainRate:6
CircleSize:4
OverallDifficulty:6
ApproachRate:8
SliderMultiplier:1.6
SliderTickRate:0.5

[Events]
//Background and Video events
0,0,"BG.jpg"
//Break Periods
2,27935,38906
2,78065,79315
2,123626,129735
2,159705,161892
//Storyboard Layer 0 (Background)
//Storyboard Layer 1 (Fail)
//Storyboard Layer 2 (Pass)
//Storyboard Layer 3 (Foreground)
//Storyboard Sound Samples
//Background Colour Transformations
3,100,163,162,255

[TimingPoints]
716,397.350993377483,4,2,1,40,1,0
15020,-133.333333333333,4,2,1,40,0,0
17901,-133.333333333333,4,2,1,5,0,0
18100,-133.333333333333,4,2,1,40,0,0
21080,-133.333333333333,4,2,1,5,0,0
21278,-133.333333333333,4,2,1,40,0,0
25053,-133.333333333333,4,2,1,30,0,0
25649,-133.333333333333,4,2,1,20,0,0
26047,-133.333333333333,4,2,1,5,0,0
39557,-100,4,2,2,60,0,0
40351,-100,4,2,1,60,0,0
40550,-100,4,2,2,60,0,0
40748,-100,4,2,1,60,0,0
40947,-100,4,2,2,60,0,0
41146,-100,4,2,1,60,0,0
41344,-100,4,2,2,60,0,0
41543,-100,4,2,1,60,0,0
41742,-100,4,2,2,60,0,0
41940,-100,4,2,1,60,0,0
42139,-100,4,2,2,60,0,0
42338,-100,4,2,1,60,0,0
42536,-100,4,2,2,60,0,0
42735,-100,4,2,1,60,0,0
42934,-100,4,2,2,60,0,0
43132,-100,4,2,1,60,0,0
43331,-100,4,2,2,60,0,0
43530,-100,4,2,1,60,0,0
43728,-100,4,2,2,60,0,0
43927,-100,4,2,1,60,0,0
44126,-100,4,2,2,60,0,0
44324,-100,4,2,1,60,0,0
44523,-100,4,2,2,60,0,0
44722,-100,4,2,1,60,0,0
44920,-100,4,2,2,60,0,0
45119,-100,4,2,1,60,0,0
45318,-100,4,2,2,60,0,0
45516,-100,4,2,1,60,0,0
45715,-100,4,2,2,60,0,0
45914,-100,4,2,1,60,0,0
46112,-100,4,2,2,60,0,0
46311,-100,4,2,1,60,0,0
46510,-100,4,2,2,60,0,0
46708,-100,4,2,1,60,0,0
46907,-100,4,2,2,60,0,0
47106,-100,4,2,1,60,0,0
47304,-100,4,2,2,60,0,0
47503,-100,4,2,1,60,0,0
47702,-100,4,2,2,60,0,0
47901,-100,4,2,1,60,0,0
48099,-100,4,2,2,60,0,0
48298,-100,4,2,1,60,0,0
48497,-100,4,2,2,60,0,0
48695,-100,4,2,1,60,0,0
48894,-100,4,2,2,60,0,0
49093,-100,4,2,1,60,0,0
49291,-100,4,2,2,60,0,0
49490,-100,4,2,1,60,0,0
49689,-100,4,2,2,60,0,0
54159,-100,4,2,2,40,0,0
54457,-100,4,2,2,50,0,0
54656,-100,4,1,2,70,0,0
68165,-100,4,2,0,85,0,0
68265,400,4,2,0,85,1,0
80975,-100,4,2,2,85,0,0
81074,392.156862745098,4,2,1,90,1,1
84211,-100,4,2,2,90,0,1
84309,-100,4,2,1,90,0,1
87348,-100,4,2,2,90,0,1
87446,-100,4,2,1,90,0,1
90583,-100,4,2,1,70,0,1
90975,-100,4,2,2,70,0,1
91172,-100,4,2,1,75,0,1
91760,-100,4,2,2,75,0,1
91956,-100,4,2,1,80,0,1
92544,-100,4,2,2,80,0,1
92740,-100,4,2,1,85,0,1
93328,-100,4,2,2,85,0,1
93721,-100,4,2,1,90,0,1
99799,-100,4,2,2,90,0,1
99995,-100,4,2,1,90,0,1
103034,-100,4,2,2,60,0,0
103132,-100,4,2,1,65,0,0
109211,-100,4,2,2,65,0,0
109407,-100,4,2,1,65,0,0
110877,-100,4,2,2,45,0,0
110975,-100,4,2,1,45,0,0
111172,-100,4,2,2,45,0,0
111270,-100,4,2,1,45,0,0
111466,-100,4,2,2,45,0,0
111564,-100,4,2,1,65,0,0
112446,-100,4,2,2,90,0,1
114309,-100,4,2,1,90,0,1
114701,-100,4,2,2,90,0,1
114897,-100,4,2,1,90,0,1
115485,-100,4,2,2,90,0,1
115681,-100,4,2,1,90,0,1
116270,-100,4,2,2,90,0,1
116466,-100,4,2,1,90,0,1
117054,-100,4,2,2,90,0,1
117250,-100,4,2,1,90,0,1
117838,-100,4,2,2,90,0,1
118034,-100,4,2,1,90,0,1
123426,-100,4,2,1,5,0,0
123527,-100,4,2,1,85,0,0
131270,-100,4,2,2,85,0,0
131368,-100,4,2,1,85,0,0
143819,-100,4,2,2,85,0,0
143917,-100,4,2,1,85,0,0
153230,-100,4,1,2,55,0,0
153721,-100,4,1,2,65,0,0
154309,-100,4,1,2,75,0,0
154897,-100,4,1,2,80,0,0
155485,-100,4,1,2,85,0,0
155877,-100,4,2,1,5,0,0
162544,-200,4,1,2,85,0,0
168819,-200,4,1,1,85,0,0
172054,-100,4,2,2,75,0,0
172936,-100,4,2,1,80,0,0
173132,-100,4,2,2,80,0,0
173721,-100,4,2,1,85,0,0
173917,-100,4,2,2,85,0,0
174505,-100,4,2,1,90,0,0
174701,-100,4,2,2,90,0,0
175191,-200,4,2,2,85,0,0
175485,-100,4,2,1,85,0,1
184603,-100,4,2,2,65,0,1
184701,-100,4,2,1,65,0,1
190779,-100,4,2,2,65,0,1
190975,-100,4,2,1,65,0,1
192348,-100,4,2,2,45,0,1
193132,-100,4,2,1,65,0,1
193917,-100,4,2,2,90,0,1
195485,-100,4,2,1,90,0,1
196270,-100,4,2,2,90,0,1
196466,-100,4,2,1,90,0,1
197054,-100,4,2,2,90,0,1
197250,-100,4,2,1,90,0,1
197838,-100,4,2,2,90,0,1
198034,-100,4,2,1,90,0,1
198623,-100,4,2,2,90,0,1
198819,-100,4,2,1,90,0,1
199407,-100,4,2,2,90,0,1
199603,-100,4,2,1,90,0,1
200191,-100,4,2,1,75,0,1
201270,-100,4,2,1,65,0,1
202446,-100,4,2,1,55,0,1
204897,-100,4,2,1,45,0,1
205975,-100,4,2,1,35,0,1
207152,-100,4,2,1,25,0,1
208328,-100,4,2,1,15,0,1
208524,-100,4,2,1,15,0,0

[Colours]
Combo1 : 128,255,255
Combo2 : 255,255,128
Combo3 : 128,255,128

[HitObjects]
148,92,15020,2,0,B|148:212,1,119.999996423721,0|2
148,296,15616,2,0,B|204:328|268:308,1,119.999996423721,0|2
340,272,16212,1,0
392,208,16411,1,0
372,128,16610,6,0,B|364:100|336:76,1,59.9999982118607,2|0
256,88,17007,2,0,B|224:88|193:76,1,59.9999982118607,0|0
112,60,17404,2,0,B|36:128|80:228,1,179.999994635582,2|0
104,304,18199,6,0,B|156:340|220:320,1,119.999996423721,0|2
304,316,18795,2,0,B|340:264|320:200,1,119.999996423721,0|2
312,116,19391,2,0,B|260:80|196:100,1,119.999996423721,0|2
112,108,19987,2,0,B|100:80|108:40,2,59.9999982118607
116,192,20583,2,0,B|116:256|164:276|216:256|216:192,1,179.999994635582,2|0
216,108,21378,6,0,B|268:76|332:100,1,119.999996423721,0|2
328,184,21974,2,0,B|300:244|328:312,1,119.999996423721,0|2
404,332,22570,1,0
480,300,22768,2,0,B|508:240|480:172,1,119.999996423721,2|0
460,104,23365,1,2
384,68,23563,1,2
304,92,23762,2,0,B|248:120|184:92,1,119.999996423721
112,60,24358,1,2
68,132,24557,6,0,B|44:256,1,119.999996423721,0|2
132,316,25153,2,0,B|156:192,1,119.999996423721,0|2
260,168,25749,2,0,B|236:292,1,119.999996423721
256,192,26345,12,0,27735
64,88,39656,6,0,B|32:116,2,40,8|8|8
152,68,40053,1,8
152,68,40153,1,8
152,68,40252,1,8
232,108,40451,6,0,B|220:148|228:192,1,80,4|2
308,224,40848,1,4
396,212,41047,2,0,B|436:200|484:216,1,80,2|4
392,332,41444,2,0,B|352:344|304:328,1,80,2|4
224,320,41841,1,2
136,328,42040,6,0,B|96:344|56:332,1,80,4|2
132,240,42437,2,0,B|92:223|72:186,1,80,4|2
192,180,42835,2,0,B|176:139|188:100,1,80,4|2
280,176,43232,2,0,B|296:136|333:116,1,80,4|2
468,128,43629,6,0,B|451:167|414:187,1,80,4|2
352,248,44027,1,4
316,328,44225,2,0,B|352:352|396:348,2,80,2|4|2
232,296,44821,2,0,B|196:272|152:276,1,80,4|2
68,272,45219,5,4
40,188,45417,1,2
124,160,45616,1,4
152,244,45815,1,2
68,272,46014,5,4
28,160,46212,1,2
140,116,46411,1,4
180,228,46610,1,2
224,340,46808,6,0,B|260:360|300:360,1,80,4|2
392,248,47206,2,0,B|356:228|316:228,1,80,4|2
248,308,47603,6,0,B|284:328|324:328,1,80,4|2
416,216,48001,2,0,B|380:196|340:196,1,80,4|2
252,188,48398,5,4
252,188,48497,1,0
252,188,48596,2,0,B|212:200|164:188,1,80,2|4
140,108,48994,1,2
60,144,49192,5,4
60,144,49291,1,0
60,144,49390,2,0,B|48:184|60:232,1,80,2|4
60,312,49788,1,2
256,192,49987,12,4,53166
456,320,54159,6,0,B|484:292,2,40,8|8|8
372,288,54557,1,8
288,312,54755,6,0,B|220:360|132:320,1,160,0|2
68,264,55351,2,0,B|20:196|60:108,1,160,0|2
128,56,55947,2,0,B|196:8|284:48,1,160,0|2
348,104,56543,2,0,B|396:172|356:260,1,160,0|2
268,264,57139,1,0
184,240,57338,2,0,B|168:208|168:160,1,80,0|2
160,76,57735,5,0
160,76,57835,1,0
160,76,57934,2,0,B|224:20|312:56,1,160,0|2
392,192,58530,2,0,B|328:248|240:212,1,160,0|2
156,188,59126,1,0
96,252,59325,1,0
132,332,59523,1,2
220,324,59722,2,0,B|292:276|376:324,1,160,0|2
460,336,60318,2,0,B|472:300|472:256,1,80,0|2
356,172,60715,2,0,B|344:208|344:252,1,80,0|2
340,340,61113,6,0,B|268:380|180:344,1,160,4|2
104,312,61709,1,0
184,192,61908,6,0,B|256:232|344:196,1,160,4|2
420,164,62504,1,0
420,164,62603,1,0
420,164,62702,2,0,B|436:128|428:84,1,80,0|0
340,64,63100,1,2
252,48,63298,2,0,B|212:36|168:36,1,80
76,144,63696,2,0,B|116:156|160:156,1,80,0|2
244,164,64093,1,0
332,172,64292,6,0,B|388:236|348:332,1,160,4|2
264,332,64888,1,0
144,340,65086,1,2
192,228,65285,1,0
264,332,65484,6,0,B|336:384|420:344,1,160,4|2
448,264,66080,1,0
476,180,66278,1,2
424,108,66477,1,0
340,136,66676,2,0,B|272:184|180:148,1,160,2|0
104,248,67272,1,0
200,332,67470,2,0,B|268:284|360:320,1,160,4|0
432,56,68265,5,0
356,100,68465,1,2
272,72,68665,2,0,B|192:32|120:76,1,160,4|0
119,76,69465,5,2
152,324,69865,1,0
400,291,70265,1,2
367,43,70665,1,0
119,76,71065,1,2
400,291,71465,6,0,B|443:303|491:295,2,80,4|0|2
400,172,72065,2,0,B|412:128|404:80,2,80,0|0|2
280,164,72665,2,0,B|236:151|188:159,2,80,0|0|2
280,284,73265,1,0
280,284,73365,1,0
280,284,73465,6,0,B|267:327|275:375,2,80,4|0|2
400,172,74065,2,0,B|412:128|404:80,2,80,0|0|2
244,128,74665,2,0,B|160:132|160:120|80:124,2,160,4|2|0
256,192,75665,12,4,77865
256,104,80065,5,0
256,104,80265,1,4
80,104,80665,1,4
168,256,81065,6,0,B|240:304|328:268,1,160,4|8
412,192,81662,1,0
340,96,81858,2,0,B|268:48|180:84,1,160,2|8
100,164,82446,1,0
92,252,82642,6,0,B|76:292|84:336,1,80
216,276,83034,2,0,B|232:236|224:192,1,80,8|0
220,108,83426,2,0,B|284:56|372:80,1,160,2|8
460,92,84015,1,0
460,92,84113,1,0
460,92,84211,2,0,B|472:132|460:176,1,80,4|0
316,176,84603,2,0,B|304:216|316:260,1,80,8|0
460,268,84995,2,0,B|472:308|460:352,2,80,2|0|8
396,208,85583,1,0
332,148,85779,6,0,B|256:100|176:144,1,160,0|8
92,160,86368,2,0,B|76:128|76:80,2,80,0|2|0
108,248,86956,1,8
196,232,87152,1,0
196,232,87250,1,0
196,232,87348,2,0,B|232:220|280:228,1,80,4|0
364,240,87740,1,8
452,228,87936,2,0,B|464:268|452:308,2,80,0|2|0
436,140,88524,1,8
420,52,88721,6,2,B|348:8|264:40,1,160,2|2
244,164,89309,1,8
220,288,89505,2,2,B|148:332|64:300,1,160,2|2
36,176,90093,1,8
52,48,90289,2,2,B|124:4|208:36,1,160,2|0
284,76,90877,1,8
208,124,91074,1,4
205,35,91466,5,0
296,84,91662,1,8
208,140,91858,1,4
205,35,92250,5,0
316,96,92446,1,8
208,164,92642,1,4
205,35,93034,5,0
336,112,93230,1,8
208,188,93426,1,0
120,184,93623,6,0,B|64:256|108:340,1,160,4|8
192,344,94211,2,0,B|232:332|276:344,1,80,0|2
380,236,94603,2,0,B|340:224|296:236,1,80,0|8
212,236,94995,1,0
212,236,95093,1,0
212,236,95191,2,0,B|200:200|200:156,1,80
192,68,95583,2,0,B|156:56|112:56,2,80,8|0|2
280,80,96172,1,0
368,88,96368,2,0,B|380:128|372:172,1,80,8|0
364,256,96760,6,2,B|320:328|220:304,1,160,2|8
140,276,97348,2,2,B|68:232|92:132,1,160,2|2
120,52,97936,1,8
148,52,98034,1,0
176,52,98132,1,8
204,52,98230,1,0
232,52,98328,6,0,B|272:68|296:108,1,80,2|0
296,240,98721,2,0,B|280:280|240:304,1,80,8|0
108,300,99113,2,0,B|68:284|44:244,1,80,2|0
44,112,99505,2,0,B|60:72|100:48,1,80,8|0
168,176,99897,6,0,B|240:224|324:184,1,160,4|8
404,160,100485,2,0,B|444:144|488:160,1,80,0|0
404,296,100877,2,0,B|364:312|320:296,1,80,0|8
204,192,101270,2,0,B|244:176|288:192,1,80
204,328,101662,2,0,B|164:344|120:328,1,80,0|8
48,292,102054,2,2,B|0:216|44:136,1,160,2|0
128,120,102642,1,8
216,136,102838,5,0
216,136,102936,1,0
216,136,103034,2,0,B|256:148|296:140,1,80,4|0
380,116,103426,1,0
464,148,103623,2,0,B|484:112|472:68,2,80,0|2|0
436,232,104211,1,0
392,308,104407,1,0
308,336,104603,5,2
188,324,104799,1,0
200,204,104995,1,0
320,216,105191,1,0
252,272,105387,6,0,B|212:280|168:264,1,80,2|0
88,248,105779,2,0,B|32:176|88:100,1,160,0|2
176,96,106368,1,0
256,136,106564,1,0
216,216,106760,2,0,B|200:256|216:296,1,80,0|2
352,340,107152,2,0,B|368:300|352:260,2,80,0|0|0
240,292,107740,6,0,B|224:252|240:212,1,80,2|0
384,204,108132,2,0,B|400:164|384:124,1,80,0|0
240,116,108524,2,0,B|224:76|240:36,2,80,2|0|0
304,176,109113,5,0
304,176,109211,1,0
304,176,109309,2,0,B|320:216|304:256,1,80,4|0
216,244,109701,1,0
128,232,109897,2,0,B|112:192|128:152,2,80,0|8|0
120,320,110485,1,0
208,332,110681,1,0
296,344,110877,6,0,B|356:372|416:352,2,120,8|8|8
308,256,111662,2,0,B|248:228|188:248,2,120,2|2|2
396,272,112446,5,4
256,76,112838,1,0
256,76,113034,1,4
116,272,113426,5,4
256,272,113623,1,0
396,272,113819,2,0,B|448:204|408:120,1,160,4|0
360,48,114407,2,0,B|324:32|280:32,1,80,8|0
196,28,114799,6,0,B|124:80|148:176,1,160,4|8
164,264,115387,1,0
232,328,115583,2,0,B|312:368|388:328,1,160,4|8
436,220,116172,1,0
384,112,116368,2,0,B|304:72|228:112,1,160,4|8
180,220,116956,1,0
232,328,117152,6,0,B|312:368|388:328,2,160,4|8|4
256,88,118328,1,8
256,192,118721,12,0,123426
173,296,130485,6,0,B|137:280,3,40,2|0|2|0
136,280,130877,2,0,B|92:280,3,40,2|0|2|0
96,280,131270,6,0,B|84:240|92:200,1,80,4|0
176,176,131662,1,8
176,176,131760,1,0
176,176,131858,1,0
264,192,132054,2,0,B|344:208,1,80,2|0
440,100,132446,2,0,B|360:84,1,80,8|0
276,64,132838,6,0,B|212:116|124:80,1,160,2|8
125,80,133426,1,0
64,212,133623,6,0,B|128:160|216:196,1,160,2|8
214,195,134211,1,0
260,272,134407,5,2
344,300,134603,1,0
420,256,134799,1,8
420,256,134897,1,0
420,256,134995,1,0
448,172,135191,2,0,B|468:132|456:88,1,80,2|0
324,40,135583,2,0,B|304:80|316:124,1,80,8|0
348,200,135975,5,2
380,284,136172,2,0,B|400:324|388:368,2,80,0|8|0
292,292,136760,2,0,B|252:312|208:300,1,80,2|0
112,200,137152,2,0,B|152:180|196:192,1,80,8|0
120,316,137544,6,0,B|80:336|36:324,1,80,2|0
36,236,137936,1,8
36,236,138034,1,0
36,236,138132,1,0
56,152,138328,1,2
140,44,138524,1,0
252,124,138721,1,8
156,168,138917,6,0,B|100:236|140:320,1,160,0|0
296,336,139505,2,0,B|352:268|312:184,1,160,8|2
292,100,140093,2,0,B|256:80|212:92,2,80,0|8|0
376,120,140681,5,2
428,192,140877,1,0
400,276,141074,2,0,B|348:344|248:324,1,160,8|2
168,312,141662,1,0
92,264,141858,2,0,B|24:212|44:112,1,160,8|2
148,60,142446,1,0
268,40,142642,2,0,B|336:92|316:192,1,160,8|2
212,240,143230,1,0
176,152,143426,5,8
176,152,143524,1,0
176,152,143623,1,8
176,152,143721,1,0
176,152,143819,1,4
88,168,144015,2,0,B|68:212|88:248,1,80,0|8
172,272,144407,1,0
260,264,144603,2,0,B|300:248|344:264,1,80,2|0
420,144,144995,2,0,B|380:160|336:144,1,80,8|0
244,40,145387,6,0,B|284:24|328:40,2,80,2|0|8
164,72,145975,1,0
76,92,146172,2,0,B|56:52|72:12,2,80,2|0|8
92,180,146760,5,0
92,180,146858,1,0
92,180,146956,2,0,B|112:220|96:260,1,80,2|0
92,344,147348,2,0,B|132:364|172:348,1,80,8|0
256,328,147740,1,2
344,344,147936,1,0
424,304,148132,2,0,B|440:264|432:224,1,80,8|0
420,140,148524,5,2
340,48,148721,1,0
284,156,148917,1,8
204,64,149113,1,0
148,172,149309,2,0,B|100:272|20:180,2,160,2|8|2
204,64,150289,5,0
284,156,150485,1,8
284,156,150583,1,0
284,156,150681,2,0,B|304:196|296:240,1,80,0|2
212,256,151074,1,0
124,244,151270,2,0,B|84:228|36:244,1,80,8|0
124,344,151662,6,0,B|164:360|212:344,1,80,2|0
288,332,152054,1,8
376,344,152250,1,0
376,344,152348,1,0
376,344,152446,1,2
440,284,152642,1,0
420,200,152838,1,8
332,192,153034,1,0
332,192,153132,1,0
332,192,153230,6,0,B|276:256|184:220,1,160,4|2
168,132,153819,2,0,B|224:68|316:104,1,160,4|2
340,220,154407,6,0,B|284:284|192:248,1,160,4|2
164,108,154995,2,0,B|220:44|312:80,1,160,4|2
344,244,155583,6,0,B|288:308|196:272,1,160,4|2
256,192,156368,12,0,159505
96,64,162642,5,4
416,64,164211,5,4
416,320,165779,5,4
96,320,167348,5,4
180,84,168917,6,8,B|256:40|336:84,1,160,0|8
332,300,170485,2,8,B|256:344|176:300,1,160,0|8
256,192,172054,5,4
256,44,172642,1,4
392,168,173034,6,0,B|488:168,2,80,2|0|4
120,216,173819,2,0,B|24:216,2,80,2|0|4
256,152,174603,2,0,B|256:48,2,80,2|0|4
220,252,175191,6,0,B|300:252,1,80,4|8
388,252,175779,1,0
476,236,175975,2,0,B|488:280|476:320,2,80,2|0|8
468,148,176564,1,0
468,148,176662,1,0
468,148,176760,2,0,B|432:132|388:144,1,80,2|0
304,152,177152,1,8
240,212,177348,1,0
268,296,177544,6,2,B|208:364|124:324,1,160,2|8
44,284,178132,1,0
76,152,178328,6,2,B|136:84|220:124,1,160,2|8
300,164,178916,1,0
388,148,179113,2,0,B|404:112|396:64,2,80,2|0|8
380,236,179701,1,0
380,236,179799,1,0
380,236,179897,1,2
368,324,180093,2,0,B|408:340|448:332,2,80,0|8|0
280,308,180681,2,0,B|240:296|200:304,1,80,2|0
120,204,181074,2,0,B|160:216|200:208,1,80,8|0
284,188,181466,6,2,B|348:136|440:172,1,160,2|8
352,52,182054,2,0,B|288:104|196:68,1,160
92,164,182642,2,0,B|132:180|176:168,1,80,8|0
272,272,183034,2,0,B|232:256|188:268,1,80,2|0
108,284,183426,1,8
32,240,183623,2,0,B|16:200|36:152,2,80,0|2|0
112,204,184211,1,8
196,224,184407,5,0
196,224,184505,1,0
196,224,184603,2,0,B|236:240|280:228,1,80,4|0
364,224,184995,1,0
440,176,185191,1,0
424,88,185387,1,2
336,76,185583,1,0
300,156,185779,1,0
256,232,185975,5,0
256,232,186074,1,0
256,232,186172,2,0,B|216:252|172:236,1,80,2|0
100,116,186564,2,0,B|140:96|184:112,1,80
244,200,186956,6,0,B|204:220|160:204,1,80,2|0
88,84,187348,2,0,B|128:64|172:80,1,80
252,96,187740,5,2
340,112,187936,1,0
428,128,188132,2,0,B|440:172|428:216,1,80
288,252,188524,2,0,B|272:212|288:172,2,80,2|0|0
292,340,189113,5,0
292,340,189211,1,0
292,340,189309,2,0,B|252:356|212:340,1,80,2|0
128,324,189701,1,0
48,288,189897,2,0,B|28:328|44:372,2,80,0|2|0
52,200,190485,2,0,B|36:164|52:120,1,80
164,76,190877,6,0,B|180:112|164:156,1,80,4|0
140,284,191270,2,0,B|176:268|220:284,1,80
348,308,191662,2,0,B|332:272|348:228,1,80,8|0
372,100,192054,2,0,B|336:116|292:100,1,80
164,76,192446,6,0,B|104:48|48:84,2,120,8|8|8
224,140,193230,2,0,B|284:168|340:132,2,120,2|2|2
256,56,194015,5,4
116,252,194407,1,0
116,252,194603,1,4
396,252,194995,5,4
324,156,195191,1,0
256,56,195387,2,0,B|180:12|104:56,1,160,4|0
32,104,195975,1,8
92,168,196172,1,0
176,140,196368,6,0,B|232:208|176:288,1,160,4|8
276,320,196956,1,0
376,288,197152,2,0,B|320:220|376:140,1,160,4|8
416,44,197740,1,0
316,64,197936,2,0,B|248:120|164:80,1,160,4|8
72,40,198524,1,0
44,140,198721,2,0,B|-4:216|44:296,1,160,4|8
140,324,199309,1,0
240,296,199505,2,0,B|288:220|240:140,1,160,4|8
144,112,200093,1,0
144,216,200289,5,0
408,328,200681,1,0
372,44,201074,1,2
144,216,201466,5,0
380,320,201858,1,0
352,64,202250,1,2
144,216,202642,5,0
348,312,203034,1,0
328,88,203426,1,2
144,216,203819,1,0
168,88,204211,5,0
224,208,204407,1,0
112,144,204603,1,2
236,132,204799,1,0
144,216,204995,5,0
316,300,205387,1,0
304,108,205779,1,2
144,216,206172,5,0
284,292,206564,1,0
280,132,206956,1,2
144,216,207348,5,0
252,284,207740,1,0
248,156,208132,1,2
144,216,208524,5,0
