osu file format v14

[General]
AudioFilename: Kuusou Ressha.mp3
AudioLeadIn: 0
PreviewTime: 63896
Countdown: 0
SampleSet: Soft
StackLeniency: 0.7
Mode: 0
LetterboxInBreaks: 0
WidescreenStoryboard: 1

[Editor]
Bookmarks: 206696,212182,217667,223153,228639,232753,236867
DistanceSpacing: 1
BeatDivisor: 4
GridSize: 4
TimelineZoom: 1.2

[Metadata]
Title:Kuusou Ressha
TitleUnicode:空奏列車
Artist:Orangestar
ArtistUnicode:Orangestar
Creator:AllStar12
Version:Normal
Source:
Tags:MikanseiP 蜜柑星P Vocaloid Hatsune Miku IA Sky Train 未完成エイトビーツ Incomplete Eight Beats
BeatmapID:727069
BeatmapSetID:326605

[Difficulty]
HPDrainRate:4
CircleSize:3
OverallDifficulty:4
ApproachRate:5
SliderMultiplier:1.2
SliderTickRate:1

[Events]
//Background and Video events
0,0,"Background.png",0,0
Video,-490,"video.avi"
//Break Periods
2,20724,29610
2,86209,93039
//Storyboard Layer 0 (Background)
//Storyboard Layer 1 (Fail)
//Storyboard Layer 2 (Pass)
//Storyboard Layer 3 (Foreground)
//Storyboard Sound Samples

[TimingPoints]
3040,342.857142857143,4,2,1,50,1,0
20182,342.857142857143,4,2,1,65,1,0
42124,-100,4,2,1,40,0,0
53096,-100,4,2,1,50,0,0
64067,-100,4,2,1,70,0,1
74953,-100,4,2,1,70,0,0
75039,-100,4,2,1,70,0,1
86010,-100,4,2,1,70,0,0
96296,-100,4,2,1,40,0,0
96982,-100,4,2,1,50,0,0
107953,-100,4,2,1,70,0,1
118839,-100,4,2,1,70,0,0
118924,-100,4,2,1,70,0,1
129896,-100,4,2,1,70,0,0
162810,-100,4,2,1,50,0,0
172239,-100,4,2,1,70,0,0
173782,-100,4,2,1,70,0,1
184667,-100,4,2,1,70,0,0
184753,-100,4,2,1,70,0,1
195724,-100,4,2,1,70,0,0
228639,-100,4,2,1,50,0,0

[Colours]
Combo1 : 255,102,255
Combo2 : 0,249,0
Combo3 : 89,164,255
Combo4 : 244,74,100
Combo5 : 255,205,53

[HitObjects]
193,209,11268,6,0,P|179:266|194:323,1,120,6|10,0:0|0:0,0:0:0:0:
317,323,11954,2,0,P|332:266|318:209,1,120,2|10,0:0|0:0,0:0:0:0:
256,105,12640,6,0,P|205:88|123:111,1,120,2|8,0:0|0:0,0:0:0:0:
95,139,13154,1,4,0:3:0:0:
74,195,13325,2,0,L|86:325,1,120,6|10,0:0|0:0,0:0:0:0:
184,247,14011,5,2,0:0:0:0:
283,314,14354,1,10,0:0:0:0:
382,247,14697,2,0,P|399:177|376:110,1,120,2|10,0:0|0:0,0:0:0:0:
346,87,15211,2,0,L|268:65,1,60,10|6,0:0|0:0,0:0:0:0:
256,192,15725,12,10,18697,2:0:0:0:
213,285,20182,6,0,P|171:244|113:232,1,120,6|10,0:0|0:0,0:0:0:0:
0,124,30810,5,10,0:0:0:0:
117,151,31153,6,0,P|175:139|217:97,1,120,2|10,0:0|0:0,0:0:0:0:
325,45,31839,2,0,P|441:63|470:85,1,120,2|10,0:0|0:0,0:0:0:0:
483,105,32353,2,0,L|461:243,1,120,0|0,0:0|0:0,0:0:0:0:
454,282,32867,5,10,0:0:0:0:
367,199,33210,1,2,0:0:0:0:
280,282,33553,1,10,0:0:0:0:
160,293,33896,6,0,P|77:248|60:218,1,120,2|10,0:0|0:0,0:0:0:0:
65,108,34582,2,0,P|145:58|179:58,1,120,2|10,0:0|0:0,0:0:0:0:
223,82,35096,6,0,P|308:98|353:71,1,120,0|0,0:0|0:0,0:0:0:0:
387,54,35610,2,0,L|503:136,1,120,10|2,0:0|0:0,0:0:0:0:
386,192,36296,1,10,0:0:0:0:
484,260,36639,5,6,0:0:0:0:
385,329,36982,2,0,P|328:343|270:328,1,120,10|2,0:0|0:0,0:0:0:0:
183,246,37667,2,0,L|204:158,1,60,10|0,0:0|0:0,0:0:0:0:
315,187,38182,6,0,L|329:246,1,60,0|10,0:0|0:0,0:0:0:0:
448,260,38696,2,0,P|495:204|499:143,1,120,2|10,0:0|0:0,0:0:0:0:
437,57,39382,6,0,L|297:23,1,120,2|10,0:0|0:0,0:0:0:0:
224,100,40067,2,0,P|141:126|77:98,1,120,2|10,0:0|0:0,0:0:0:0:
51,130,40582,6,0,P|6:196|20:258,1,120,0|0,0:0|0:0,0:0:0:0:
35,286,41096,1,10,0:0:0:0:
148,246,41439,1,2,0:0:0:0:
231,332,41782,6,0,P|287:350|343:331,1,120,10|6,0:0|0:0,0:0:0:0:
373,154,42639,2,0,P|287:130|201:153,1,180,0|2,0:0|0:0,0:0:0:0:
103,223,43496,5,2,0:0:0:0:
49,196,43667,2,0,P|7:105|53:11,1,180,0|2,0:0|0:0,0:0:0:0:
126,105,44524,1,2,0:0:0:0:
215,25,44867,6,0,P|312:15|386:77,1,180,2|0,0:0|0:0,0:0:0:0:
445,226,45896,2,0,L|398:346,1,120,2|2,0:0|0:0,0:0:0:0:
346,313,46410,6,0,P|279:298|199:335,1,120,0|0,0:0|0:0,0:0:0:0:
182,347,46924,1,0,0:0:0:0:
96,262,47267,1,2,0:0:0:0:
177,173,47610,6,0,P|193:90|128:-8,1,180,6|0,0:0|0:0,0:0:0:0:
330,8,48639,2,0,L|461:8,1,120,2|2,0:0|0:0,0:0:0:0:
486,54,49153,6,0,P|501:141|450:212,1,180,0|2,0:0|0:0,0:0:0:0:
330,202,50010,2,0,L|246:171,2,60,2|0|2,0:0|0:0|0:0,0:0:0:0:
256,366,50867,5,0,0:0:0:0:
97,280,51382,2,0,P|63:175|76:121,1,120,2|2,0:0|0:0,0:0:0:0:
83,111,51896,6,0,B|165:74|165:74|247:111,1,180,0|2,0:0|0:0,0:0:0:0:
310,342,53096,6,0,P|281:265|294:214,1,120,6|10,0:0|0:0,0:0:0:0:
319,178,53610,2,0,P|348:101|335:50,1,120,0|0,0:0|0:0,0:0:0:0:
311,13,54124,1,10,0:0:0:0:
190,13,54467,5,2,0:0:0:0:
142,49,54639,2,0,P|108:155|148:230,1,180,0|2,0:0|0:0,0:0:0:0:
245,304,55496,2,0,L|235:380,2,60,10|0|2,0:0|0:0|0:0,0:0:0:0:
339,229,56182,6,0,L|346:288,1,60,10|0,0:0|0:0,0:0:0:0:
463,259,56696,2,0,L|470:199,1,60,0|10,0:0|0:0,0:0:0:0:
445,82,57210,5,2,0:0:0:0:
399,42,57382,2,0,P|313:22|256:45,1,120,0|0,0:0|0:0,0:0:0:0:
236,65,57896,2,0,L|208:134,2,60,2|0|10,0:0|0:0|0:0,0:0:0:0:
330,142,58582,6,0,P|342:206|313:257,1,120,6|10,0:0|0:0,0:0:0:0:
268,286,59096,2,0,L|125:270,1,120,0|0,0:0|0:0,0:0:0:0:
89,264,59610,1,10,0:0:0:0:
60,147,59953,6,0,P|72:105|97:71,1,60,2|0,0:0|0:0,0:0:0:0:
130,56,60296,2,0,L|276:51,1,120,10|2,0:0|0:0,0:0:0:0:
342,128,60981,1,10,0:0:0:0:
435,52,61324,6,0,P|460:147|418:221,2,180,2|0|10,0:0|0:0|0:0,0:0:0:0:
342,128,62696,6,0,L|270:128,1,60,2|4,0:0|0:3,0:0:0:0:
222,136,63039,2,0,P|175:210|179:262,1,120,10|2,0:0|0:0,0:0:0:0:
388,348,64067,6,0,P|435:274|431:222,1,120,6|10,0:0|0:0,0:0:0:0:
396,197,64582,2,0,P|349:123|353:71,1,120,0|0,0:0|0:0,0:0:0:0:
314,43,65096,2,0,L|186:29,1,120,10|2,0:0|0:0,0:0:0:0:
135,23,65609,1,0,0:0:0:0:
26,166,66124,5,2,0:0:0:0:
108,253,66467,1,10,0:0:0:0:
191,165,66810,6,0,P|248:150|305:166,1,120,2|10,0:0|0:0,0:0:0:0:
351,205,67324,1,0,0:0:0:0:
317,320,67667,6,0,L|373:351,2,60,0|10|0,0:0|0:0|0:0,0:0:0:0:
195,320,68353,2,0,L|138:351,2,60,0|10|0,0:0|0:0|0:0,0:0:0:0:
256,216,69039,2,0,L|256:151,1,60,0|10,0:0|0:0,0:0:0:0:
199,50,69553,6,0,P|141:34|84:50,1,120,6|10,0:0|0:0,0:0:0:0:
140,156,70239,2,0,P|197:171|254:155,1,120,2|10,0:0|0:0,0:0:0:0:
305,125,70753,6,0,P|362:109|419:125,1,120,0|0,0:0|0:0,0:0:0:0:
470,156,71267,2,0,L|485:256,1,60,10|0,0:0|0:0,0:0:0:0:
362,222,71782,2,0,L|353:281,1,60,0|10,0:0|0:0,0:0:0:0:
314,327,72124,6,0,P|208:355|132:312,1,180,0|10,0:0|0:0,0:0:0:0:
111,279,72810,1,0,0:0:0:0:
138,162,73153,2,0,L|126:102,2,60,0|10|0,0:0|0:0|0:0,0:0:0:0:
256,27,74009,5,10,0:0:0:0:
334,117,74352,1,2,0:0:0:0:
413,27,74695,1,10,0:0:0:0:
491,117,75039,6,0,P|507:174|490:231,1,120,6|10,0:0|0:0,0:0:0:0:
435,253,75553,2,0,P|377:267|336:309,1,120,0|0,0:0|0:0,0:0:0:0:
295,354,76067,2,0,L|175:342,1,120,10|2,0:0|0:0,0:0:0:0:
115,336,76580,1,0,0:0:0:0:
22,181,77096,5,2,0:0:0:0:
105,94,77439,1,10,0:0:0:0:
185,181,77782,2,0,P|241:198|297:180,1,120,2|10,0:0|0:0,0:0:0:0:
347,146,78295,1,0,0:0:0:0:
317,31,78639,6,0,L|373:0,2,60,0|10|0,0:0|0:0|0:0,0:0:0:0:
195,31,79325,2,0,L|138:0,2,60,0|10|0,0:0|0:0|0:0,0:0:0:0:
256,135,80011,2,0,L|256:202,1,60,0|10,0:0|0:0,0:0:0:0:
312,300,80524,6,0,P|370:316|427:300,1,120,6|10,0:0|0:0,0:0:0:0:
370,193,81210,2,0,P|313:178|256:194,1,120,2|10,0:0|0:0,0:0:0:0:
205,224,81724,6,0,P|148:240|91:224,1,120,0|0,0:0|0:0,0:0:0:0:
40,193,82238,2,0,L|25:93,1,60,10|0,0:0|0:0,0:0:0:0:
123,56,82753,6,0,L|217:93,1,60,0|10,0:0|0:0,0:0:0:0:
233,102,83096,2,0,P|316:73|399:103,1,180,0|10,0:0|0:0,0:0:0:0:
441,145,83780,5,0,0:0:0:0:
404,259,84124,2,0,L|418:323,2,60,0|10|0,0:0|0:0|0:0,0:0:0:0:
306,188,84810,5,0,0:0:0:0:
245,188,84982,2,0,P|176:223|152:284,1,120,10|2,0:0|0:0,0:0:0:0:
231,352,85667,2,0,P|300:317|324:256,1,120,4|2,0:3|0:0,0:0:0:0:
256,192,94239,12,0,96296,0:0:0:0:
