osu file format v14

[General]
AudioFilename: Kuusou Ressha.mp3
AudioLeadIn: 0
PreviewTime: 63896
Countdown: 0
SampleSet: Soft
StackLeniency: 0.7
Mode: 0
LetterboxInBreaks: 0
WidescreenStoryboard: 0

[Editor]
Bookmarks: 206696,212182,217667,223153,228639,232753,236867
DistanceSpacing: 0.5
BeatDivisor: 4
GridSize: 4
TimelineZoom: 1.2

[Metadata]
Title:Kuusou Ressha
TitleUnicode:空奏列車
Artist:Orangestar
ArtistUnicode:Orangestar
Creator:AllStar12
Version:Insane
Source:
Tags:MikanseiP 蜜柑星P Vocaloid Hatsune Miku IA Sky Train 未完成エイトビーツ Incomplete Eight Beats
BeatmapID:725132
BeatmapSetID:326605

[Difficulty]
HPDrainRate:6
CircleSize:4
OverallDifficulty:8
ApproachRate:9
SliderMultiplier:1.9
SliderTickRate:1

[Events]
//Background and Video events
0,0,"Background.png",0,0
Video,-490,"video.avi"
//Break Periods
2,20724,30210
2,86210,93639
2,130095,139924
2,152039,162210
2,201410,205753
//Storyboard Layer 0 (Background)
//Storyboard Layer 1 (Fail)
//Storyboard Layer 2 (Pass)
//Storyboard Layer 3 (Foreground)
//Storyboard Sound Samples

[TimingPoints]
3040,342.857142857143,4,2,1,50,1,0
20182,342.857142857143,4,2,1,65,1,0
42124,-166.666666666667,4,2,1,40,0,0
53096,-125,4,2,1,50,0,0
64067,-100,4,2,1,70,0,1
74953,-100,4,2,1,70,0,0
75039,-100,4,2,1,70,0,1
86010,-100,4,2,1,70,0,0
96296,-100,4,2,1,40,0,0
96982,-125,4,2,1,50,0,0
107953,-100,4,2,1,70,0,1
118839,-100,4,2,1,70,0,0
118924,-100,4,2,1,70,0,1
129896,-100,4,2,1,70,0,0
162810,-125,4,2,1,50,0,0
172239,-125,4,2,1,70,0,0
173782,-100,4,2,1,70,0,1
184667,-100,4,2,1,70,0,0
184753,-100,4,2,1,70,0,1
195724,-100,4,2,1,70,0,0
228639,-125,4,2,1,50,0,0

[Colours]
Combo1 : 255,102,255
Combo2 : 0,249,0
Combo3 : 89,164,255
Combo4 : 244,74,100
Combo5 : 255,205,53

[HitObjects]
201,108,11268,6,0,P|158:189|200:270,1,190,6|10,0:0|0:0,0:0:0:0:
311,108,11954,2,0,P|353:189|311:270,1,190,2|10,0:0|0:0,0:0:0:0:
256,39,12640,1,2,0:0:0:0:
256,192,12982,1,8,0:0:0:0:
256,196,13068,1,8,0:0:0:0:
256,200,13154,2,0,L|256:302,1,95,4|6,0:3|0:0,0:0:0:0:
380,151,13668,5,10,0:0:0:0:
163,75,14011,1,2,0:0:0:0:
349,75,14354,1,10,0:0:0:0:
132,151,14697,1,2,0:0:0:0:
256,39,15040,1,10,0:0:0:0:
256,62,15125,1,8,0:0:0:0:
256,86,15211,1,10,0:0:0:0:
256,110,15297,1,8,0:0:0:0:
256,134,15382,1,6,0:0:0:0:
256,192,15725,12,10,18697,2:0:0:0:
428,139,20182,6,0,P|321:158|228:84,1,190,6|10,0:0|0:0,0:0:0:0:
84,139,30810,5,10,0:0:0:0:
84,139,30896,1,8,0:0:0:0:
84,139,30982,1,8,0:0:0:0:
84,139,31153,6,0,P|191:158|284:84,1,190,2|10,0:0|0:0,0:0:0:0:
258,120,31839,2,0,L|262:215,1,95,2|0,0:0|0:0,0:0:0:0:
254,32,32182,1,10,0:0:0:0:
361,139,32353,6,0,P|459:136|480:24,1,190
258,120,32867,2,0,L|262:215,1,95,10|0,0:0|0:0,0:0:0:0:
132,120,33210,2,0,L|127:214,1,95,2|0,0:0|0:0,0:0:0:0:
257,315,33553,1,10,0:0:0:0:
133,315,33724,1,0,0:0:0:0:
262,215,33896,6,0,P|309:205|355:215,1,95,2|0,0:0|0:0,0:0:0:0:
423,318,34239,2,0,P|376:327|330:317,1,95,10|0,0:0|0:0,0:0:0:0:
126,215,34581,1,2,0:0:0:0:
262,215,34753,1,0,0:0:0:0:
193,318,34924,1,10,0:0:0:0:
191,111,35096,6,0,P|101:94|24:146,1,190
193,318,35610,2,0,L|301:332,1,95,10|0,0:0|0:0,0:0:0:0:
126,215,35953,2,0,L|59:301,1,95,2|0,0:0|0:0,0:0:0:0:
262,215,36296,2,0,P|254:166|215:118,1,95,10|0,0:0|0:0,0:0:0:0:
110,94,36638,5,6,0:0:0:0:
110,94,36982,2,0,P|192:9|297:25,1,190,10|2,0:0|0:0,0:0:0:0:
347,91,37495,1,0,0:0:0:0:
438,7,37667,1,10,0:0:0:0:
347,90,37839,6,0,P|310:178|294:271,1,190
418,261,38353,2,0,P|434:213|445:161,1,95,10|0,0:0|0:0,0:0:0:0:
256,118,38696,2,0,P|240:166|229:218,1,95,2|0,0:0|0:0,0:0:0:0:
286,319,39038,1,10,0:0:0:0:
353,214,39210,1,0,0:0:0:0:
163,312,39382,6,0,P|116:322|70:313,1,95,2|0,0:0|0:0,0:0:0:0:
71,190,39724,2,0,P|117:179|163:189,1,95,10|0,0:0|0:0,0:0:0:0:
286,319,40067,1,2,0:0:0:0:
353,214,40238,1,0,0:0:0:0:
411,323,40410,1,10,0:0:0:0:
265,231,40582,6,0,P|235:142|265:53,1,190
377,182,41096,1,10,0:0:0:0:
362,12,41267,1,0,0:0:0:0:
273,157,41439,1,2,0:0:0:0:
430,91,41610,1,0,0:0:0:0:
265,53,41782,1,10,0:0:0:0:
260,53,41867,1,8,0:0:0:0:
255,53,41953,1,10,0:0:0:0:
250,53,42039,1,8,0:0:0:0:
244,53,42124,6,0,P|174:95|166:165,1,113.999996520996,6|2,0:0|0:0,0:0:0:0:
269,246,42639,2,0,P|277:190|250:142,1,113.999996520996
188,206,43153,2,0,P|132:205|89:171,1,113.999996520996,2|2,0:0|0:0,0:0:0:0:
249,141,43667,6,0,P|277:190|269:246,1,113.999996520996
163,121,44182,2,0,P|193:73|250:52,1,113.999996520996,2|2,0:0|0:0,0:0:0:0:
313,80,44696,1,0,0:0:0:0:
370,126,44867,6,0,P|423:142|476:125,1,113.999996520996,2|2,0:0|0:0,0:0:0:0:
370,206,45382,2,0,P|316:222|263:205,1,113.999996520996
211,151,45896,6,0,P|157:134|104:151,1,113.999996520996,2|2,0:0|0:0,0:0:0:0:
211,72,46410,2,0,P|264:55|317:72,1,113.999996520996
382,109,46924,2,0,L|393:36,1,56.9999982604981
382,184,47267,2,0,L|390:240,1,56.9999982604981,2|0,0:0|0:0,0:0:0:0:
393,254,47524,1,0,0:0:0:0:
395,268,47610,1,6,0:0:0:0:
253,313,47953,5,2,0:0:0:0:
179,329,48124,2,0,P|118:280|109:227,1,113.999996520996
289,212,48639,2,0,P|277:289|235:323,1,113.999996520996,2|2,0:0|0:0,0:0:0:0:
133,176,49153,6,0,P|205:147|256:166,1,113.999996520996
289,212,49667,2,0,P|361:240|412:221,1,113.999996520996,2|2,0:0|0:0,0:0:0:0:
454,187,50182,1,0,0:0:0:0:
415,124,50353,6,0,P|342:95|291:114,1,113.999996520996,2|2,0:0|0:0,0:0:0:0:
97,124,50867,2,0,P|169:95|220:114,1,113.999996520996
310,183,51382,6,0,P|256:200|202:183,1,113.999996520996,2|2,0:0|0:0,0:0:0:0:
202,25,51896,2,0,P|255:7|309:24,1,113.999996520996
256,104,52410,1,2,0:0:0:0:
134,160,53096,5,6,0:0:0:0:
134,160,53439,2,0,P|142:215|134:245,1,76,10|0,0:0|0:0,0:0:0:0:
39,242,53782,2,0,P|30:186|38:156,1,76,2|0,0:0|0:0,0:0:0:0:
138,234,54124,2,0,P|225:251|282:203,1,152,10|2,0:0|0:0,0:0:0:0:
339,142,54639,5,0,0:0:0:0:
435,159,54810,2,0,P|480:207|462:310,1,152,10|2,0:0|0:0,0:0:0:0:
289,217,55324,1,0,0:0:0:0:
401,311,55496,1,10,0:0:0:0:
420,176,55667,1,0,0:0:0:0:
307,310,55839,6,0,P|236:332|165:310,1,152,2|10,0:0|0:0,0:0:0:0:
165,188,56353,1,0,0:0:0:0:
51,252,56524,2,0,P|49:289|55:327,1,76,2|0,0:0|0:0,0:0:0:0:
165,188,56867,2,0,P|236:165|307:187,1,152,10|2,0:0|0:0,0:0:0:0:
384,250,57382,5,0,0:0:0:0:
471,203,57553,2,0,P|478:161|472:111,1,76,10|0,0:0|0:0,0:0:0:0:
384,250,57896,2,0,L|392:349,2,76,2|0|10,0:0|0:0|0:0,0:0:0:0:
475,127,58410,1,0,0:0:0:0:
347,43,58582,6,0,P|273:25|200:43,1,152,6|10,0:0|0:0,0:0:0:0:
130,113,59096,1,0,0:0:0:0:
174,201,59267,2,0,P|210:170|226:113,1,76,2|0,0:0|0:0,0:0:0:0:
56,178,59610,2,0,P|37:146|75:31,1,152,10|2,0:0|0:0,0:0:0:0:
159,22,60124,5,0,0:0:0:0:
242,75,60296,2,0,B|293:96|330:70|330:70|375:72|405:113,1,152,10|2,0:0|0:0,0:0:0:0:
431,256,60810,1,0,0:0:0:0:
360,186,60982,1,10,0:0:0:0:
455,160,61153,1,0,0:0:0:0:
337,281,61324,6,0,P|273:302|178:240,1,152,2|10,0:0|0:0,0:0:0:0:
147,184,61839,1,0,0:0:0:0:
211,109,62010,2,0,L|316:99,1,76,2|0,0:0|0:0,0:0:0:0:
132,47,62353,2,0,P|112:118|146:183,1,152,10|2,0:0|0:0,0:0:0:0:
286,102,62867,5,4,0:3:0:0:
198,269,63039,1,10,0:0:0:0:
211,109,63210,1,4,0:3:0:0:
326,259,63382,1,2,0:0:0:0:
231,149,64067,6,0,P|163:180|164:287,1,190,6|10,0:0|0:0,0:0:0:0:
304,192,64582,2,0,P|310:118|217:65,1,190
230,234,65096,2,0,P|291:276|383:222,1,190,10|2,0:0|0:0,0:0:0:0:
411,104,65610,5,0,0:0:0:0:
309,33,65782,2,0,P|191:24|94:69,1,190,10|2,0:0|0:0,0:0:0:0:
130,56,66467,1,10,0:0:0:0:
130,56,66810,6,0,P|166:138|126:249,1,190,2|10,0:0|0:0,0:0:0:0:
215,330,67324,1,0,0:0:0:0:
305,245,67496,2,0,P|386:258|422:282,1,95,2|0,0:0|0:0,0:0:0:0:
298,138,67839,2,0,L|224:47,1,95,10|0,0:0|0:0,0:0:0:0:
401,167,68182,5,2,0:0:0:0:
305,245,68353,1,0,0:0:0:0:
467,350,68524,2,0,L|408:277,1,95,10|0,0:0|0:0,0:0:0:0:
367,90,68867,1,2,0:0:0:0:
238,196,69039,1,0,0:0:0:0:
408,277,69210,2,0,P|489:232|496:113,1,190,10|6,0:0|0:0,0:0:0:0:
271,64,69896,5,10,0:0:0:0:
177,144,70067,1,0,0:0:0:0:
388,100,70239,1,2,0:0:0:0:
171,129,70410,1,0,0:0:0:0:
382,85,70581,1,10,0:0:0:0:
265,49,70753,1,0,0:0:0:0:
171,129,70924,6,0,P|161:204|172:243,1,95,2|0,0:0|0:0,0:0:0:0:
275,313,71267,2,0,P|286:267|282:220,1,95,10|0,0:0|0:0,0:0:0:0:
78,222,71610,2,0,P|73:269|84:315,1,95,2|0,0:0|0:0,0:0:0:0:
203,349,71953,1,10,0:0:0:0:
281,219,72124,6,0,P|383:236|441:159,1,190
346,147,72639,1,10,0:0:0:0:
254,117,72810,2,0,P|320:54|408:74,1,190
282,220,73324,1,10,0:0:0:0:
436,177,73496,1,0,0:0:0:0:
254,117,73667,5,2,0:0:0:0:
408,74,73839,1,0,0:0:0:0:
282,220,74010,2,0,L|298:343,1,95,10|0,0:0|0:0,0:0:0:0:
149,267,74353,2,0,L|161:172,1,95,2|0,0:0|0:0,0:0:0:0:
426,239,74696,1,10,0:0:0:0:
426,239,74782,1,8,0:0:0:0:
426,239,74867,1,10,0:0:0:0:
426,239,74953,1,8,0:0:0:0:
426,239,75039,6,0,B|546:267|546:267|494:222,1,190,6|10,0:0|0:0,0:0:0:0:
351,261,75553,2,0,B|265:351|265:351|331:328,1,190
370,186,76067,2,0,B|334:67|334:67|321:135,1,190,10|2,0:0|0:0,0:0:0:0:
470,170,76582,5,0,0:0:0:0:
321,131,76753,2,0,P|221:123|116:165,1,190,10|2,0:0|0:0,0:0:0:0:
132,155,77439,2,0,L|110:275,1,95,10|0,0:0|0:0,0:0:0:0:
250,177,77782,6,0,L|448:161,1,190,2|10,0:0|0:0,0:0:0:0:
405,330,78296,1,0,0:0:0:0:
318,242,78467,1,2,0:0:0:0:
231,330,78639,1,0,0:0:0:0:
132,155,78810,2,0,L|110:275,1,95,10|0,0:0|0:0,0:0:0:0:
318,242,79153,5,2,0:0:0:0:
231,330,79325,1,0,0:0:0:0:
140,109,79496,2,0,L|122:202,1,95,10|0,0:0|0:0,0:0:0:0:
318,242,79839,1,2,0:0:0:0:
231,330,80011,1,0,0:0:0:0:
250,177,80182,2,0,L|448:161,1,190,10|6,0:0|0:0,0:0:0:0:
155,167,80867,5,10,0:0:0:0:
155,167,81039,1,0,0:0:0:0:
250,177,81210,1,2,0:0:0:0:
115,78,81382,1,0,0:0:0:0:
97,244,81553,1,10,0:0:0:0:
205,96,81724,1,0,0:0:0:0:
190,248,81896,6,0,P|205:308|256:350,1,95,2|0,0:0|0:0,0:0:0:0:
340,187,82239,2,0,P|280:169|218:193,1,95,10|0,0:0|0:0,0:0:0:0:
317,347,82582,2,0,P|361:304|372:238,1,95,2|0,0:0|0:0,0:0:0:0:
305,100,82924,1,10,0:0:0:0:
190,248,83096,6,0,P|96:258|41:161,1,190
207,100,83610,1,10,0:0:0:0:
322,248,83782,2,0,P|416:258|471:161,1,190
207,100,84296,2,0,L|132:179,1,95,10|0,0:0|0:0,0:0:0:0:
305,100,84639,2,0,L|380:179,1,95,2|0,0:0|0:0,0:0:0:0:
190,248,84982,5,10,0:0:0:0:
322,248,85153,1,2,0:0:0:0:
257,101,85324,2,0,L|257:52,2,47.5,2|0|4,0:0|0:0|0:3,0:0:0:0:
256,273,85667,1,4,0:3:0:0:
256,296,85753,1,0,0:0:0:0:
256,320,85839,1,2,0:0:0:0:
256,344,85924,1,0,0:0:0:0:
256,368,86010,1,2,0:0:0:0:
256,192,94239,12,0,96296,0:0:0:0:
386,134,96982,5,6,0:0:0:0:
386,134,97324,2,0,L|393:209,1,76,10|0,0:0|0:0,0:0:0:0:
274,113,97667,2,0,L|264:214,1,76,2|0,0:0|0:0,0:0:0:0:
341,56,98010,2,0,P|408:47|474:132,1,152,10|2,0:0|0:0,0:0:0:0:
477,198,98524,5,0,0:0:0:0:
406,268,98696,2,0,P|339:277|273:192,1,152,10|2,0:0|0:0,0:0:0:0:
314,68,99210,1,0,0:0:0:0:
194,172,99382,1,10,0:0:0:0:
353,159,99553,1,0,0:0:0:0:
216,76,99724,6,0,P|123:105|97:181,1,152,2|10,0:0|0:0,0:0:0:0:
150,234,100239,1,0,0:0:0:0:
87,310,100410,2,0,P|51:314|8:309,1,76,2|0,0:0|0:0,0:0:0:0:
150,234,100753,2,0,P|237:238|312:289,1,152,10|2,0:0|0:0,0:0:0:0:
364,337,101267,5,0,0:0:0:0:
436,269,101439,2,0,P|442:224|444:164,1,76,10|0,0:0|0:0,0:0:0:0:
274,171,101782,1,2,0:0:0:0:
259,267,101953,1,0,0:0:0:0:
352,230,102124,1,10,0:0:0:0:
364,132,102296,1,0,0:0:0:0:
181,205,102467,6,0,P|94:206|32:179,1,152,6|10,0:0|0:0,0:0:0:0:
80,34,102982,1,0,0:0:0:0:
160,116,103153,2,0,P|216:107|251:90,1,76,2|0,0:0|0:0,0:0:0:0:
285,15,103496,2,0,P|264:68|276:177,1,152,10|2,0:0|0:0,0:0:0:0:
338,233,104010,5,0,0:0:0:0:
300,324,104182,2,0,P|230:365|147:336,1,152,10|2,0:0|0:0,0:0:0:0:
100,196,104696,1,0,0:0:0:0:
181,252,104867,1,10,0:0:0:0:
82,293,105039,1,0,0:0:0:0:
189,153,105210,6,0,L|346:157,1,152,2|10,0:0|0:0,0:0:0:0:
187,74,105724,2,0,L|100:76,1,76,0|2,0:0|0:0,0:0:0:0:
100,196,106067,1,0,0:0:0:0:
187,74,106239,2,0,P|256:46|325:74,1,152,10|2,0:0|0:0,0:0:0:0:
256,235,106753,5,4,0:3:0:0:
206,149,106924,1,10,0:0:0:0:
306,149,107096,1,4,0:3:0:0:
155,235,107267,2,0,P|122:252|95:278,1,76,2|0,0:0|0:0,0:0:0:0:
416,278,107610,2,0,P|389:252|356:235,1,76
172,343,107953,6,0,P|255:381|339:343,1,190,6|10,0:0|0:0,0:0:0:0:
217,131,108467,2,0,P|142:183|133:275,1,190
378,276,108982,2,0,P|369:184|295:131,1,190,10|2,0:0|0:0,0:0:0:0:
288,130,109496,5,0,0:0:0:0:
339,342,109667,2,0,P|255:381|172:343,1,190,10|2,0:0|0:0,0:0:0:0:
168,338,110353,1,10,0:0:0:0:
164,333,110696,6,0,P|196:262|139:146,1,190,2|10,0:0|0:0,0:0:0:0:
256,84,111210,1,0,0:0:0:0:
353,161,111382,2,0,L|452:123,1,95,2|0,0:0|0:0,0:0:0:0:
241,177,111724,2,0,L|256:84,1,95,10|0,0:0|0:0,0:0:0:0:
395,184,112067,6,0,L|493:145,1,95,2|0,0:0|0:0,0:0:0:0:
242,178,112410,2,0,P|115:176|33:128,1,190,10|2,0:0|0:0,0:0:0:0:
176,358,112924,1,0,0:0:0:0:
242,253,113096,1,10,0:0:0:0:
306,358,113267,1,0,0:0:0:0:
242,178,113439,1,6,0:0:0:0:
348,96,113782,5,10,0:0:0:0:
348,96,113953,1,0,0:0:0:0:
242,178,114124,1,2,0:0:0:0:
271,30,114296,1,0,0:0:0:0:
321,224,114467,1,10,0:0:0:0:
206,97,114639,1,0,0:0:0:0:
348,96,114810,6,0,P|403:68|431:31,1,95,2|0,0:0|0:0,0:0:0:0:
242,178,115153,2,0,P|187:150|159:113,1,95,10|0,0:0|0:0,0:0:0:0:
397,169,115496,2,0,P|416:227|409:273,1,95,2|0,0:0|0:0,0:0:0:0:
296,358,115839,1,10,0:0:0:0:
186,252,116010,6,0,P|54:239|6:275,1,190
110,367,116524,1,10,0:0:0:0:
242,178,116696,2,0,P|374:165|422:201,1,190
296,358,117210,1,10,0:0:0:0:
186,252,117382,1,0,0:0:0:0:
339,202,117553,5,2,0:0:0:0:
197,352,117724,1,0,0:0:0:0:
244,169,117896,2,0,P|244:109|221:54,1,95,10|0,0:0|0:0,0:0:0:0:
375,296,118239,2,0,P|426:326|486:333,1,95,2|0,0:0|0:0,0:0:0:0:
461,114,118582,1,10,0:0:0:0:
457,112,118667,1,8,0:0:0:0:
454,109,118753,1,10,0:0:0:0:
450,106,118839,1,8,0:0:0:0:
446,103,118924,6,0,P|357:73|268:102,1,190,6|10,0:0|0:0,0:0:0:0:
268,227,119439,2,0,P|356:256|445:227,1,190
268,101,119953,2,0,P|179:71|90:100,1,190,10|2,0:0|0:0,0:0:0:0:
174,228,120467,5,0,0:0:0:0:
313,164,120639,2,0,P|382:101|401:10,1,190,10|2,0:0|0:0,0:0:0:0:
401,10,121324,2,0,L|437:139,1,95,10|0,0:0|0:0,0:0:0:0:
293,27,121667,6,0,P|200:7|108:26,1,190,2|10,0:0|0:0,0:0:0:0:
266,191,122182,1,0,0:0:0:0:
200,86,122353,1,2,0:0:0:0:
135,191,122524,1,0,0:0:0:0:
286,105,122696,2,0,L|416:134,1,95,10|0,0:0|0:0,0:0:0:0:
200,86,123039,5,2,0:0:0:0:
265,191,123210,1,0,0:0:0:0:
114,105,123382,2,0,L|-16:134,1,95,10|0,0:0|0:0,0:0:0:0:
286,105,123724,1,2,0:0:0:0:
114,105,123896,1,0,0:0:0:0:
265,191,124067,2,0,P|370:206|475:155,1,190,10|6,0:0|0:0,0:0:0:0:
129,335,124753,5,10,0:0:0:0:
256,335,124924,1,0,0:0:0:0:
191,229,125096,1,2,0:0:0:0:
129,335,125267,1,0,0:0:0:0:
191,155,125439,1,10,0:0:0:0:
256,335,125610,1,0,0:0:0:0:
115,255,125782,6,0,P|82:221|68:176,1,95,2|0,0:0|0:0,0:0:0:0:
268,255,126124,2,0,P|301:221|315:176,1,95,10|0,0:0|0:0,0:0:0:0:
236,45,126467,2,0,P|204:78|190:123,1,95,2|0,0:0|0:0,0:0:0:0:
268,255,126810,1,10,0:0:0:0:
415,217,126982,6,0,P|443:128|415:39,1,190
411,35,127496,1,10,0:0:0:0:
292,218,127667,2,0,P|263:128|291:39,1,190
296,35,128182,1,10,0:0:0:0:
415,217,128353,1,0,0:0:0:0:
411,35,128524,5,2,0:0:0:0:
292,218,128696,1,0,0:0:0:0:
354,80,128867,1,10,0:0:0:0:
415,217,129039,1,0,0:0:0:0:
263,121,129210,2,0,L|199:112,2,47.5,2|0|4,0:0|0:0|0:3,0:0:0:0:
445,121,129553,1,4,0:3:0:0:
454,119,129638,1,0,0:0:0:0:
463,118,129724,1,2,0:0:0:0:
473,117,129810,1,0,0:0:0:0:
482,115,129895,1,6,0:0:0:0:
239,190,140524,5,10,0:0:0:0:
239,190,140610,1,2,0:0:0:0:
239,190,140696,1,4,0:3:0:0:
145,309,140867,6,0,L|83:303,3,47.5,6|0|0|0,0:0|0:0|0:0|0:0,0:0:0:0:
210,263,141210,2,0,L|257:258,3,47.5,10|0|0|0,0:0|0:0|0:0|0:0,0:0:0:0:
116,212,141553,2,0,L|68:207,3,47.5,2|0|0|0,0:0|0:0|0:0|0:0,0:0:0:0:
239,166,141896,2,0,L|301:160,3,47.5,10|0|0|0,0:0|0:0|0:0|0:0,0:0:0:0:
137,82,142239,6,0,L|100:31,3,47.5,2|0|0|0,0:0|0:0|0:0|0:0,0:0:0:0:
116,212,142582,2,0,L|90:268,3,47.5,10|0|0|0,0:0|0:0|0:0|0:0,0:0:0:0:
239,166,142924,2,0,L|258:122,3,47.5,2|0|0|0,0:0|0:0|0:0|0:0,0:0:0:0:
244,289,143267,2,0,L|224:332,3,47.5,10|0|0|0,0:0|0:0|0:0|0:0,0:0:0:0:
365,285,143610,6,0,L|408:304,3,47.5,2|0|0|0,0:0|0:0|0:0|0:0,0:0:0:0:
361,163,143953,2,0,L|380:119,3,47.5,10|0|0|0,0:0|0:0|0:0|0:0,0:0:0:0:
239,166,144296,2,0,L|195:146,3,47.5,2|0|0|0,0:0|0:0|0:0|0:0,0:0:0:0:
74,164,144639,2,0,L|30:144,3,47.5,10|0|0|0,0:0|0:0|0:0|0:0,0:0:0:0:
191,264,144982,5,2,0:0:0:0:
191,264,145067,1,0,0:0:0:0:
191,264,145153,1,0,0:0:0:0:
191,264,145239,1,0,0:0:0:0:
191,264,145324,1,10,0:0:0:0:
191,264,145410,1,0,0:0:0:0:
191,264,145496,2,0,P|280:235|369:264,1,190
205,173,146010,1,10,0:0:0:0:
280,337,146182,1,0,0:0:0:0:
356,173,146353,1,6,0:0:0:0:
129,52,146696,5,10,0:0:0:0:
129,52,146867,1,0,0:0:0:0:
205,173,147039,1,2,0:0:0:0:
280,52,147210,1,0,0:0:0:0:
356,173,147382,1,10,0:0:0:0:
431,52,147553,1,0,0:0:0:0:
356,173,147724,6,0,L|256:168,1,95,2|0,0:0|0:0,0:0:0:0:
98,70,148067,2,0,L|192:74,1,95,10|0,0:0|0:0,0:0:0:0:
90,174,148410,5,2,0:0:0:0:
76,209,148495,1,0,0:0:0:0:
78,246,148581,1,0,0:0:0:0:
95,279,148667,1,0,0:0:0:0:
126,302,148752,1,10,0:0:0:0:
162,310,148838,1,0,0:0:0:0:
199,302,148924,2,0,L|287:364,1,95,0|2,0:0|0:0,0:0:0:0:
241,218,149267,6,0,L|241:140,1,47.5
392,114,149439,2,0,L|392:161,1,47.5,10|0,0:0|0:0,0:0:0:0:
319,263,149610,2,0,L|319:147,1,95,0|2,0:0|0:0,0:0:0:0:
461,72,149953,5,0,0:0:0:0:
473,99,150038,1,0,0:0:0:0:
481,126,150124,1,10,0:0:0:0:
486,154,150210,1,0,0:0:0:0:
487,182,150295,1,0,0:0:0:0:
484,211,150381,1,0,0:0:0:0:
478,239,150467,2,0,L|357:263,1,95,2|0,0:0|0:0,0:0:0:0:
326,76,150810,2,0,L|285:193,1,95,10|0,0:0|0:0,0:0:0:0:
252,282,151153,5,2,0:0:0:0:
249,291,151324,1,2,0:0:0:0:
308,364,151496,1,10,0:0:0:0:
282,204,151667,1,10,0:0:0:0:
157,306,151839,1,6,0:0:0:0:
39,232,162810,5,6,0:0:0:0:
138,61,163153,1,10,0:0:0:0:
116,256,163496,1,2,0:0:0:0:
216,85,163839,1,10,0:0:0:0:
194,281,164181,1,2,0:0:0:0:
300,117,164524,5,10,0:0:0:0:
300,117,164867,1,2,0:0:0:0:
300,117,165210,1,10,0:0:0:0:
480,198,165553,5,2,0:0:0:0:
322,313,165896,1,10,0:0:0:0:
383,127,166239,1,2,0:0:0:0:
443,313,166582,1,10,0:0:0:0:
285,198,166924,5,0,0:0:0:0:
443,313,167267,1,10,0:0:0:0:
383,127,167610,1,2,0:0:0:0:
322,313,167953,1,10,0:0:0:0:
306,106,168296,5,6,0:0:0:0:
206,278,168639,1,10,0:0:0:0:
282,95,168982,1,2,0:0:0:0:
229,288,169325,1,10,0:0:0:0:
256,92,169667,5,2,0:0:0:0:
255,291,170010,1,10,0:0:0:0:
230,95,170353,1,2,0:0:0:0:
281,288,170696,1,10,0:0:0:0:
256,92,171039,5,2,0:0:0:0:
178,274,171382,2,0,P|162:217|178:169,1,76,10|0,0:0|0:0,0:0:0:0:
347,201,171724,2,0,P|348:239|334:274,1,76,2|0,0:0|0:0,0:0:0:0:
164,128,172067,1,10,0:0:0:0:
348,128,172239,1,2,0:0:0:0:
348,128,173439,5,2,0:0:0:0:
348,128,173782,6,0,P|256:106|164:128,1,190,6|10,0:0|0:0,0:0:0:0:
164,252,174296,2,0,P|255:273|347:251,1,190
349,52,174810,2,0,P|255:36|162:52,1,190,10|2,0:0|0:0,0:0:0:0:
72,192,175324,5,0,0:0:0:0:
163,332,175496,2,0,P|257:348|350:332,1,190,10|2,0:0|0:0,0:0:0:0:
355,329,176182,1,10,0:0:0:0:
360,326,176524,6,0,L|410:138,1,190,2|10,0:0|0:0,0:0:0:0:
463,254,177039,1,0,0:0:0:0:
311,198,177210,2,0,P|264:192|216:200,1,95,2|0,0:0|0:0,0:0:0:0:
110,263,177553,1,10,0:0:0:0:
110,139,177724,1,0,0:0:0:0:
217,322,177896,6,0,P|264:328|312:320,1,95,2|0,0:0|0:0,0:0:0:0:
217,199,178239,1,10,0:0:0:0:
110,263,178410,1,0,0:0:0:0:
315,318,178582,2,0,P|354:290|383:252,1,95,2|0,0:0|0:0,0:0:0:0:
265,91,178924,2,0,P|181:133|135:215,1,190,10|6,0:0|0:0,0:0:0:0:
426,297,179610,5,10,0:0:0:0:
326,221,179782,1,0,0:0:0:0:
394,118,179953,1,2,0:0:0:0:
394,297,180124,1,0,0:0:0:0:
425,117,180296,1,10,0:0:0:0:
458,297,180467,1,0,0:0:0:0:
326,221,180639,6,0,P|279:214|232:220,1,95,2|0,0:0|0:0,0:0:0:0:
413,209,180982,2,0,P|460:203|503:184,1,95,10|0,0:0|0:0,0:0:0:0:
318,114,181324,2,0,P|270:119|227:138,1,95,2|0,0:0|0:0,0:0:0:0:
132,257,181667,1,10,0:0:0:0:
281,226,181839,6,0,P|374:242|437:169,1,190
437,173,182353,1,10,0:0:0:0:
231,290,182524,2,0,P|138:306|75:233,1,190
211,92,183039,1,10,0:0:0:0:
281,226,183210,1,0,0:0:0:0:
372,92,183382,5,2,0:0:0:0:
188,190,183553,1,0,0:0:0:0:
372,231,183724,2,0,L|390:339,1,95,10|0,0:0|0:0,0:0:0:0:
241,279,184067,2,0,L|256:185,1,95,2|0,0:0|0:0,0:0:0:0:
42,143,184410,1,10,0:0:0:0:
42,143,184496,1,8,0:0:0:0:
42,143,184582,1,10,0:0:0:0:
42,143,184667,1,8,0:0:0:0:
41,143,184753,6,0,P|128:109|215:142,1,190,6|10,0:0|0:0,0:0:0:0:
296,241,185267,2,0,P|383:274|470:240,1,190
215,142,185782,2,0,P|182:228|215:315,1,190,10|2,0:0|0:0,0:0:0:0:
366,330,186296,5,0,0:0:0:0:
428,192,186467,2,0,P|369:120|277:105,1,190,10|2,0:0|0:0,0:0:0:0:
277,105,187153,2,0,L|296:226,1,95,10|0,0:0|0:0,0:0:0:0:
183,105,187496,6,0,P|96:71|10:105,1,190,2|10,0:0|0:0,0:0:0:0:
53,270,188010,1,0,0:0:0:0:
120,166,188182,1,2,0:0:0:0:
185,270,188353,1,0,0:0:0:0:
277,105,188524,2,0,L|296:226,1,95,10|0,0:0|0:0,0:0:0:0:
120,166,188867,5,2,0:0:0:0:
185,270,189039,1,0,0:0:0:0:
270,58,189210,2,0,L|289:179,1,95,10|0,0:0|0:0,0:0:0:0:
120,166,189553,1,2,0:0:0:0:
185,270,189725,1,0,0:0:0:0:
284,151,189896,2,0,P|370:117|456:151,1,190,10|6,0:0|0:0,0:0:0:0:
344,307,190582,5,10,0:0:0:0:
225,277,190753,1,0,0:0:0:0:
434,224,190924,1,2,0:0:0:0:
226,293,191096,1,0,0:0:0:0:
435,240,191267,1,10,0:0:0:0:
345,323,191439,1,0,0:0:0:0:
226,293,191610,6,0,P|189:242|184:204,1,95,2|0,0:0|0:0,0:0:0:0:
300,99,191953,2,0,P|274:155|243:179,1,95,10|0,0:0|0:0,0:0:0:0:
96,132,192296,2,0,P|158:126|193:140,1,95,2|0,0:0|0:0,0:0:0:0:
226,293,192639,1,10,0:0:0:0:
369,243,192810,6,0,P|406:188|385:65,1,190
386,66,193324,1,10,0:0:0:0:
270,167,193496,2,0,P|177:176|95:131,1,190
92,127,194010,1,10,0:0:0:0:
113,294,194182,1,0,0:0:0:0:
326,236,194353,6,0,P|377:266|402:302,1,95,2|0,0:0|0:0,0:0:0:0:
113,294,194696,2,0,P|144:258|186:236,1,95,10|0,0:0|0:0,0:0:0:0:
256,335,195039,2,0,L|256:384,2,47.5,2|0|4,0:0|0:0|0:3,0:0:0:0:
257,163,195382,1,4,0:3:0:0:
257,140,195468,1,0,0:0:0:0:
257,116,195554,1,2,0:0:0:0:
257,92,195639,1,0,0:0:0:0:
257,68,195725,1,6,0:0:0:0:
256,192,195810,12,6,201210,0:0:0:0:
256,184,206353,5,10,0:0:0:0:
256,188,206439,1,2,0:0:0:0:
256,192,206524,1,4,0:3:0:0:
170,189,206696,6,0,P|114:208|76:250,1,95,6|0,0:0|0:0,0:0:0:0:
342,189,207039,2,0,P|398:208|436:250,1,95,10|0,0:0|0:0,0:0:0:0:
302,98,207382,2,0,P|255:88|209:98,1,95,2|0,0:0|0:0,0:0:0:0:
256,212,207724,1,10,0:0:0:0:
347,37,207896,6,0,P|256:14|165:37,1,190
80,128,208410,1,10,0:0:0:0:
82,136,208582,2,0,B|100:210|100:210|91:244|91:244|111:326,1,190
26,210,209096,2,0,L|2:111,1,95,10|0,0:0|0:0,0:0:0:0:
165,245,209439,6,0,L|187:337,1,95,6|0,0:0|0:0,0:0:0:0:
347,245,209782,2,0,L|324:337,1,95,10|0,0:0|0:0,0:0:0:0:
256,130,210124,2,0,L|256:225,2,95,2|0|10,0:0|0:0|0:0,0:0:0:0:
335,273,210639,6,0,P|256:318|176:273,1,190
174,86,211153,1,10,0:0:0:0:
177,81,211324,2,0,P|256:36|335:80,1,190
181,192,211839,1,10,0:0:0:0:
331,192,212010,1,0,0:0:0:0:
179,199,212182,6,0,L|148:320,1,95,6|0,0:0|0:0,0:0:0:0:
205,106,212524,1,10,0:0:0:0:
331,192,212696,2,0,L|440:163,1,95,0|2,0:0|0:0,0:0:0:0:
163,114,213039,2,0,L|132:235,1,95,0|10,0:0|0:0,0:0:0:0:
287,166,213382,6,0,L|481:114,1,190
471,302,213896,1,10,0:0:0:0:
471,302,214067,2,0,L|287:252,1,190
221,92,214582,1,10,0:0:0:0:
189,288,214753,1,0,0:0:0:0:
106,160,214924,6,0,L|148:53,1,95,6|0,0:0|0:0,0:0:0:0:
189,288,215267,2,0,L|231:181,1,95,10|0,0:0|0:0,0:0:0:0:
406,160,215610,2,0,L|371:71,1,95,2|0,0:0|0:0,0:0:0:0:
326,293,215953,1,10,0:0:0:0:
323,288,216124,6,0,P|300:234|303:68,1,190
461,160,216639,2,0,L|445:265,1,95,10|0,0:0|0:0,0:0:0:0:
293,104,216982,1,10,0:0:0:0:
265,86,217067,1,0,0:0:0:0:
232,79,217153,1,10,0:0:0:0:
200,83,217239,1,0,0:0:0:0:
170,97,217324,1,10,0:0:0:0:
146,120,217410,1,0,0:0:0:0:
130,149,217496,1,10,0:0:0:0:
125,182,217582,1,0,0:0:0:0:
131,215,217667,6,0,L|45:279,1,95,6|0,0:0|0:0,0:0:0:0:
253,200,218010,2,0,L|351:243,1,95,10|0,0:0|0:0,0:0:0:0:
179,103,218353,2,0,L|166:-4,1,95,2|0,0:0|0:0,0:0:0:0:
197,248,218695,1,10,0:0:0:0:
288,91,218867,6,0,P|357:61|474:109,1,190
259,202,219382,1,10,0:0:0:0:
253,200,219553,2,0,P|192:155|175:29,1,190
372,191,220067,2,0,L|347:324,1,95,10|0,0:0|0:0,0:0:0:0:
140,191,220410,6,0,L|165:324,1,95,6|0,0:0|0:0,0:0:0:0:
199,108,220753,2,0,L|71:63,1,95,10|0,0:0|0:0,0:0:0:0:
313,108,221096,2,0,L|440:63,1,95,2|0,0:0|0:0,0:0:0:0:
292,241,221438,1,10,0:0:0:0:
199,108,221610,6,0,P|118:64|37:107,1,190
220,241,222124,1,10,0:0:0:0:
312,108,222296,2,0,P|393:64|474:107,1,190
459,269,222810,1,10,0:0:0:0:
394,163,222981,1,0,0:0:0:0:
328,268,223153,6,0,P|281:279|235:269,1,95,6|0,0:0|0:0,0:0:0:0:
459,269,223496,2,0,P|490:303|505:348,1,95,10|0,0:0|0:0,0:0:0:0:
394,163,223839,2,0,P|408:118|439:82,1,95,2|0,0:0|0:0,0:0:0:0:
328,268,224181,1,10,0:0:0:0:
167,246,224353,6,0,P|129:190|164:54,1,190
341,250,224867,1,10,0:0:0:0:
345,246,225039,2,0,P|383:190|348:54,1,190
256,207,225553,1,10,0:0:0:0:
256,36,225724,1,0,0:0:0:0:
344,159,225896,6,0,P|392:154|433:133,1,95,6|0,0:0|0:0,0:0:0:0:
225,200,226239,2,0,P|186:172|160:133,1,95,10|0,0:0|0:0,0:0:0:0:
320,282,226582,2,0,P|328:328|318:374,1,95,2|0,0:0|0:0,0:0:0:0:
173,328,226924,1,10,0:0:0:0:
273,166,227096,6,0,P|374:169|442:277,1,190
318,374,227610,2,0,L|187:359,1,95,10|0,0:0|0:0,0:0:0:0:
85,240,227953,1,10,0:0:0:0:
88,207,228038,1,0,0:0:0:0:
102,176,228124,1,10,0:0:0:0:
124,152,228210,1,0,0:0:0:0:
153,135,228295,1,10,0:0:0:0:
185,128,228381,1,0,0:0:0:0:
218,131,228467,1,10,0:0:0:0:
248,144,228553,1,0,0:0:0:0:
273,166,228639,6,0,L|363:159,1,76,6|0,0:0|0:0,0:0:0:0:
314,253,228982,2,0,L|404:260,1,76,10|0,0:0|0:0,0:0:0:0:
348,160,229324,2,0,L|438:153,1,76,2|0,0:0|0:0,0:0:0:0:
389,258,229667,2,0,L|479:265,1,76,10|0,0:0|0:0,0:0:0:0:
239,248,230010,6,0,L|163:242,1,76,2|0,0:0|0:0,0:0:0:0:
66,110,230353,1,10,0:0:0:0:
66,110,230439,1,10,0:0:0:0:
66,110,230524,1,4,0:3:0:0:
66,110,230696,2,0,L|58:206,1,76,6|0,0:0|0:0,0:0:0:0:
161,62,231039,2,0,L|153:158,1,76,10|0,0:0|0:0,0:0:0:0:
340,124,231382,6,0,L|334:200,1,76,2|0,0:0|0:0,0:0:0:0:
245,172,231725,2,0,L|239:248,1,76,2|0,0:0|0:0,0:0:0:0:
425,211,232067,2,0,L|419:287,1,76,2|0,0:0|0:0,0:0:0:0:
256,134,232410,5,10,0:0:0:0:
256,110,232495,1,0,0:0:0:0:
256,86,232581,1,10,0:0:0:0:
256,62,232667,1,0,0:0:0:0:
256,39,232752,1,6,0:0:0:0:
132,151,233095,5,10,0:0:0:0:
349,75,233438,1,2,0:0:0:0:
163,75,233781,1,10,0:0:0:0:
380,151,234124,1,2,0:0:0:0:
256,192,234467,5,8,0:0:0:0:
256,196,234553,1,8,0:0:0:0:
256,200,234639,2,0,L|256:276,1,76,4|6,0:3|0:0,0:0:0:0:
190,138,235153,6,0,P|124:74|142:-13,1,152,10|2,0:0|0:0,0:0:0:0:
322,138,235839,2,0,P|387:74|369:-13,1,152,10|2,0:0|0:0,0:0:0:0:
256,200,236353,5,10,0:0:0:0:
256,203,236439,1,0,0:0:0:0:
256,206,236524,1,10,0:0:0:0:
256,209,236610,1,0,0:0:0:0:
256,212,236696,1,10,0:0:0:0:
256,215,236782,1,0,0:0:0:0:
256,218,236867,1,6,0:0:0:0:
