osu file format v14

[General]
AudioFilename: Night Sky Patrol of Tomorrow.mp3
AudioLeadIn: 700
PreviewTime: 34296
Countdown: 0
SampleSet: Soft
StackLeniency: 0.7
Mode: 0
LetterboxInBreaks: 0
EpilepsyWarning: 1
WidescreenStoryboard: 1

[Editor]
DistanceSpacing: 1.3
BeatDivisor: 4
GridSize: 4
TimelineZoom: 1

[Metadata]
Title:Asu no Yozora Shoukaihan
TitleUnicode:アスノヨゾラ哨戒班
Artist:Orangestar
ArtistUnicode:Orangestar
Creator:Gelbana
Version:Hard
Source:
Tags:ia -ARIA ON THE PLANETES- vocaloid m.b. tsumetaku crn caren_sk iyasine
BeatmapID:526239
BeatmapSetID:219728

[Difficulty]
HPDrainRate:5
CircleSize:3.5
OverallDifficulty:7
ApproachRate:8
SliderMultiplier:1.3
SliderTickRate:1

[Events]
//Background and Video events
0,0,"bgnorm.jpg",0,0
//Break Periods
2,76658,85763
//Storyboard Layer 0 (Background)
//Storyboard Layer 1 (Fail)
//Storyboard Layer 2 (Pass)
//Storyboard Layer 3 (Foreground)
//Storyboard Sound Samples

[TimingPoints]
1378,324.324324324324,4,2,1,50,1,0
11756,-90.9090909090909,4,2,1,50,0,0
22134,-133.333333333333,4,2,1,40,0,0
27323,-125,4,2,1,45,0,0
35107,-90.9090909090909,4,2,1,60,0,1
60891,-90.9090909090909,4,2,1,60,0,0
76459,324.324324324324,4,2,1,60,1,0
86513,-105.263157894737,4,2,1,40,0,0
86999,324.324324324324,4,2,1,40,1,0
86999,-105.263157894737,4,2,1,40,0,0
119107,-153.846153846153,4,2,1,50,0,0
123972,-133.333333333333,4,2,1,50,0,0
125269,-117.647058823529,4,2,1,50,0,0
130782,-100,4,2,1,55,0,0
131107,-90.9090909090909,4,2,1,60,0,1
156890,-100,4,2,1,50,0,0

[Colours]
Combo1 : 186,105,239
Combo2 : 75,55,253
Combo3 : 117,35,226
Combo4 : 106,171,223

[HitObjects]
156,128,1215,5,0,0:0:0:0:
132,202,1378,2,0,P|136:253|197:303,1,130,2|0,0:0|0:0,0:0:0:0:
212,222,1864,2,0,P|260:210|337:246,1,130,0|0,0:0|0:0,0:0:0:0:
390,292,2350,1,0,0:0:0:0:
433,227,2513,2,0,P|437:155|405:107,1,130,2|0,0:0|0:0,0:0:0:0:
212,200,3161,6,0,P|176:220|160:244,1,65,0|0,0:0|0:0,0:0:0:0:
232,276,3486,1,0,0:0:0:0:
292,220,3648,1,0,0:0:0:0:
268,144,3810,2,0,P|216:92|152:92,1,130,2|0,0:0|0:0,0:0:0:0:
96,300,4459,5,0,0:0:0:0:
68,228,4621,2,0,P|60:184|80:140,1,65,0|0,0:0|0:0,0:0:0:0:
140,124,4945,2,0,P|150:157|142:189,1,65,0|2,0:0|0:0,0:0:0:0:
96,300,5432,1,2,0:0:0:0:
240,236,5756,5,0,0:0:0:0:
240,236,5918,2,0,P|316:232|332:224,1,65,0|2,0:0|0:0,0:0:0:0:
444,168,6405,6,0,P|456:196|408:304,1,130,2|0,0:0|0:0,0:0:0:0:
352,328,6891,2,0,P|312:336|272:328,1,65,0|2,0:0|0:0,0:0:0:0:
288,176,7377,1,0,0:0:0:0:
212,188,7540,1,0,0:0:0:0:
152,140,7702,2,0,P|108:112|76:112,2,65,2|0|0,0:0|0:0|0:0,0:0:0:0:
92,188,8188,1,0,0:0:0:0:
116,260,8350,6,0,P|160:292|192:296,1,65,0|2,0:0|0:0,0:0:0:0:
248,288,8675,1,0,0:0:0:0:
316,252,8837,1,0,0:0:0:0:
376,200,8999,2,0,P|424:160|448:160,1,65,2|0,0:0|0:0,0:0:0:0:
316,252,9323,5,0,0:0:0:0:
296,176,9486,1,0,0:0:0:0:
294,98,9648,2,0,P|306:50|322:34,1,65,2|0,0:0|0:0,0:0:0:0:
296,176,9972,5,0,0:0:0:0:
220,156,10134,1,0,0:0:0:0:
148,128,10296,2,0,P|100:80|84:15,1,130,2|0,0:0|0:0,0:0:0:0:
84,21,10783,1,2,0:0:0:0:
72,240,11107,6,0,P|76:280|108:312,1,65,2|0,0:0|0:0,0:0:0:0:
148,244,11432,2,0,P|184:280|216:288,1,65,2|0,0:0|0:0,0:0:0:0:
220,204,11756,2,0,P|280:220|360:192,1,143.000004364014,6|0,0:0|0:0,0:0:0:0:
424,60,12242,2,0,P|398:84|384:117,1,71.5000021820069,2|0,0:0|0:0,0:0:0:0:
444,200,12567,2,0,P|465:171|472:132,1,71.5000021820069,0|0,0:0|0:0,0:0:0:0:
384,116,12891,1,2,0:0:0:0:
300,100,13053,2,0,P|252:88|224:64,1,71.5000021820069,0|0,0:0|0:0,0:0:0:0:
128,204,13540,6,0,P|168:240|176:264,1,71.5000021820069,0|0,0:0|0:0,0:0:0:0:
168,344,13864,1,0,0:0:0:0:
84,288,14026,2,0,P|36:232|36:216,1,71.5000021820069,2|0,0:0|0:0,0:0:0:0:
108,112,14513,1,2,0:0:0:0:
188,152,14675,1,0,0:0:0:0:
264,192,14837,2,0,P|260:236|232:272,1,71.5000021820069,0|0,0:0|0:0,0:0:0:0:
188,152,15161,2,0,P|204:92|224:76,1,71.5000021820069,0|2,0:0|0:0,0:0:0:0:
296,80,15486,1,0,0:0:0:0:
392,220,15810,2,0,P|404:268|376:304,1,71.5000021820069,0|2,0:0|0:0,0:0:0:0:
311,302,16134,6,0,B|259:367|238:280|171:330,1,143.000004364014,0|0,0:0|0:0,0:0:0:0:
100,308,16621,1,2,0:0:0:0:
96,224,16783,2,0,P|116:156|180:120,1,143.000004364014,4|0,0:0|0:0,0:0:0:0:
288,92,17269,1,2,0:0:0:0:
168,48,17432,1,0,0:0:0:0:
248,160,17594,1,2,0:0:0:0:
132,292,17918,1,0,0:0:0:0:
132,292,18080,6,0,P|92:264|72:164,1,143.000004364014,2|0,0:0|0:0,0:0:0:0:
176,184,18567,1,0,0:0:0:0:
176,184,18729,2,0,P|192:112|252:72,1,143.000004364014,2|0,0:0|0:0,0:0:0:0:
340,160,19215,6,0,P|380:160|412:184,1,71.5000021820069,2|0,0:0|0:0,0:0:0:0:
212,296,19702,1,0,0:0:0:0:
212,296,19864,2,0,P|140:280|128:260,1,71.5000021820069,2|0,0:0|0:0,0:0:0:0:
316,272,20350,2,0,P|372:240|404:149,1,143.000004364014,2|2,0:0|0:0,0:0:0:0:
318,133,20837,2,0,P|341:100|389:78,1,71.5000021820069,0|0,0:0|0:0,0:0:0:0:
468,100,21161,2,0,P|494:138|498:181,1,71.5000021820069,2|0,0:0|0:0,0:0:0:0:
276,340,21648,6,0,L|202:277,1,71.5000021820069
128,164,22134,6,0,B|183:116|208:128|261:168|285:164|325:126,1,195.00000743866,2|0,0:0|0:0,0:0:0:0:
380,232,23107,1,2,0:0:0:0:
380,232,23269,2,0,P|340:264|284:280,1,97.50000371933,0|2,0:0|0:0,0:0:0:0:
240,296,23756,1,0,0:0:0:0:
128,256,24080,1,2,0:0:0:0:
216,148,24567,5,0,0:0:0:0:
236,116,24729,2,0,P|272:84|284:80,1,48.750001859665
316,92,25053,2,0,L|384:116|384:116,1,48.750001859665,0|0,0:0|0:0,0:0:0:0:
336,160,25377,2,0,L|396:184|396:184,1,48.750001859665,2|0,0:0|0:0,0:0:0:0:
436,256,25864,2,0,P|424:296|368:320,1,97.50000371933,2|0,0:0|0:0,0:0:0:0:
320,320,26350,2,0,L|260:316,1,48.750001859665,0|2,0:0|0:0,0:0:0:0:
176,244,26837,5,0,0:0:0:0:
152,192,26999,1,2,0:0:0:0:
168,136,27161,1,0,0:0:0:0:
208,88,27323,2,0,P|248:60|320:64,1,104,4|2,0:0|0:0,0:0:0:0:
356,88,27810,1,0,0:0:0:0:
376,236,28134,6,0,L|364:300,1,52,0|0,0:0|0:0,0:0:0:0:
300,208,28459,2,0,L|312:152,1,52,2|0,0:0|0:0,0:0:0:0:
220,180,28783,2,0,L|204:240,1,52,0|0,0:0|0:0,0:0:0:0:
144,148,29107,1,2,0:0:0:0:
128,272,29432,2,0,P|168:304|184:304,1,52,0|0,0:0|0:0,0:0:0:0:
228,300,29756,1,2,0:0:0:0:
256,192,29918,12,0,32026,0:0:0:0:
256,192,32350,12,0,34134,0:0:0:0:
316,300,34459,6,0,P|368:264|372:168,1,156,0|0,0:0|0:0,0:0:0:0:
292,136,35107,6,0,P|248:112|232:88,1,71.5000021820069,4|0,0:0|0:0,0:0:0:0:
146,121,35432,2,0,P|159:174|151:205,1,71.5000021820069,8|0,0:0|0:0,0:0:0:0:
60,168,35756,2,0,P|52:92|112:40,1,143.000004364014,0|8,0:0|0:0,0:0:0:0:
188,52,36242,2,0,P|280:76|336:64,1,143.000004364014,0|0,0:0|0:0,0:0:0:0:
420,80,36729,2,0,P|452:120|452:144,1,71.5000021820069,8|0,0:0|0:0,0:0:0:0:
364,148,37053,1,0,0:0:0:0:
308,212,37215,2,0,P|268:260|264:276,1,71.5000021820069,0|8,0:0|0:0,0:0:0:0:
348,288,37540,5,0,0:0:0:0:
308,212,37702,2,0,P|272:172|232:172,1,71.5000021820069,0|0,0:0|0:0,0:0:0:0:
172,160,38026,1,8,0:0:0:0:
96,200,38188,2,0,P|72:248|72:272,1,71.5000021820069,0|0,0:0|0:0,0:0:0:0:
156,256,38513,2,0,P|220:264|244:280,1,71.5000021820069,0|8,0:0|0:0,0:0:0:0:
308,284,38837,2,0,P|368:228|376:152,1,143.000004364014,8|0,0:0|0:0,0:0:0:0:
292,180,39323,2,0,P|272:88|224:56,1,143.000004364014,8|0,0:0|0:0,0:0:0:0:
200,152,39810,2,0,P|184:192|152:208,1,71.5000021820069,0|8,0:0|0:0,0:0:0:0:
80,236,40134,1,4,0:0:0:0:
140,296,40296,6,0,P|204:308|236:296,1,71.5000021820069,0|0,0:0|0:0,0:0:0:0:
288,260,40621,1,8,0:0:0:0:
336,192,40783,1,0,0:0:0:0:
316,108,40945,2,0,P|272:92|240:100,1,71.5000021820069,0|0,0:0|0:0,0:0:0:0:
270,179,41269,1,8,0:0:0:0:
288,260,41432,2,0,P|226:249|206:231,1,71.5000021820069,0|0,0:0|0:0,0:0:0:0:
152,196,41756,1,0,0:0:0:0:
108,124,41918,1,8,0:0:0:0:
364,104,42405,5,0,0:0:0:0:
396,184,42567,2,0,P|396:236|384:256,1,71.5000021820069,8|0,0:0|0:0,0:0:0:0:
304,284,42891,2,0,P|297:250|306:216,1,71.5000021820069,0|0,0:0|0:0,0:0:0:0:
224,200,43215,1,8,0:0:0:0:
144,224,43377,2,0,P|100:228|64:212,1,71.5000021820069,0|0,0:0|0:0,0:0:0:0:
120,144,43702,2,0,P|88:108|88:80,1,71.5000021820069,0|8,0:0|0:0,0:0:0:0:
172,76,44026,2,0,P|232:44|320:76,1,143.000004364014,0|0,0:0|0:0,0:0:0:0:
364,120,44513,1,8,0:0:0:0:
384,204,44675,1,0,0:0:0:0:
300,224,44837,6,0,P|248:244|224:276,1,71.5000021820069,0|0,0:0|0:0,0:0:0:0:
180,320,45161,1,8,0:0:0:0:
116,264,45323,2,0,P|80:200|128:48,1,214.500006546021,12|8,0:0|0:0,0:0:0:0:
228,220,46134,2,0,P|264:300|340:320,1,143.000004364014,0|8,0:0|0:0,0:0:0:0:
392,296,46621,2,0,P|416:252|408:212,1,71.5000021820069,8|0,0:0|0:0,0:0:0:0:
400,148,46945,1,0,0:0:0:0:
344,84,47107,2,0,P|360:44|400:20,2,71.5000021820069,8|0|0,0:0|0:0|0:0,0:0:0:0:
304,160,47594,1,0,0:0:0:0:
228,196,47756,2,0,P|188:184|164:148,1,71.5000021820069,8|0,0:0|0:0,0:0:0:0:
92,128,48080,6,0,P|88:184|112:224,1,71.5000021820069,0|0,0:0|0:0,0:0:0:0:
144,268,48405,1,8,0:0:0:0:
228,280,48567,2,0,P|280:300|304:324,1,71.5000021820069,0|0,0:0|0:0,0:0:0:0:
252,200,48891,2,0,P|304:204|340:232,1,71.5000021820069,0|8,0:0|0:0,0:0:0:0:
256,112,49215,2,0,P|344:100|412:124,1,143.000004364014,8|0,0:0|0:0,0:0:0:0:
252,200,49702,2,0,P|180:212|92:180,1,143.000004364014,8|0,0:0|0:0,0:0:0:0:
152,116,50188,2,0,P|112:80|108:60,1,71.5000021820069,0|0,0:0|0:0,0:0:0:0:
192,44,50513,5,12,0:0:0:0:
340,132,50837,2,0,P|376:172|380:188,1,71.5000021820069,0|8,0:0|0:0,0:0:0:0:
296,208,51161,1,0,0:0:0:0:
260,284,51323,2,0,P|244:324|248:356,1,71.5000021820069,0|0,0:0|0:0,0:0:0:0:
332,336,51648,1,8,0:0:0:0:
416,324,51810,2,0,P|472:304|484:288,1,71.5000021820069,0|0,0:0|0:0,0:0:0:0:
416,236,52134,1,0,0:0:0:0:
392,152,52296,2,0,P|388:116|412:64,1,71.5000021820069,8|0,0:0|0:0,0:0:0:0:
204,232,52783,5,0,0:0:0:0:
136,180,52945,2,0,P|113:135|117:109,1,71.5000021820069,8|0,0:0|0:0,0:0:0:0:
196,124,53269,1,0,0:0:0:0:
204,232,53432,1,0,0:0:0:0:
296,172,53594,1,8,0:0:0:0:
312,272,53756,1,0,0:0:0:0:
396,212,53918,2,0,P|408:168|384:116,1,71.5000021820069,0|0,0:0|0:0,0:0:0:0:
356,72,54242,1,8,0:0:0:0:
272,56,54405,2,0,P|200:56|132:92,1,143.000004364014,0|8,0:0|0:0,0:0:0:0:
111,168,54891,1,0,0:0:0:0:
107,253,55053,6,0,P|141:246|168:224,1,71.5000021820069,0|8,0:0|0:0,0:0:0:0:
228,162,55377,2,0,L|258:133,4,35.7500010910034,0|0|8|0|4,0:0|0:0|0:0|0:0|0:0,0:0:0:0:
256,192,55864,12,0,60729,0:0:0:0:
136,296,61053,6,0,P|84:324|48:320,1,71.5000021820069,0|0,0:0|0:0,0:0:0:0:
76,244,61377,2,0,P|124:216|144:216,1,71.5000021820069,8|0,0:0|0:0,0:0:0:0:
216,224,61702,2,0,P|280:236|308:228,1,71.5000021820069,0|0,0:0|0:0,0:0:0:0:
364,224,62026,1,8,0:0:0:0:
436,192,62188,6,0,P|453:119|394:48,1,143.000004364014,0|0,0:0|0:0,0:0:0:0:
364,136,62675,1,8,0:0:0:0:
300,44,62837,1,0,0:0:0:0:
220,120,62999,2,0,P|240:180|260:192,1,71.5000021820069,0|0,0:0|0:0,0:0:0:0:
316,216,63323,1,8,0:0:0:0:
364,280,63486,6,0,P|340:320|228:332,1,143.000004364014,0|0,0:0|0:0,0:0:0:0:
172,332,63972,2,0,P|122:306|111:289,1,71.5000021820069,8|0,0:0|0:0,0:0:0:0:
184,244,64296,1,0,0:0:0:0:
292,168,64459,1,0,0:0:0:0:
284,264,64621,1,8,0:0:0:0:
208,164,64783,6,0,P|186:136|208:40,1,143.000004364014,0|0,0:0|0:0,0:0:0:0:
264,100,65269,1,8,0:0:0:0:
328,168,65432,1,0,0:0:0:0:
412,128,65594,1,0,0:0:0:0:
464,52,65756,2,0,L|487:18,4,35.7500010910034,0|0|8|0|4,0:0|0:0|0:0|0:0|0:0,0:0:0:0:
248,144,66405,5,0,0:0:0:0:
176,112,66567,2,0,P|136:104|104:120,1,71.5000021820069,8|0,0:0|0:0,0:0:0:0:
148,184,66891,2,0,P|116:220|116:248,1,71.5000021820069,0|0,0:0|0:0,0:0:0:0:
192,248,67215,1,8,0:0:0:0:
248,304,67377,6,0,P|302:329|384:306,1,143.000004364014,0|0,0:0|0:0,0:0:0:0:
374,218,67864,1,8,0:0:0:0:
282,204,68026,1,0,0:0:0:0:
260,116,68188,2,0,P|308:72|328:72,1,71.5000021820069,0|0,0:0|0:0,0:0:0:0:
388,68,68513,1,8,0:0:0:0:
440,124,68675,6,0,P|456:176|404:268,1,143.000004364014,0|0,0:0|0:0,0:0:0:0:
364,200,69161,2,0,P|343:228|344:264,1,71.5000021820069,8|0,0:0|0:0,0:0:0:0:
384,332,69486,2,0,P|336:344|312:336,1,71.5000021820069,0|0,0:0|0:0,0:0:0:0:
260,284,69810,1,8,0:0:0:0:
248,208,69972,2,0,P|204:120|160:92,1,143.000004364014,0|0,0:0|0:0,0:0:0:0:
88,124,70459,2,0,P|56:142|36:182,1,71.5000021820069,8|0,0:0|0:0,0:0:0:0:
68,251,70783,1,0,0:0:0:0:
151,233,70945,2,0,L|198:212,4,35.7500010910034,0|0|8|0|4,0:0|0:0|0:0|0:0|0:0,0:0:0:0:
304,88,71594,5,0,0:0:0:0:
332,168,71756,2,0,P|368:200|400:208,1,71.5000021820069,8|0,0:0|0:0,0:0:0:0:
416,280,72080,2,0,P|356:316|332:320,1,71.5000021820069,0|0,0:0|0:0,0:0:0:0:
272,332,72405,1,8,0:0:0:0:
188,316,72567,6,0,P|108:264|100:220,1,143.000004364014,0|0,0:0|0:0,0:0:0:0:
32,168,73053,2,0,P|80:136|120:140,1,71.5000021820069,8|0,0:0|0:0,0:0:0:0:
176,140,73377,2,0,P|224:140|248:128,1,71.5000021820069,0|0,0:0|0:0,0:0:0:0:
324,92,73702,1,8,0:0:0:0:
328,172,73864,6,0,P|292:248|228:272,1,143.000004364014,0|0,0:0|0:0,0:0:0:0:
200,204,74350,1,8,0:0:0:0:
140,288,74513,1,0,0:0:0:0:
200,204,74675,2,0,P|216:152|200:120,1,71.5000021820069,0|0,0:0|0:0,0:0:0:0:
208,60,74999,1,8,0:0:0:0:
280,96,75161,6,0,P|376:112|420:96,1,143.000004364014,0|0,0:0|0:0,0:0:0:0:
460,164,75648,1,8,0:0:0:0:
453,256,75810,1,0,0:0:0:0:
371,211,75972,1,8,0:0:0:0:
361,303,76134,2,0,L|359:344,4,35.7500010910034,0|0|8|0|4,0:0|0:0|0:0|0:0|0:0,0:0:0:0:
188,148,86513,5,0,0:0:0:0:
240,96,86675,2,0,P|264:72|308:68,1,61.7499983510972,0|0,0:0|0:0,0:0:0:0:
300,140,86999,2,0,P|280:200|300:260,1,123.499996702194,2|8,0:0|0:0,0:0:0:0:
344,312,87486,1,2,0:0:0:0:
200,276,87810,6,0,P|140:268|120:252,1,61.7499983510972,0|0,0:0|0:0,0:0:0:0:
180,204,88134,2,0,P|140:172|136:160,1,61.7499983510972,2|0,0:0|0:0,0:0:0:0:
67,131,88459,2,0,P|120:90|134:88,1,61.7499983510972,0|8,0:0|0:0,0:0:0:0:
188,90,88783,2,0,P|256:106|320:78,1,123.499996702194,0|0,0:0|0:0,0:0:0:0:
360,141,89269,6,0,P|352:185|364:209,1,61.7499983510972,0|0,0:0|0:0,0:0:0:0:
264,276,89756,1,0,0:0:0:0:
264,276,89918,2,0,P|248:324|228:340,1,61.7499983510972,8|2,0:0|0:0,0:0:0:0:
108,232,90405,1,0,0:0:0:0:
72,212,90729,1,0,0:0:0:0:
272,88,91702,5,0,0:0:0:0:
200,72,91864,2,0,P|164:64|132:76,1,61.7499983510972,0|0,0:0|0:0,0:0:0:0:
172,140,92188,2,0,P|140:160|132:248,1,123.499996702194,2|8,0:0|0:0,0:0:0:0:
180,292,92675,1,0,0:0:0:0:
308,216,92999,2,0,P|264:188|256:172,1,61.7499983510972,2|0,0:0|0:0,0:0:0:0:
324,144,93323,2,0,B|398:132|378:195|459:165,1,123.499996702194,0|0,0:0|0:0,0:0:0:0:
424,250,93810,1,10,0:0:0:0:
360,296,93972,2,0,P|260:280|208:200,1,185.249995053291,0|2,0:0|0:0,0:0:0:0:
272,172,94621,5,0,0:0:0:0:
208,136,94783,2,0,P|256:100|280:100,1,61.7499983510972,0|0,0:0|0:0,0:0:0:0:
328,108,95107,1,10,0:0:0:0:
400,124,95269,2,0,P|444:116|464:100,2,61.7499983510972,0|0|0,0:0|0:0|0:0,0:0:0:0:
328,108,95756,1,0,0:0:0:0:
256,88,95918,2,0,P|156:72|76:108,1,185.249995053291,2|8,0:0|0:0,0:0:0:0:
100,176,96567,6,0,L|128:240,1,61.7499983510972,2|10,0:0|0:0,0:0:0:0:
196,216,96891,2,0,L|228:272,1,61.7499983510972,2|10,0:0|0:0,0:0:0:0:
292,236,97215,6,0,P|340:272|360:268,1,61.7499983510972,12|0,0:0|0:0,0:0:0:0:
408,232,97540,1,0,0:0:0:0:
440,160,97702,1,8,0:0:0:0:
360,160,97864,2,0,P|272:136|244:104,1,123.499996702194,2|0,0:0|0:0,0:0:0:0:
204,48,98350,1,8,0:0:0:0:
160,116,98513,2,0,P|140:188|168:252,1,123.499996702194,2|0,0:0|0:0,0:0:0:0:
152,312,98999,2,0,P|100:296|84:272,2,61.7499983510972,8|0|0,0:0|0:0|0:0,0:0:0:0:
228,288,99486,2,0,P|248:248|236:212,1,61.7499983510972,0|8,0:0|0:0,0:0:0:0:
236,152,99810,6,0,P|244:104|268:84,2,61.7499983510972,0|0|0,0:0|0:0|0:0,0:0:0:0:
316,144,100296,1,8,0:0:0:0:
384,188,100459,2,0,P|408:240|400:264,1,61.7499983510972,0|0,0:0|0:0,0:0:0:0:
328,244,100783,2,0,P|324:292|316:304,1,61.7499983510972,0|8,0:0|0:0,0:0:0:0:
252,256,101107,2,0,P|164:312|144:312,1,123.499996702194,2|0,0:0|0:0,0:0:0:0:
74,319,101594,5,8,0:0:0:0:
101,250,101756,2,0,P|113:202|101:166,1,61.7499983510972,2|0,0:0|0:0,0:0:0:0:
35,204,102080,1,0,0:0:0:0:
65,129,102242,1,8,0:0:0:0:
141,104,102405,2,0,P|209:88|332:114,1,185.249995053291,2|8,0:0|0:0,0:0:0:0:
395,138,103053,6,0,P|435:170|447:198,2,61.7499983510972,0|0|0,0:0|0:0|0:0,0:0:0:0:
371,215,103540,1,8,0:0:0:0:
321,278,103702,2,0,P|245:302|121:262,1,185.249995053291,2|8,0:0|0:0,0:0:0:0:
88,220,104350,1,0,0:0:0:0:
48,149,104513,2,0,P|69:92|87:83,1,61.7499983510972,0|0,0:0|0:0,0:0:0:0:
128,146,104837,1,8,0:0:0:0:
194,191,104999,6,0,P|254:219|330:195,1,123.499996702194,2|0,0:0|0:0,0:0:0:0:
387,198,105486,1,8,0:0:0:0:
358,273,105648,2,0,P|274:333|234:329,1,123.499996702194,2|0,0:0|0:0,0:0:0:0:
179,317,106134,1,8,0:0:0:0:
200,240,106296,2,0,P|288:188|328:192,1,123.499996702194,2|0,0:0|0:0,0:0:0:0:
387,197,106783,1,8,0:0:0:0:
349,126,106945,2,0,P|330:58|375:6,1,123.499996702194,2|0,0:0|0:0,0:0:0:0:
413,73,107432,1,8,0:0:0:0:
460,137,107594,6,0,P|465:237|448:265,1,123.499996702194,6|0,0:0|0:0,0:0:0:0:
406,317,108080,1,8,0:0:0:0:
328,344,108242,1,0,0:0:0:0:
248,352,108405,2,0,P|268:296|284:284,1,61.7499983510972,2|0,0:0|0:0,0:0:0:0:
312,228,108729,1,8,0:0:0:0:
248,180,108891,2,0,P|176:180|128:128,1,123.499996702194,2|0,0:0|0:0,0:0:0:0:
94,81,109377,1,10,0:0:0:0:
76,54,109702,1,8,0:0:0:0:
88,276,110188,5,0,0:0:0:0:
160,312,110350,2,0,P|228:316|244:308,1,61.7499983510972,0|0,0:0|0:0,0:0:0:0:
240,240,110675,1,8,0:0:0:0:
296,296,110837,2,0,P|336:268|348:240,1,61.7499983510972,2|0,0:0|0:0,0:0:0:0:
400,196,111161,1,0,0:0:0:0:
320,180,111323,1,8,0:0:0:0:
376,120,111486,2,0,P|344:100|296:104,1,61.7499983510972,2|0,0:0|0:0,0:0:0:0:
240,104,111810,2,0,P|184:108|168:100,1,61.7499983510972,0|8,0:0|0:0,0:0:0:0:
136,40,112134,2,0,P|100:92|124:168,1,123.499996702194,2|0,0:0|0:0,0:0:0:0:
144,220,112621,5,8,0:0:0:0:
188,288,112783,2,0,P|280:320|312:308,1,123.499996702194,10|0,0:0|0:0,0:0:0:0:
372,276,113269,2,0,L|428:236,1,61.7499983510972,8|0,0:0|0:0,0:0:0:0:
368,180,113594,2,0,L|312:220,1,61.7499983510972,0|0,0:0|0:0,0:0:0:0:
236,216,113918,1,8,0:0:0:0:
156,204,114080,2,0,P|116:144|120:84,1,123.499996702194,2|0,0:0|0:0,0:0:0:0:
180,45,114567,1,8,0:0:0:0:
208,30,114891,1,8,0:0:0:0:
160,264,115377,6,0,P|120:216|120:212,1,61.7499983510972,2|8,0:0|0:0,0:0:0:0:
264,152,115864,2,0,P|304:184|308:212,1,61.7499983510972,2|8,0:0|0:0,0:0:0:0:
164,120,116350,2,0,P|192:76|224:68,1,61.7499983510972,2|8,0:0|0:0,0:0:0:0:
276,52,116675,1,0,0:0:0:0:
276,52,116999,1,2,0:0:0:0:
380,176,117323,1,10,0:0:0:0:
228,224,117648,2,0,L|172:240,6,30.8749991755486,0|0|8|0|0|0|4,0:0|0:0|0:0|0:0|0:0|0:0|0:0,0:0:0:0:
320,136,119107,5,0,0:0:0:0:
320,136,119269,2,0,B|265:99|265:99|201:159|125:102|125:102,1,211.249990329743,0|0,0:0|0:0,0:0:0:0:
292,268,120567,5,0,0:0:0:0:
292,268,120729,2,0,B|248:284|248:284|208:264|208:264|192:256|120:292|92:240|76:196,1,253.499988395691,2|0,0:0|0:0,0:0:0:0:
161,184,121864,2,0,B|255:147|247:37|247:37|316:76|316:76,1,253.499988395691,2|0,0:0|0:0,0:0:0:0:
307,70,123161,1,4,0:0:0:0:
392,112,123323,5,2,0:0:0:0:
392,112,123648,1,8,0:0:0:0:
392,112,123972,1,0,0:0:0:0:
420,212,124296,2,0,P|372:220|352:212,1,48.750001859665,0|0,0:0|0:0,0:0:0:0:
300,200,124621,1,2,0:0:0:0:
300,200,124945,1,8,0:0:0:0:
300,200,125269,1,0,0:0:0:0:
219,184,125432,6,0,P|190:183|164:192,1,55.2500010538101,0|0,0:0|0:0,0:0:0:0:
93,217,125756,1,0,0:0:0:0:
256,192,125918,12,0,128026,0:0:0:0:
256,192,128350,12,8,130134,0:0:0:0:
456,196,130621,5,0,0:0:0:0:
380,220,130783,2,0,P|344:236|320:264,1,65,8|0,0:0|0:0,0:0:0:0:
300,284,131026,1,0,0:0:0:0:
268,312,131107,6,0,P|168:332|116:300,1,143.000004364014,4|8,0:0|0:0,0:0:0:0:
76,252,131594,1,0,0:0:0:0:
128,184,131756,2,0,P|120:132|100:112,1,71.5000021820069,0|0,0:0|0:0,0:0:0:0:
44,176,132080,1,8,0:0:0:0:
76,252,132242,6,0,P|144:268|208:212,1,143.000004364014,8|0,0:0|0:0,0:0:0:0:
236,148,132729,2,0,L|256:68,1,71.5000021820069,8|0,0:0|0:0,0:0:0:0:
320,132,133053,2,0,L|300:204,1,71.5000021820069,0|0,0:0|0:0,0:0:0:0:
316,284,133377,1,8,0:0:0:0:
388,236,133540,6,0,P|420:156|412:96,1,143.000004364014,8|0,0:0|0:0,0:0:0:0:
340,44,134026,1,8,0:0:0:0:
248,64,134188,1,0,0:0:0:0:
184,140,134350,2,0,P|156:184|156:212,1,71.5000021820069,0|0,0:0|0:0,0:0:0:0:
205,280,134675,1,8,0:0:0:0:
300,284,134837,6,0,P|360:236|380:164,1,143.000004364014,8|0,0:0|0:0,0:0:0:0:
352,92,135323,1,8,0:0:0:0:
264,88,135486,2,0,P|220:104|200:124,2,71.5000021820069,0|0|0,0:0|0:0|0:0,0:0:0:0:
269,173,135972,1,8,0:0:0:0:
203,121,136134,6,0,P|155:109|119:121,1,71.5000021820069,4|0,0:0|0:0,0:0:0:0:
72,172,136459,2,0,P|84:216|68:252,1,71.5000021820069,0|8,0:0|0:0,0:0:0:0:
64,324,136783,2,0,P|108:340|152:324,1,71.5000021820069,0|0,0:0|0:0,0:0:0:0:
197,282,137107,1,0,0:0:0:0:
216,196,137269,2,0,P|245:208|273:239,2,71.5000021820069,8|0|0,0:0|0:0|0:0,0:0:0:0:
140,160,137756,2,0,P|96:132|84:116,1,71.5000021820069,0|8,0:0|0:0,0:0:0:0:
160,80,138080,6,0,P|200:68|232:40,1,71.5000021820069,0|0,0:0|0:0,0:0:0:0:
304,80,138405,1,0,0:0:0:0:
372,132,138567,1,8,0:0:0:0:
420,204,138729,2,0,P|416:264|340:312,1,143.000004364014,8|0,0:0|0:0,0:0:0:0:
340,228,139215,2,0,P|292:248|276:288,1,71.5000021820069,8|0,0:0|0:0,0:0:0:0:
224,328,139540,2,0,P|136:352|92:324,1,143.000004364014,8|8,0:0|0:0,0:0:0:0:
160,272,140026,2,0,P|96:204|96:160,1,143.000004364014,8|0,0:0|0:0,0:0:0:0:
41,92,140513,2,0,P|97:73|134:87,1,71.5000021820069,8|0,0:0|0:0,0:0:0:0:
192,152,140837,5,0,0:0:0:0:
220,48,140999,1,0,0:0:0:0:
288,136,141161,1,8,0:0:0:0:
332,44,141323,6,0,P|444:57|452:169,1,214.500006546021,4|8,0:0|0:0,0:0:0:0:
380,120,141972,1,0,0:0:0:0:
468,227,142134,2,0,P|431:223|402:200,1,71.5000021820069,0|0,0:0|0:0,0:0:0:0:
322,172,142459,1,8,0:0:0:0:
252,120,142621,6,0,P|180:84|72:144,1,214.500006546021,8|8,0:0|0:0,0:0:0:0:
60,228,143269,1,0,0:0:0:0:
144,244,143432,2,0,P|192:264|212:288,1,71.5000021820069,0|0,0:0|0:0,0:0:0:0:
136,332,143756,1,8,0:0:0:0:
216,360,143918,6,0,P|312:348|380:244,1,214.500006546021,8|8,0:0|0:0,0:0:0:0:
400,176,144567,1,0,0:0:0:0:
336,120,144729,2,0,P|316:149|314:184,1,71.5000021820069,0|0,0:0|0:0,0:0:0:0:
296,268,145053,1,8,0:0:0:0:
228,320,145215,6,0,B|188:324|164:288|164:288|108:308|76:276,1,143.000004364014,8|0,0:0|0:0,0:0:0:0:
48,220,145702,2,0,P|44:160|65:130,1,71.5000021820069,8|0,0:0|0:0,0:0:0:0:
128,184,146026,2,0,P|172:152|196:148,1,71.5000021820069,0|0,0:0|0:0,0:0:0:0:
272,176,146350,1,8,0:0:0:0:
272,176,146432,1,0,0:0:0:0:
272,176,146513,6,0,P|336:192|364:184,1,71.5000021820069,12|0,0:0|0:0,0:0:0:0:
392,124,146837,2,0,P|424:168|416:208,1,71.5000021820069,0|8,0:0|0:0,0:0:0:0:
412,264,147161,1,0,0:0:0:0:
328,268,147323,2,0,P|288:276|256:300,1,71.5000021820069,0|0,0:0|0:0,0:0:0:0:
188,332,147648,1,8,0:0:0:0:
112,296,147810,2,0,P|100:208|148:148,1,143.000004364014,8|0,0:0|0:0,0:0:0:0:
196,116,148296,1,8,0:0:0:0:
276,148,148459,6,0,P|320:160|356:152,2,71.5000021820069,0|0|0,0:0|0:0|0:0,0:0:0:0:
320,76,148945,1,8,0:0:0:0:
404,96,149107,2,0,P|432:156|424:180,1,71.5000021820069,0|0,0:0|0:0,0:0:0:0:
384,232,149432,1,0,0:0:0:0:
308,268,149594,2,0,P|260:304|248:332,1,71.5000021820069,8|0,0:0|0:0,0:0:0:0:
184,364,149918,2,0,P|168:320|172:288,1,71.5000021820069,0|0,0:0|0:0,0:0:0:0:
212,220,150242,1,0,0:0:0:0:
288,180,150405,6,0,P|352:136|352:60,1,143.000004364014,8|8,0:0|0:0,0:0:0:0:
276,96,150891,2,0,P|208:92|192:100,1,71.5000021820069,0|8,0:0|0:0,0:0:0:0:
124,116,151215,1,8,0:0:0:0:
44,92,151377,2,0,L|24:52,4,35.7500010910034,0|0|8|0|4,0:0|0:0|0:0|0:0|0:0,0:0:0:0:
256,192,151864,12,0,156729,0:0:0:0:
240,124,157053,6,0,P|200:100|168:108,1,65,0|0,0:0|0:0,0:0:0:0:
188,180,157377,2,0,P|236:200|272:196,1,65,8|0,0:0|0:0,0:0:0:0:
316,164,157702,1,0,0:0:0:0:
388,132,157864,1,0,0:0:0:0:
384,208,158026,1,8,0:0:0:0:
336,268,158188,2,0,P|276:296|200:284,1,130,0|0,0:0|0:0,0:0:0:0:
140,320,158675,2,0,P|136:264|152:248,1,65,8|0,0:0|0:0,0:0:0:0:
80,212,158999,2,0,P|120:184|160:192,1,65,0|0,0:0|0:0,0:0:0:0:
208,204,159323,5,8,0:0:0:0:
280,236,159486,2,0,P|372:220|416:176,1,130,0|0,0:0|0:0,0:0:0:0:
440,132,159972,1,8,0:0:0:0:
472,60,160134,1,0,0:0:0:0:
440,132,160296,2,0,P|376:120|364:104,1,65,0|0,0:0|0:0,0:0:0:0:
320,68,160621,1,8,0:0:0:0:
252,104,160783,6,0,P|176:132|128:116,1,130,0|0,0:0|0:0,0:0:0:0:
80,60,161269,1,8,0:0:0:0:
131,118,161432,2,0,P|127:178|115:194,1,65,0|0,0:0|0:0,0:0:0:0:
72,236,161756,2,0,L|88:280,3,32.5,0|0|8|0,0:0|0:0|0:0|0:0,0:0:0:0:
96,276,162080,6,0,P|156:292|228:276,1,130,4|0,0:0|0:0,0:0:0:0:
272,220,162567,2,0,P|304:184|336:176,1,65,8|0,0:0|0:0,0:0:0:0:
396,180,162891,2,0,P|440:152|448:136,1,65,0|0,0:0|0:0,0:0:0:0:
380,104,163215,1,8,0:0:0:0:
308,72,163377,6,0,P|212:56|176:72,1,130,0|0,0:0|0:0,0:0:0:0:
120,112,163864,1,8,0:0:0:0:
188,152,164026,1,0,0:0:0:0:
224,220,164188,2,0,P|182:277|165:280,1,65,0|0,0:0|0:0,0:0:0:0:
140,215,164513,1,8,0:0:0:0:
188,152,164675,6,0,P|276:164|300:216,1,130,0|0,0:0|0:0,0:0:0:0:
336,260,165161,2,0,P|388:280|420:268,1,65,8|0,0:0|0:0,0:0:0:0:
388,200,165486,1,0,0:0:0:0:
368,124,165648,1,0,0:0:0:0:
296,92,165810,1,8,0:0:0:0:
240,148,165972,6,0,P|160:184|100:180,1,130,0|0,0:0|0:0,0:0:0:0:
108,108,166459,2,0,P|92:72|64:52,1,65,8|0,0:0|0:0,0:0:0:0:
32,124,166783,1,0,0:0:0:0:
44,200,166944,1,0,0:0:0:0:
88,268,167107,2,0,L|116:288,2,32.5,8|0|4,0:0|0:0|0:0,0:0:0:0:
200,160,167594,5,0,0:0:0:0:
236,92,167756,2,0,P|284:56|312:56,1,65,8|0,0:0|0:0,0:0:0:0:
304,132,168080,2,0,P|360:132|380:152,1,65,0|0,0:0|0:0,0:0:0:0:
328,204,168405,1,8,0:0:0:0:
288,272,168567,6,0,P|188:304|100:260,1,195,8|8,0:0|0:0,0:0:0:0:
72,200,169215,1,0,0:0:0:0:
148,200,169377,2,0,P|204:192|224:172,1,65,0|0,0:0|0:0,0:0:0:0:
260,128,169702,1,8,0:0:0:0:
324,84,169864,6,0,P|432:76|496:144,1,195,8|8,0:0|0:0,0:0:0:0:
488,208,170513,1,0,0:0:0:0:
472,284,170675,2,0,P|408:320|400:320,1,65,0|0,0:0|0:0,0:0:0:0:
404,240,170999,1,8,0:0:0:0:
348,184,171161,6,0,P|252:144|140:176,1,195,8|8,0:0|0:0,0:0:0:0:
108,212,171810,1,0,0:0:0:0:
83,138,171971,1,0,0:0:0:0:
114,70,172134,2,0,L|148:41,4,32.5,0|0|0|0|4,0:0|0:0|0:0|0:0|0:0,0:0:0:0:
