osu file format v14

[General]
AudioFilename: Night Sky Patrol of Tomorrow.mp3
AudioLeadIn: 700
PreviewTime: 34296
Countdown: 0
SampleSet: Soft
StackLeniency: 0.7
Mode: 0
LetterboxInBreaks: 0
EpilepsyWarning: 1
WidescreenStoryboard: 1

[Editor]
DistanceSpacing: 1.2
BeatDivisor: 2
GridSize: 4
TimelineZoom: 1.2

[Metadata]
Title:Asu no Yozora Shoukaihan
TitleUnicode:アスノヨゾラ哨戒班
Artist:Orangestar
ArtistUnicode:Orangestar
Creator:Gelbana
Version:Easy
Source:
Tags:ia -ARIA ON THE PLANETES- vocaloid m.b. tsumetaku crn caren_sk iyasine
BeatmapID:565571
BeatmapSetID:219728

[Difficulty]
HPDrainRate:2
CircleSize:3
OverallDifficulty:2.5
ApproachRate:2
SliderMultiplier:0.700000005960464
SliderTickRate:1

[Events]
//Background and Video events
0,0,"bgnorm.jpg",0,0
//Break Periods
2,76820,85439
2,118333,124357
//Storyboard Layer 0 (Background)
//Storyboard Layer 1 (Fail)
//Storyboard Layer 2 (Pass)
//Storyboard Layer 3 (Foreground)
//Storyboard Sound Samples

[TimingPoints]
1378,324.324324324324,4,2,1,45,1,0
1378,-100,4,2,1,45,0,0
11756,-100,4,2,1,60,0,0
22134,-100,4,2,1,50,0,0
27323,-100,4,2,1,65,0,0
35107,-100,4,2,1,80,0,1
60891,-100,4,2,1,70,0,0
76459,324.324324324324,4,2,1,45,1,0
76459,-100,4,2,1,45,0,0
86999,324.324324324324,4,2,1,60,1,0
86999,-100,4,2,1,60,0,0
118134,-100,4,2,1,50,0,0
123323,-100,4,2,1,65,0,0
131107,-100,4,2,1,80,0,1
156890,-100,4,2,1,70,0,0

[Colours]
Combo1 : 186,105,239
Combo2 : 75,55,253
Combo3 : 117,35,226
Combo4 : 106,171,223

[HitObjects]
56,228,1378,6,0,P|120:268|192:268,1,140.000001192093,2|0,0:0|0:0,0:0:0:0:
266,273,2350,2,0,P|245:327|206:352,2,105.00000089407,2|0|2,0:0|0:0|0:0,0:0:0:0:
284,192,3648,1,0,0:0:0:0:
364,220,3972,6,0,B|376:152|320:116|320:116|320:84,1,140,2|0,0:0|0:0,0:0:0:0:
236,84,4945,1,0,0:0:0:0:
152,96,5269,2,0,B|88:128|88:128|56:216,2,140,2|0|2,0:0|0:0|0:0,0:0:0:0:
208,156,6891,6,0,L|268:212,1,70.0000005960464
318,264,7540,2,0,P|290:284|256:288,1,70,0|2,0:0|0:0,0:0:0:0:
172,272,8188,1,0,0:0:0:0:
88,284,8513,6,0,B|84:224|136:196|136:196|96:152|132:76,2,210,2|2|2,0:0|0:0|0:0,0:0:0:0:
172,272,10783,1,0,0:0:0:0:
224,208,11107,2,0,L|272:148,1,70,2|0,0:0|0:0,0:0:0:0:
316,84,11756,5,6,0:0:0:0:
384,132,12080,1,0,0:0:0:0:
416,212,12405,2,0,P|416:252|392:292,1,70
332,232,13053,2,0,P|272:240|192:284,1,140,2|0,0:0|0:0,0:0:0:0:
148,340,14026,1,0,0:0:0:0:
100,272,14350,6,0,P|88:184|108:120,1,140,2|0,0:0|0:0,0:0:0:0:
176,96,15323,1,0,0:0:0:0:
260,80,15648,2,0,B|296:72|328:88|328:88|368:80|408:108,1,140,2|0,0:0|0:0,0:0:0:0:
456,156,16621,1,0,0:0:0:0:
448,240,16945,6,0,P|424:292|372:320,2,105,2|0|2,0:0|0:0|0:0,0:0:0:0:
364,232,18242,2,0,P|295:239|232:211,1,140,2|0,0:0|0:0,0:0:0:0:
156,172,19215,6,0,L|76:123,1,70.0000005960464,2|0,0:0|0:0,0:0:0:0:
136,60,19864,2,0,L|216:108,1,70,2|0,0:0|0:0,0:0:0:0:
272,128,20513,1,0,0:0:0:0:
355,119,20837,2,0,P|408:90|425:42,2,105.00000089407,0|0|0,0:0|0:0|0:0,0:0:0:0:
343,35,22134,5,2,0:0:0:0:
115,198,23432,1,2,0:0:0:0:
356,338,24729,1,2,0:0:0:0:
441,71,26026,1,2,0:0:0:0:
170,143,27323,6,0,P|102:195|87:266,1,140.000001192093,6|0,0:0|0:0,0:0:0:0:
103,326,28296,1,0,0:0:0:0:
184,300,28621,2,0,B|252:282|252:282|320:295|320:295|390:277,1,210.000001788139,2|2,0:0|0:0,0:0:0:0:
256,192,29918,12,0,33648,0:0:0:0:
144,248,35107,6,0,P|152:288|176:320,1,70.0000005960464,4|8,0:0|0:0,0:0:0:0:
232,252,35756,2,0,B|304:256|304:256|372:224,2,140.000001192093,2|0|2,0:0|0:0|0:0,0:0:0:0:
160,212,37377,1,8,0:0:0:0:
80,182,37702,6,0,P|115:139|208:142,1,140.000001192093,2|0,0:0|0:0,0:0:0:0:
277,150,38675,1,8,0:0:0:0:
305,70,38999,2,0,B|353:90|360:139|360:139|421:110,2,140.000001192093,2|2|0,0:0|0:0|0:0,0:0:0:0:
220,64,40621,1,8,0:0:0:0:
192,144,40945,6,0,P|136:88|144:28,2,140.000001192093,2|2|2,0:0|0:0|0:0,0:0:0:0:
273,163,42567,1,8,0:0:0:0:
292,244,42891,2,0,P|316:292|376:316,2,105.00000089407,2|2|8,0:0|0:0|0:0,0:0:0:0:
376,232,44188,2,0,L|428:172,1,70.0000005960464,2|8,0:0|0:0,0:0:0:0:
388,100,44837,2,0,L|288:100,1,70.0000005960464,2|8,0:0|0:0,0:0:0:0:
244,140,45486,6,0,B|216:236|120:188|88:272,2,210.000001788139,2|8|2,0:0|0:0|0:0,0:0:0:0:
164,120,47756,2,0,P|96:84|88:72,2,70.0000005960464,8|2|8,0:0|0:0|0:0,0:0:0:0:
228,64,48729,2,0,P|300:84|312:96,1,70.0000005960464,2|8,0:0|0:0,0:0:0:0:
370,114,49377,2,0,P|412:224|372:304,1,210.000001788139,2|8,0:0|0:0,0:0:0:0:
326,370,50675,6,0,B|283:340|291:290|291:290|232:250,2,140.000001192093,0|2|0,0:0|0:0|0:0,0:0:0:0:
375,302,52296,1,10,0:0:0:0:
457,155,52945,2,0,P|450:87|397:44,2,140.000001192093,10|10|10,0:0|0:0|0:0,0:0:0:0:
368,131,54567,2,0,P|334:123|307:101,1,70.0000005960464,0|10,0:0|0:0,0:0:0:0:
252,36,55215,1,4,0:0:0:0:
256,192,55702,12,0,59594,0:0:0:0:
160,132,61053,6,0,P|128:200|128:216,2,70.0000005960464,0|10|0,0:0|0:0|0:0,0:0:0:0:
224,80,62026,1,8,0:0:0:0:
276,144,62350,6,0,P|336:192|472:196,1,210.000001788139,2|8,0:0|0:0,0:0:0:0:
452,284,63648,2,0,B|384:292|328:274|328:274|227:317,1,210.000001788139,2|8,0:0|0:0,0:0:0:0:
188,364,64945,2,0,P|168:288|204:236,1,140.000001192093,2|0,0:0|0:0,0:0:0:0:
272,200,65918,1,8,0:0:0:0:
348,168,66242,6,0,P|384:128|392:92,1,70.0000005960464,2|8,0:0|0:0,0:0:0:0:
308,92,66891,2,0,L|232:108,1,70.0000005960464,2|8,0:0|0:0,0:0:0:0:
192,36,67540,2,0,B|112:92|204:168|68:208,1,210.000001788139,2|8,0:0|0:0,0:0:0:0:
88,288,68837,2,0,B|156:276|200:224|200:224|208:280|256:296,1,210.000001788139,2|8,0:0|0:0,0:0:0:0:
284,216,70134,2,0,P|321:150|294:80,1,140.000001192093,2|0,0:0|0:0,0:0:0:0:
236,144,71107,1,8,0:0:0:0:
156,172,71432,6,0,L|68:204,1,70.0000005960464,2|8,0:0|0:0,0:0:0:0:
140,268,72080,2,0,L|103:340,1,70.0000005960464,2|8,0:0|0:0,0:0:0:0:
189,350,72729,2,0,B|299:314|299:314|347:345|394:317,1,210.000001788139,2|8,0:0|0:0,0:0:0:0:
350,244,74026,2,0,B|378:228|418:240|418:240|436:168|356:112,1,210.000001788139,2|8,0:0|0:0,0:0:0:0:
288,88,75323,2,0,B|225:59|220:109|140:61,2,140.000001192093,2|8|0,0:0|0:0|0:0,0:0:0:0:
392,220,86999,6,0,P|356:264|272:280,1,140.000001192093,2|0,0:0|0:0,0:0:0:0:
140,184,88296,2,0,P|80:152|56:160,2,70.0000005960464,2|8|2,0:0|0:0|0:0,0:0:0:0:
272,80,89593,2,0,P|344:72|396:128,1,140.000001192093,2|0,0:0|0:0,0:0:0:0:
316,152,90566,2,0,L|292:232,1,70.0000005960464,0|2,0:0|0:0,0:0:0:0:
120,232,91863,5,0,0:0:0:0:
184,284,92188,2,0,P|264:304|280:300,1,70.0000005960464,2|8,0:0|0:0,0:0:0:0:
240,220,92836,2,0,B|232:160|172:124|172:124|284:76,1,210.000001788139,2|8,0:0|0:0,0:0:0:0:
332,60,94134,1,2,0:0:0:0:
380,220,94782,6,0,P|404:276|428:288,1,70.0000005960464,2|8,0:0|0:0,0:0:0:0:
464,216,95431,2,0,P|444:164|424:148,1,70.0000005960464,2|0,0:0|0:0,0:0:0:0:
352,136,96080,1,2,0:0:0:0:
200,208,96728,6,0,P|128:252|76:252,2,105.00000089407,0|6|8,0:0|0:0|0:0,0:0:0:0:
260,148,98026,2,0,B|312:116|312:116|328:168|376:176,1,140.000001192093,2|2,0:0|0:0,0:0:0:0:
396,96,98998,1,8,0:0:0:0:
340,36,99323,6,0,B|312:16|272:40|272:40|204:80,1,140.000001192093,2|0,0:0|0:0,0:0:0:0:
144,120,100296,1,8,0:0:0:0:
92,184,100620,2,0,B|124:292|224:216|248:324,1,210.000001788139,2|8,0:0|0:0,0:0:0:0:
320,272,101917,2,0,B|270:189|388:176|346:78,1,210.000001788139,2|8,0:0|0:0,0:0:0:0:
272,116,103215,6,0,P|224:148|152:128,2,105.00000089407,0|2|8,0:0|0:0|0:0,0:0:0:0:
206,63,104512,2,0,P|138:67|106:193,1,210.000001788139,2|8,0:0|0:0,0:0:0:0:
163,244,105809,2,0,P|207:272|219:312,1,70.0000005960464,2|8,0:0|0:0,0:0:0:0:
290,322,106458,2,0,P|294:266|267:218,2,105.00000089407,2|0|10,0:0|0:0|0:0,0:0:0:0:
371,341,107755,6,0,B|411:289|403:241|403:241|471:233|483:177,1,210.000001788139,0|8,0:0|0:0,0:0:0:0:
403,151,109053,2,0,P|399:99|415:59,2,70.0000005960464,0|10|10,0:0|0:0|0:0,0:0:0:0:
237,123,110350,6,0,L|165:103,1,70.0000005960464,2|8,0:0|0:0,0:0:0:0:
120,172,110998,2,0,L|156:264,1,70.0000005960464,2|8,0:0|0:0,0:0:0:0:
228,248,111647,2,0,P|328:212|348:184,1,140.000001192093,2|0,0:0|0:0,0:0:0:0:
228,72,112944,6,0,P|276:76|296:88,1,70.0000005960464,2|8,0:0|0:0,0:0:0:0:
376,72,113593,2,0,P|372:124|344:152,1,70.0000005960464,2|8,0:0|0:0,0:0:0:0:
328,212,114242,2,0,P|348:276|368:288,2,70.0000005960464,0|10|10,0:0|0:0|0:0,0:0:0:0:
160,236,115539,6,0,L|88:266,1,70.0000005960464,2|8,0:0|0:0,0:0:0:0:
64,188,116188,2,0,B|128:160|128:160|144:120|120:60,2,140.000001192093,2|0|2,0:0|0:0|0:0,0:0:0:0:
96,268,117809,2,0,L|136:332,1,70.0000005960464,2|4,0:0|0:0,0:0:0:0:
256,192,125917,12,0,129647,0:0:0:0:
111,119,131107,6,0,P|123:183|91:243,2,105.00000089407,6|0|8,0:0|0:0|0:0,0:0:0:0:
139,39,132404,2,0,B|195:79|202:155|202:155|250:191|296:150,1,210.000001788139,2|8,0:0|0:0,0:0:0:0:
355,167,133701,2,0,B|350:236|286:252|286:252|384:308,1,210.000001788139,2|8,0:0|0:0,0:0:0:0:
309,360,134998,2,0,L|234:319,1,70.0000005960464,2|8,0:0|0:0,0:0:0:0:
182,273,135647,2,0,L|175:189,1,70.0000005960464,2|8,0:0|0:0,0:0:0:0:
164,119,136296,6,0,P|122:76|27:34,2,140.000001192093,2|2|2,0:0|0:0|0:0,0:0:0:0:
247,126,137917,2,0,P|326:87|337:77,1,70.0000005960464,8|0,0:0|0:0,0:0:0:0:
386,61,138566,1,8,0:0:0:0:
435,128,138890,6,0,P|471:198|436:268,1,140.000001192093,2|0,0:0|0:0,0:0:0:0:
386,199,139863,1,8,0:0:0:0:
334,132,140188,2,0,B|323:104|287:81|287:81|269:127|212:146,1,140.000001192093,2|0,0:0|0:0,0:0:0:0:
181,192,141161,1,8,0:0:0:0:
114,243,141485,6,0,B|81:273|88:325|88:325|162:315|239:339|239:339,1,210.000001788139,2|8,0:0|0:0,0:0:0:0:
291,338,142782,2,0,B|351:354|385:310|385:310|463:320|492:253,1,210.000001788139,2|8,0:0|0:0,0:0:0:0:
410,226,144080,2,0,B|353:177|360:98|360:98|292:116,1,210.000001788139,2|8,0:0|0:0,0:0:0:0:
213,92,145377,2,0,P|260:39|285:33,2,70.0000005960464,2|8|0,0:0|0:0|0:0,2:0:0:0:
184,171,146350,1,8,0:0:0:0:
177,254,146674,6,0,L|200:325,1,70.0000005960464,2|8,0:0|0:0,0:0:0:0:
282,320,147323,2,0,L|259:249,1,70.0000005960464,2|8,0:0|0:0,0:0:0:0:
344,253,147971,2,0,B|398:299|398:299|423:234|487:196,1,210.000001788139,2|8,0:0|0:0,0:0:0:0:
464,114,149269,2,0,P|397:126|310:102,1,140.000001192093,2|0,0:0|0:0,0:0:0:0:
246,87,150242,1,8,0:0:0:0:
168,55,150566,2,0,L|98:24,2,70.0000005960464,2|8|2,0:0|0:0|0:0,0:0:0:0:
256,192,151863,12,0,155593,0:0:0:0:
196,97,157053,6,0,P|168:138|120:154,1,70.0000005960464,6|8,0:0|0:0,0:0:0:0:
159,231,157701,2,0,P|197:283|199:317,1,70.0000005960464,2|8,0:0|0:0,0:0:0:0:
281,283,158350,2,0,B|276:224|329:193|329:193|278:145|318:78,1,210.000001788139,2|8,0:0|0:0,0:0:0:0:
384,127,159647,2,0,B|434:173|406:237|406:237|456:317,1,210.000001788139,2|8,0:0|0:0,0:0:0:0:
377,348,160944,2,0,B|336:285|336:285|251:329|185:322|185:322,1,210.000001788139,2|8,0:0|0:0,0:0:0:0:
123,322,162242,6,0,B|52:297|52:297|134:234|125:170,1,210.000001788139,2|8,0:0|0:0,0:0:0:0:
138,105,163539,2,0,B|184:64|233:85|233:85|292:52|341:100,1,210.000001788139,2|8,0:0|0:0,0:0:0:0:
279,157,164836,2,0,B|324:187|374:193|472:79,1,210.000001788139,2|8,0:0|0:0,0:0:0:0:
499,173,166134,2,0,B|480:196|454:217|454:217|458:313|347:319,1,210.000001788139,2|8,0:0|0:0,0:0:0:0:
371,232,167431,6,0,B|292:240|285:314|285:314|196:268,1,210.000001788139,2|8,0:0|0:0,0:0:0:0:
144,232,168728,2,0,B|92:159|219:131|155:37,1,210.000001788139,2|8,0:0|0:0,0:0:0:0:
236,16,170026,2,0,B|291:100|189:151|368:148,1,210.000001788139,2|8,0:0|0:0,0:0:0:0:
432,156,171323,6,0,B|472:168|504:160|504:160|492:256|448:304|448:304|416:312,1,245.000002086162,2|4,0:0|0:0,0:0:0:0:
