osu file format v5

[General]
AudioFilename: 02_-_soramimi_keeki(tv_size).mp3
AudioLeadIn: 0
PreviewTime: -1
Countdown: 1
SampleSet: Soft
StackLeniency: 0.7
Mode: 0
EditorBookmarks: 3834

[Metadata]
Title:Soramimi Cake (TV size)
Artist:Oranges & Lemons
Creator:Hitoshirenu Shourai
Version:Hard
Source:
Tags:

[Difficulty]
HPDrainRate:5
CircleSize:5
OverallDifficulty:5
SliderMultiplier:1.4
SliderTickRate:1

[Events]
//Background and Video events
0,0,"azumanga_daioh_002.jpg"
//Break Periods
//Storyboard Layer 0 (Background)
//Storyboard Layer 1 (Failing)
//Storyboard Layer 2 (Passing)
//Storyboard Layer 3 (Foreground)
//Storyboard Sound Samples
//Background Colour Transformations
3,100,163,162,255

[TimingPoints]
485,444.443231829294,4,2,0,100

[HitObjects]
64,56,4040,1,2
64,264,4707,1,0
64,336,4929,1,2
272,336,5596,1,0
344,336,5818,1,2
344,264,6040,1,0
272,264,6262,1,2
272,192,6484,1,0
344,192,6707,1,2
344,120,6929,1,0
272,120,7151,1,2
200,120,7373,1,0
128,120,7596,1,2
128,328,8262,5,0
56,328,8484,1,2
64,120,9151,1,0
136,120,9373,1,2
208,120,9596,1,0
280,120,9818,1,2
280,192,10040,1,0
352,192,10262,1,2
352,264,10484,1,0
352,336,10707,2,6,B|208:336,1,140
216,128,11818,5,0
144,128,12040,1,2
352,128,12707,1,0
424,128,12929,1,2
424,200,13151,1,0
424,272,13373,1,2
424,344,13596,1,0
352,344,13818,1,2
280,344,14040,1,0
280,272,14262,1,2
208,272,14484,1,0
208,200,14707,2,6,B|40:200|64:96,1,210
104,40,15596,6,6,B|168:72|128:240,1,210
88,296,16484,2,2,B|40:360,1,70
112,352,16929,2,2,B|168:288,1,70
160,232,17373,2,6,B|88:232,2,70
296,232,18262,6,2,B|480:232,1,140
440,160,18929,1,0
440,88,19151,2,2,B|296:88,1,140
232,88,19818,1,0
160,88,20040,2,2,B|160:160,1,70
88,160,20484,2,2,B|88:80,1,70
160,88,20929,1,6
88,88,21151,1,6
88,296,21818,6,0,B|184:296,1,70
224,296,22262,1,2
296,296,22484,1,0
296,224,22707,2,2,B|376:224,1,70
368,152,23151,2,2,B|288:152,1,70
224,152,23596,1,6
80,152,24040,1,6
80,288,24484,1,6
216,288,24929,1,6
352,288,25373,6,0,B|472:288|488:248,1,140
484,255,26040,1,0
484,255,26262,1,2
488,48,26929,1,0
416,48,27151,2,0,B|264:48,1,140
276,48,27818,1,0
208,48,28040,1,6
104,48,28373,1,6
160,112,28707,1,6
208,48,28929,1,6
208,328,29818,5,6
456,192,30707,5,6
312,192,31151,1,6
168,192,31596,1,6
24,192,32040,1,6
96,72,32484,5,2
304,72,33151,1,0
232,72,33373,1,2
88,224,34040,1,0
160,224,34262,5,2
232,224,34484,1,0
304,224,34707,1,2
376,224,34929,1,0
344,160,35151,1,2
272,160,35373,1,0
200,160,35596,1,2
128,160,35818,1,0
56,160,36040,1,2
168,336,36707,5,0
240,336,36929,1,2
448,336,37596,1,0
448,264,37818,2,2,B|448:192|424:192,2,70
376,264,38484,1,0
376,192,38707,1,2
304,192,38929,1,0
304,120,39151,1,2
232,120,39373,1,0
160,120,39596,5,2
48,296,40262,1,0
48,224,40484,1,2
248,296,41151,1,0
320,296,41373,1,2
288,232,41595,1,0
288,160,41818,1,2
256,96,42040,1,0
328,96,42262,1,2
256,96,42484,1,0
288,160,42707,1,2
288,232,42929,1,0
328,288,43151,5,2
120,288,43818,1,0
192,288,44040,1,2
192,80,44707,1,0
264,80,44929,1,2
264,152,45151,1,0
312,200,45373,1,2
368,240,45595,1,0
424,200,45818,1,6
368,160,46040,1,6
248,320,46707,6,2,B|104:320,1,140
48,280,47373,1,0
112,248,47595,2,2,B|264:248,1,140
312,208,48262,1,0
256,168,48484,1,2
184,168,48707,1,0
112,168,48929,1,2
56,120,49151,1,0
112,80,49373,1,6
184,80,49595,1,6
392,80,50262,6,2,B|392:224,1,140
360,280,50929,1,0
320,224,51151,2,2,B|320:80,1,140
272,32,51818,1,0
200,32,52040,1,6
152,168,52484,1,6
88,296,52929,1,6
224,296,53373,1,6
360,296,53818,6,2,B|248:192,1,140
208,152,54484,1,0
160,104,54707,1,0
368,104,55373,5,0
320,160,55595,2,2,B|224:264,1,140
176,320,56262,1,0
104,320,56484,1,6
104,216,56818,1,6
104,112,57151,1,6
176,112,57373,1,6
456,112,58262,1,6
176,112,59151,1,6
312,112,59595,1,6
448,112,60040,2,6,B|368:248,1,140
256,192,60929,12,6,61818
56,192,62262,1,2
128,192,62484,1,0
200,192,62707,1,2
272,192,62929,1,0
344,192,63151,1,2
416,192,63373,1,0
416,120,63595,1,2
344,120,63818,1,0
256,192,64040,12,6,64929
80,336,65373,1,2
80,264,65595,1,0
152,264,65818,1,2
152,192,66040,1,0
224,192,66262,1,2
296,192,66484,1,0
368,192,66707,1,2
368,120,66929,1,0
256,192,67151,12,6,68040
472,192,68484,1,2
400,192,68707,1,0
344,152,68929,1,2
344,224,69151,1,0
280,192,69373,1,2
208,192,69595,1,0
152,232,69818,1,2
152,160,70040,1,0
88,192,70262,5,6
224,192,70707,1,6
360,192,71151,1,6
296,64,71595,1,6
152,64,72040,1,6
144,200,72484,1,6
296,200,72929,1,6
216,320,73373,1,6
256,192,73818,12,6,74707
432,56,75151,2,2,B|352:56,1,70
288,56,75595,2,2,B|368:56,1,70
360,128,76040,2,2,B|360:48,1,70
360,58,76484,2,2,B|288:128,1,70
256,192,76929,12,6,77818
256,192,78262,1,2
256,192,78484,1,0
256,264,78707,1,2
256,264,78929,1,0
256,336,79151,1,2
256,336,79373,1,0
256,264,79595,1,2
256,192,79818,1,0
256,192,80040,12,6,80929
408,56,81373,1,2
336,56,81595,1,0
264,56,81818,1,2
192,56,82040,1,0
88,152,82484,1,0
160,152,82706,1,2
232,152,82929,1,0
304,152,83151,5,6
440,152,83595,1,0
440,288,84040,1,6
304,288,84484,1,0
160,288,84929,1,6
56,192,85373,1,0
160,96,85818,1,6
256,192,86262,1,0
360,96,86706,5,6
360,232,87151,1,6
360,160,87373,2,6,B|208:160,1,140
152,160,88040,1,6
288,160,88484,1,6
216,160,88706,2,6,B|368:160,1,140
424,160,89373,1,6
424,160,89595,1,6
424,160,89818,1,6
