osu file format v14

[General]
AudioFilename: Azumanga.mp3
AudioLeadIn: 0
PreviewTime: 60928
Countdown: 0
SampleSet: Soft
StackLeniency: 0.7
Mode: 0
LetterboxInBreaks: 1
WidescreenStoryboard: 1

[Editor]
DistanceSpacing: 1.2
BeatDivisor: 4
GridSize: 16
TimelineZoom: 1

[Metadata]
Title:Soramimi Cake (TV Size)
TitleUnicode:空耳ケーキ(TV size)
Artist:Oranges & Lemons
ArtistUnicode:Oranges & Lemons
Creator:NolanM
Version:Normal
Source:Azumanga Daioh
Tags:Cake of Mishearing, lemones, lemons
BeatmapID:656046
BeatmapSetID:205538

[Difficulty]
HPDrainRate:4
CircleSize:3
OverallDifficulty:5
ApproachRate:5
SliderMultiplier:1.10000000596046
SliderTickRate:1

[Events]
//Background and Video events
0,0,"BG.jpg",0,0
//Break Periods
//Storyboard Layer 0 (Background)
//Storyboard Layer 1 (Fail)
//Storyboard Layer 2 (Pass)
//Storyboard Layer 3 (Foreground)
//Storyboard Sound Samples

[TimingPoints]
549,444.444444444444,4,1,0,50,1,0
17882,-133.333333333333,4,2,0,50,0,0
31327,-100,4,1,0,50,0,0
46216,-133.333333333333,4,2,0,50,0,0
60882,-100,4,2,0,50,0,1
90104,-133.333333333333,4,2,0,50,0,0

[Colours]
Combo1 : 251,254,218
Combo2 : 255,128,128
Combo3 : 128,128,255
Combo4 : 255,0,0

[HitObjects]
0,112,549,6,0,P|64:96|224:112,1,220.000001192093
352,144,1882,1,0,0:0:0:0:
432,208,2327,6,0,B|368:256|192:224,1,220.000001192093
217,228,3438,1,0,0:0:0:0:
32,176,4105,5,4,0:0:0:0:
192,128,4771,1,0,0:0:0:0:
192,128,4993,1,0,0:0:0:0:
384,112,5882,6,0,P|432:96|512:112,1,110.000000596046
496,240,6771,2,0,P|448:256|384:256,1,110.000000596046
304,160,7660,5,0,0:0:0:0:
128,240,8327,2,0,L|64:224,1,55.0000002980232
112,96,8993,1,0,0:0:0:0:
256,64,9438,5,0,0:0:0:0:
256,64,9882,1,0,0:0:0:0:
384,112,10327,2,0,P|400:144|400:240,1,110.000000596046
320,320,11216,5,0,0:0:0:0:
208,256,11882,2,0,L|160:224,1,55.0000002980232
32,208,12548,1,0,0:0:0:0:
64,80,12993,5,0,0:0:0:0:
160,64,13438,1,0,0:0:0:0:
256,64,13882,1,0,0:0:0:0:
352,80,14327,1,0,0:0:0:0:
432,144,14771,5,0,0:0:0:0:
384,336,15438,1,0,0:0:0:0:
384,336,15660,1,0,0:0:0:0:
240,288,16327,1,0,0:0:0:0:
192,281,16549,2,0,P|115:284|80:272,2,110.000000596046
195,232,17660,1,0,0:0:0:0:
275,159,18327,5,4,0:0:0:0:
376,261,19216,1,0,0:0:0:0:
192,320,20104,5,0,0:0:0:0:
176,224,20549,1,0,0:0:0:0:
80,208,20993,2,0,L|32:240,2,41.2500017970801
144,128,21882,5,0,0:0:0:0:
240,96,22327,1,0,0:0:0:0:
336,64,22771,2,0,L|320:16,2,41.2500017970801
368,144,23660,5,4,0:0:0:0:
432,224,24104,1,0,0:0:0:0:
368,304,24549,2,0,L|336:320|288:336,1,82.5000035941602,4|0,0:0|0:0,0:0:0:0:
245,318,25438,6,0,P|197:334|112:272,1,165.00000718832
96,176,26771,1,0,0:0:0:0:
96,80,27216,6,0,P|128:48|176:48,1,90.0000041037799
240,112,28104,2,2,P|256:80|256:48,2,61.8750026956201
224,160,28993,5,0,0:0:0:0:
416,192,29882,1,0,0:0:0:0:
273,284,30771,6,0,P|241:300|192:304,1,82.5000035941602
96,208,31660,2,0,L|128:144,3,55.0000002980232
160,96,32549,5,0,0:0:0:0:
368,80,33216,1,0,0:0:0:0:
368,80,33438,1,0,0:0:0:0:
432,208,34327,6,0,P|432:256|400:320,1,110.000000596046
272,272,35216,2,0,P|256:224|272:160,1,110.000000596046
384,112,36104,5,0,0:0:0:0:
192,80,36771,2,0,L|128:64,1,55.0000002980232
160,272,37660,1,0,0:0:0:0:
224,272,37882,6,0,P|272:272|336:240,1,110.000000596046
240,144,38771,2,0,P|288:160|352:160,1,110.000000596046
304,288,39660,5,0,0:0:0:0:
480,208,40327,1,0,0:0:0:0:
480,208,40549,1,0,0:0:0:0:
256,64,41438,6,0,P|208:48|144:48,1,110.000000596046
32,96,42327,1,0,0:0:0:0:
0,224,42771,1,0,0:0:0:0:
112,288,43216,5,0,0:0:0:0:
304,336,43882,2,0,L|336:336|368:336,1,55.0000002980232
448,144,44771,1,0,0:0:0:0:
400,96,44993,6,0,P|352:64|288:64,1,110.000000596046
176,112,45882,1,0,0:0:0:0:
176,112,46104,1,4,0:0:0:0:
48,176,46771,6,0,B|-2:229|64:336,1,165.00000718832,4|0,0:0|0:0,0:0:0:0:
144,272,48104,1,0,0:0:0:0:
240,288,48549,6,0,L|240:336,2,41.2500017970801
336,288,49438,1,0,0:0:0:0:
432,288,49882,1,0,0:0:0:0:
384,208,50327,6,0,P|368:144|400:48,1,165.00000718832
304,48,51660,2,0,L|256:48|256:48,1,41.2500017970801
208,48,52104,6,0,L|176:64|128:80,1,82.5000035941602
96,160,52993,2,0,L|96:256,1,82.5000035941602,6|0,0:0|0:0,0:0:0:0:
192,272,53882,6,0,P|240:256|288:144,1,165.00000718832
240,16,55438,1,0,0:0:0:0:
240,64,55660,6,0,L|272:96|352:112,1,123.75000539124
400,112,56549,2,0,L|448:64,2,61.8750026956201
368,160,57438,5,0,0:0:0:0:
208,288,58327,1,0,0:0:0:0:
32,208,59216,6,0,P|16:192|16:128,1,82.5000035941602
64,48,60104,2,0,L|112:32,1,41.2500017970799
160,32,60548,2,0,L|208:48,1,41.2500017970799
256,80,60993,5,6,0:0:0:0:
368,176,61438,1,6,0:0:0:0:
240,208,61882,1,6,0:0:0:0:
112,240,62327,2,0,P|112:272|144:304,1,55.0000002980232
176,320,62771,6,0,P|208:336|240:368,1,55.0000002980232
288,320,63216,2,0,P|320:320|352:304,1,55.0000002980232
384,272,63660,2,0,P|400:256|400:224,1,55.0000002980232
432,192,64105,5,6,0:0:0:0:
432,192,64549,1,6,0:0:0:0:
432,192,64993,1,6,0:0:0:0:
320,144,65438,1,0,0:0:0:0:
320,144,65660,1,0,0:0:0:0:
256,144,65882,2,0,L|224:144|192:144,2,55.0000002980232
272,96,66549,5,0,0:0:0:0:
240,64,66771,2,0,L|176:64,1,55.0000002980232
128,96,67216,6,6,L|32:176,2,110.000000596046
208,192,68549,6,0,L|240:144,1,55.0000002980232
272,112,68993,1,0,0:0:0:0:
320,64,69216,2,0,P|352:64|384:128,1,110.000000596046
448,160,69882,1,0,0:0:0:0:
448,160,70105,1,0,0:0:0:0:
496,208,70327,6,0,P|480:256|336:256,1,220.000001192093
208,256,71660,5,0,0:0:0:0:
112,176,72105,2,0,B|144:128|336:128,1,220.000001192093
448,128,73438,5,0,0:0:0:0:
448,256,73882,6,6,L|512:352,2,110.000000596046
352,160,75216,5,0,0:0:0:0:
320,112,75438,1,0,0:0:0:0:
288,160,75660,2,0,P|240:176|192:144,1,110.000000596046
128,176,76327,2,0,P|112:144|112:112,1,55.0000002980232
96,64,76771,1,0,0:0:0:0:
160,48,76993,6,6,L|272:32,2,110.000000596046
48,128,78327,1,0,0:0:0:0:
48,192,78549,1,0,0:0:0:0:
80,256,78771,6,0,P|128:304|176:320,1,110.000000596046
240,320,79438,1,0,0:0:0:0:
240,256,79660,2,0,L|272:256|304:256,1,55.0000002980232
368,256,80104,6,6,L|480:256,2,110.000000596046
336,128,81438,5,0,0:0:0:0:
272,112,81660,1,0,0:0:0:0:
208,96,81882,2,0,L|144:80,1,55.0000002980232
112,224,82549,2,2,L|64:224|48:224,2,55.0000002980232
176,208,83216,2,0,P|240:240|272:272,1,110.000000596046,4|0,0:0|0:0,0:0:0:0:
336,160,84105,6,0,P|304:112|256:96,1,110.000000596046
128,64,84993,2,4,P|96:96|64:160,1,110.000000596046
128,272,85882,6,4,P|160:304|240:320,1,110.000000596046
336,256,86771,2,4,P|336:208|304:144,1,110.000000596046
256,112,87437,2,0,P|208:128|160:176,1,110.000000596046
128,112,88104,6,4,P|128:160|176:224,1,110.000000596046
112,240,88771,2,0,P|128:288|176:320,1,110.000000596046
240,304,89438,5,4,0:0:0:0:
224,240,89660,1,4,0:0:0:0:
208,176,89882,1,4,0:0:0:0:
