osu file format v14

[General]
AudioFilename: Azumanga.mp3
AudioLeadIn: 0
PreviewTime: 60928
Countdown: 0
SampleSet: Soft
StackLeniency: 0.7
Mode: 0
LetterboxInBreaks: 1
WidescreenStoryboard: 1

[Editor]
Bookmarks: 22630,38297,38630,39096,62704
DistanceSpacing: 1.2
BeatDivisor: 4
GridSize: 4
TimelineZoom: 1

[Metadata]
Title:Soramimi Cake (TV Size)
TitleUnicode:空耳ケーキ(TV size)
Artist:Oranges & Lemons
ArtistUnicode:Oranges & Lemons
Creator:NolanM
Version:Insane
Source:Azumanga Daioh
Tags:Cake of Mishearing, lemones, lemons
BeatmapID:656045
BeatmapSetID:205538

[Difficulty]
HPDrainRate:7
CircleSize:4
OverallDifficulty:7
ApproachRate:9
SliderMultiplier:1.79999990463257
SliderTickRate:1

[Events]
//Background and Video events
0,0,"BG.jpg",0,0
//Break Periods
//Storyboard Layer 0 (Background)
//Storyboard Layer 1 (Fail)
//Storyboard Layer 2 (Pass)
//Storyboard Layer 3 (Foreground)
//Storyboard Sound Samples

[TimingPoints]
549,444.444444444444,4,1,0,50,1,0
4105,-100,4,1,0,50,0,0
18074,-200,4,2,0,50,0,0
31408,-100,4,1,0,50,0,0
46297,-200,4,2,0,50,0,0
60845,-100,4,2,0,50,0,1
90104,-100,4,2,0,50,0,0

[Colours]
Combo1 : 251,254,218
Combo2 : 255,128,128
Combo3 : 128,128,255
Combo4 : 255,0,0

[HitObjects]
152,120,549,5,0,0:0:0:0:
136,156,660,1,0,0:0:0:0:
136,192,771,1,0,0:0:0:0:
320,84,993,2,0,P|276:56|272:56,2,44.9999976158143
412,264,1438,1,0,0:0:0:0:
428,228,1549,1,0,0:0:0:0:
432,184,1660,1,0,0:0:0:0:
216,296,1882,1,0,0:0:0:0:
256,312,1993,1,0,0:0:0:0:
304,312,2104,1,0,0:0:0:0:
232,92,2327,6,0,P|276:72|312:76,2,44.9999976158143
92,224,2771,1,0,0:0:0:0:
96,176,2882,1,0,0:0:0:0:
112,132,2993,1,0,0:0:0:0:
256,192,3216,12,0,3882,0:0:0:0:
320,116,4105,5,4,0:0:0:0:
320,116,4808,1,0,0:0:0:0:
408,232,4993,1,0,0:0:0:0:
408,232,5660,5,0,0:0:0:0:
296,344,5882,5,0,0:0:0:0:
144,204,6104,1,0,0:0:0:0:
268,264,6327,1,0,0:0:0:0:
400,132,6549,1,0,0:0:0:0:
224,72,6771,1,0,0:0:0:0:
268,264,6993,1,0,0:0:0:0:
368,156,7216,1,0,0:0:0:0:
168,204,7438,2,0,P|156:268|172:312,1,89.9999952316285
256,156,8327,6,0,P|248:220|260:264,1,89.9999952316285
324,112,9216,5,0,0:0:0:0:
424,232,9438,5,0,0:0:0:0:
324,112,9660,2,0,P|288:184|276:196,1,89.9999952316285
136,112,10104,1,0,0:0:0:0:
56,292,10327,1,0,0:0:0:0:
272,256,10549,1,0,0:0:0:0:
136,136,10771,1,0,0:0:0:0:
80,288,10993,1,0,0:0:0:0:
244,260,11216,5,4,0:0:0:0:
256,248,11882,1,0,0:0:0:0:
384,124,12104,1,0,0:0:0:0:
384,124,12771,1,0,0:0:0:0:
260,112,12993,6,0,P|212:108|168:124,1,89.9999952316285
224,340,13438,2,0,P|272:344|316:328,1,89.9999952316285
256,36,13882,2,0,P|208:32|164:48,1,89.9999952316285
220,260,14327,2,0,P|284:252|312:228,1,89.9999952316285
303,237,14771,5,0,0:0:0:0:
303,237,15438,1,0,0:0:0:0:
176,116,15660,1,0,0:0:0:0:
176,116,16327,1,0,0:0:0:0:
360,88,16549,6,0,P|400:140|408:180,1,89.9999952316285
212,228,16993,1,0,0:0:0:0:
404,160,17216,1,0,0:0:0:0:
362,259,17438,2,0,P|398:307|406:347,1,89.9999952316285,0|4,0:0|0:0,0:0:0:0:
112,204,18327,5,4,0:0:0:0:
112,204,18771,1,0,0:0:0:0:
240,60,18993,1,0,0:0:0:0:
268,252,19216,2,0,P|320:256|328:252,1,44.9999976158143
400,104,19660,2,0,P|368:96|352:96,1,44.9999976158143
168,116,20104,5,0,0:0:0:0:
340,160,20327,1,0,0:0:0:0:
124,276,20549,1,0,0:0:0:0:
296,232,20771,1,0,0:0:0:0:
216,316,20993,2,0,P|248:308|264:300,1,44.9999976158143
104,192,21438,1,2,0:0:0:0:
104,192,21549,1,2,0:0:0:0:
104,192,21660,1,2,0:0:0:0:
208,56,21882,6,0,P|196:88|204:104,1,44.9999976158143
228,120,22216,2,0,L|252:144|252:144,1,22.4999988079071
236,280,22549,1,0,0:0:0:0:
424,236,22771,2,0,P|432:200|432:184,1,44.9999976158143
312,104,23216,1,0,0:0:0:0:
432,192,23438,1,0,0:0:0:0:
432,192,23660,5,4,0:0:0:0:
256,328,24104,1,0,0:0:0:0:
76,192,24549,1,4,0:0:0:0:
256,64,24993,1,0,0:0:0:0:
384,192,25438,6,0,P|356:220|300:236,1,89.9999952316285
308,235,26327,1,0,0:0:0:0:
308,235,26993,1,0,0:0:0:0:
156,220,27216,6,0,P|100:168|96:156,1,89.9999952316285
88,80,27882,1,0,0:0:0:0:
256,104,28104,1,0,0:0:0:0:
256,104,28438,2,0,P|304:132|312:152,1,67.4999964237214
308,140,28993,5,0,0:0:0:0:
308,140,29882,1,0,0:0:0:0:
308,140,30771,5,0,0:0:0:0:
88,320,31216,1,0,0:0:0:0:
116,68,31660,1,4,0:0:0:0:
132,100,31771,1,4,0:0:0:0:
152,132,31882,1,4,0:0:0:0:
180,152,31993,1,4,0:0:0:0:
212,168,32104,1,4,0:0:0:0:
384,124,32549,5,4,0:0:0:0:
384,124,33216,1,0,0:0:0:0:
224,60,33438,1,0,0:0:0:0:
224,60,34104,1,0,0:0:0:0:
112,108,34327,5,0,0:0:0:0:
72,232,34549,1,0,0:0:0:0:
224,192,34771,1,0,0:0:0:0:
336,112,34993,1,0,0:0:0:0:
292,320,35216,1,0,0:0:0:0:
376,248,35438,1,0,0:0:0:0:
148,260,35660,1,0,0:0:0:0:
144,104,35882,1,0,0:0:0:0:
264,60,36104,5,0,0:0:0:0:
264,60,36771,2,0,P|272:112|268:164,1,89.9999952316285
270,149,37660,1,0,0:0:0:0:
92,256,37882,6,0,P|124:304|176:300,1,89.9999952316285
420,128,38327,2,0,P|388:80|336:84,1,89.9999952316285
320,256,38771,1,0,0:0:0:0:
192,112,38993,1,0,0:0:0:0:
324,112,39216,1,0,0:0:0:0:
196,256,39438,1,0,0:0:0:0:
196,256,39660,5,4,0:0:0:0:
196,256,40327,1,0,0:0:0:0:
88,112,40549,1,0,0:0:0:0:
88,112,41216,1,0,0:0:0:0:
260,44,41438,5,0,0:0:0:0:
220,156,41660,1,0,0:0:0:0:
260,44,41882,1,0,0:0:0:0:
296,248,42104,1,0,0:0:0:0:
260,44,42327,1,0,0:0:0:0:
224,332,42549,1,0,0:0:0:0:
260,44,42771,1,0,0:0:0:0:
396,112,42993,1,0,0:0:0:0:
396,112,43216,5,4,0:0:0:0:
396,112,43881,1,0,0:0:0:0:
428,288,44104,1,0,0:0:0:0:
428,288,44771,1,0,0:0:0:0:
296,344,44993,6,0,L|256:244,1,89.9999952316285
120,64,45438,2,0,L|156:172,1,89.9999952316285
184,348,45882,2,0,L|144:236,1,89.9999952316285,0|4,0:0|0:0,0:0:0:0:
336,232,46771,6,0,P|368:212|388:156,1,89.9999952316285,4|0,0:0|0:0,0:0:0:0:
376,76,47438,1,0,0:0:0:0:
292,92,47660,2,0,P|260:112|248:128,1,44.9999976158143
184,96,48104,2,0,P|156:128|152:144,1,44.9999976158143
232,176,48549,5,0,0:0:0:0:
156,208,48771,1,0,0:0:0:0:
296,304,48993,1,0,0:0:0:0:
140,116,49216,1,0,0:0:0:0:
160,336,49438,1,0,0:0:0:0:
352,176,49660,1,0,0:0:0:0:
416,240,49882,6,2,L|440:272,2,22.4999988079071
352,92,50327,6,0,P|320:84|296:84,1,44.9999976158143
280,76,50660,2,0,P|256:60|256:52,1,22.4999988079071
124,128,50993,1,0,0:0:0:0:
88,264,51216,1,0,0:0:0:0:
124,128,51438,1,0,0:0:0:0:
216,232,51660,2,0,P|244:248|268:256,1,44.9999976158143
440,300,52104,5,4,0:0:0:0:
256,64,52549,1,0,0:0:0:0:
440,300,52993,1,4,0:0:0:0:
140,296,53438,1,0,0:0:0:0:
356,140,53882,6,0,P|324:168|268:188,1,89.9999952316285
280,185,54771,1,0,0:0:0:0:
280,185,55438,1,0,0:0:0:0:
188,240,55660,6,0,P|168:268|168:324,1,89.9999952316285
188,240,56327,1,0,0:0:0:0:
36,144,56549,1,0,0:0:0:0:
336,116,56882,2,0,P|292:128|252:124,1,67.4999964237214
270,127,57438,5,0,0:0:0:0:
270,127,58327,1,0,0:0:0:0:
270,127,59216,5,0,0:0:0:0:
72,312,59660,1,0,0:0:0:0:
424,296,60104,1,0,0:0:0:0:
396,284,60216,1,0,0:0:0:0:
372,268,60327,1,0,0:0:0:0:
356,248,60438,1,0,0:0:0:0:
344,224,60549,1,0,0:0:0:0:
256,56,60994,5,6,0:0:0:0:
172,304,61438,1,6,0:0:0:0:
256,56,61882,1,6,0:0:0:0:
372,176,62327,2,0,L|288:88,1,89.9999952316285
484,300,62771,6,0,L|416:224,1,89.9999952316285
140,208,63216,2,0,L|224:296,1,89.9999952316285
28,84,63660,2,0,L|96:160,1,89.9999952316285
256,340,64105,5,6,0:0:0:0:
156,80,64549,1,6,0:0:0:0:
352,84,64993,1,6,0:0:0:0:
256,104,65438,1,0,0:0:0:0:
176,268,65660,1,0,0:0:0:0:
336,140,65882,1,0,0:0:0:0:
384,284,66105,1,0,0:0:0:0:
404,88,66327,5,0,0:0:0:0:
224,36,66549,1,0,0:0:0:0:
336,140,66771,1,0,0:0:0:0:
184,112,66994,1,0,0:0:0:0:
56,304,67216,1,6,0:0:0:0:
256,188,67660,1,6,0:0:0:0:
440,64,68105,5,6,0:0:0:0:
432,232,68549,2,0,P|448:184|432:140,1,89.9999952316285
268,76,68993,2,0,P|220:60|172:48,2,89.9999952316285
424,120,69660,1,0,0:0:0:0:
316,188,69882,5,0,0:0:0:0:
456,252,70104,1,0,0:0:0:0:
336,304,70327,1,0,0:0:0:0:
304,304,70771,1,0,0:0:0:0:
272,304,71216,1,0,0:0:0:0:
224,304,71660,5,0,0:0:0:0:
176,272,72105,1,0,0:0:0:0:
144,200,72549,1,0,0:0:0:0:
184,112,72993,1,0,0:0:0:0:
328,64,73438,1,0,0:0:0:0:
188,268,73882,1,6,0:0:0:0:
216,96,74327,1,6,0:0:0:0:
388,200,74771,1,6,0:0:0:0:
284,248,75216,5,0,0:0:0:0:
208,88,75438,1,0,0:0:0:0:
256,324,75660,1,0,0:0:0:0:
264,168,75882,1,0,0:0:0:0:
172,296,76105,1,0,0:0:0:0:
400,204,76327,1,0,0:0:0:0:
136,180,76549,1,0,0:0:0:0:
344,288,76771,1,0,0:0:0:0:
336,136,76994,5,6,0:0:0:0:
272,328,77438,1,6,0:0:0:0:
124,184,77882,1,6,0:0:0:0:
356,80,78327,2,0,L|468:108,1,89.9999952316285
212,136,78771,1,0,0:0:0:0:
312,232,78994,2,0,L|432:264,1,89.9999952316285
124,184,79438,1,0,0:0:0:0:
432,124,79660,2,0,L|388:212,1,89.9999952316285
295,355,80105,1,6,0:0:0:0:
124,124,80549,5,6,0:0:0:0:
375,113,80994,1,6,0:0:0:0:
320,264,81438,1,0,0:0:0:0:
292,60,81660,1,0,0:0:0:0:
224,124,81882,2,0,B|176:104|152:108|116:136|120:152,1,89.9999952316285
192,296,82549,6,0,P|196:252|156:184,1,89.9999952316285
116,144,82994,1,0,0:0:0:0:
116,144,83216,1,4,0:0:0:0:
384,64,83660,1,0,0:0:0:0:
360,316,84105,5,0,0:0:0:0:
384,64,84549,1,0,0:0:0:0:
116,144,84994,1,4,0:0:0:0:
384,64,85438,1,4,0:0:0:0:
360,316,85882,5,4,0:0:0:0:
360,316,86327,1,4,0:0:0:0:
296,256,86771,2,4,L|152:96,1,179.999990463257
175,122,87437,1,4,0:0:0:0:
175,122,87882,1,4,0:0:0:0:
248,340,88105,2,4,L|112:184,1,179.999990463257
129,204,88771,1,4,0:0:0:0:
356,300,89216,1,4,0:0:0:0:
180,300,89438,5,4,0:0:0:0:
180,104,89660,1,4,0:0:0:0:
352,104,89882,1,4,0:0:0:0:
