osu file format v14

[General]
AudioFilename: Azumanga.mp3
AudioLeadIn: 0
PreviewTime: 60928
Countdown: 0
SampleSet: Normal
StackLeniency: 0.7
Mode: 0
LetterboxInBreaks: 1
WidescreenStoryboard: 0

[Editor]
DistanceSpacing: 1.2
BeatDivisor: 4
GridSize: 8
TimelineZoom: 1

[Metadata]
Title:Soramimi Cake (TV Size)
TitleUnicode:空耳ケーキ(TV size)
Artist:Oranges & Lemons
ArtistUnicode:Oranges & Lemons
Creator:NolanM
Version:Hard
Source:Azumanga Daioh
Tags:Cake of Mishearing, lemones, lemons
BeatmapID:485045
BeatmapSetID:205538

[Difficulty]
HPDrainRate:7
CircleSize:4
OverallDifficulty:7
ApproachRate:7
SliderMultiplier:1.40000000596046
SliderTickRate:1

[Events]
//Background and Video events
0,0,"BG.jpg",0,0
//Break Periods
//Storyboard Layer 0 (Background)
//Storyboard Layer 1 (Fail)
//Storyboard Layer 2 (Pass)
//Storyboard Layer 3 (Foreground)
//Storyboard Sound Samples

[TimingPoints]
549,444.444444444444,4,1,0,50,1,0
17771,-133.333333333333,4,1,0,50,0,0
32216,-100,4,1,0,50,0,0
46216,-133.333333333333,4,1,0,50,0,0
60882,-100,4,1,0,50,0,1
90104,-133.333333333333,4,1,0,50,0,0

[Colours]
Combo1 : 251,254,218
Combo2 : 255,128,128
Combo3 : 128,128,255
Combo4 : 255,0,0

[HitObjects]
168,152,549,6,0,L|144:112,2,35.0000001490115
256,120,993,2,0,L|256:80,2,35.0000001490115
344,160,1438,2,0,L|376:120,2,35.0000001490115
344,256,1882,2,0,L|376:296,2,35.0000001490115
248,256,2327,6,0,L|248:296,2,35.0000001490115
152,240,2771,2,0,L|120:280,2,35.0000001490115
256,192,3216,12,0,4104,0:0:0:0:
192,144,4771,5,0,0:0:0:0:
280,120,4993,1,0,0:0:0:0:
280,120,5660,1,0,0:0:0:0:
360,144,5882,2,0,P|392:168|416:216,1,70.000000298023
352,272,6327,2,0,P|328:216|296:200,1,70.000000298023
248,248,6771,2,0,P|184:256|160:240,1,70.000000298023
128,192,7216,2,0,P|184:168|224:176,1,70.000000298023
191,168,7660,5,0,0:0:0:0:
192,168,8327,2,0,P|246:160|278:152,1,70.000000298023
260,156,9216,1,0,0:0:0:0:
344,168,9438,5,0,0:0:0:0:
408,216,9660,1,0,0:0:0:0:
376,296,9882,2,0,L|312:216,1,70.000000298023
272,304,10327,2,0,L|224:232,1,70.000000298023
168,192,10771,1,0,0:0:0:0:
112,128,10993,1,0,0:0:0:0:
184,88,11216,5,4,0:0:0:0:
184,88,11882,1,0,0:0:0:0:
264,88,12104,1,0,0:0:0:0:
264,88,12771,6,0,P|304:136|320:168,1,70.000000298023
320,216,13216,2,0,P|280:264|248:280,1,70.000000298023
200,296,13660,1,0,0:0:0:0:
120,264,13882,1,0,0:0:0:0:
88,184,14104,1,0,0:0:0:0:
168,200,14327,1,0,0:0:0:0:
144,120,14549,1,0,0:0:0:0:
88,184,14771,5,0,0:0:0:0:
144,72,15438,2,0,P|208:128|208:136,1,70.000000298023
200,104,16327,1,0,0:0:0:0:
200,104,16549,5,0,0:0:0:0:
256,168,16771,1,0,0:0:0:0:
256,168,16993,1,0,0:0:0:0:
304,240,17216,2,0,P|272:272|216:280,1,70.000000298023
168,288,17660,1,4,0:0:0:0:
96,112,18327,5,4,0:0:0:0:
96,112,18771,1,0,0:0:0:0:
160,96,18993,1,0,0:0:0:0:
232,88,19216,2,0,L|304:104|304:104,1,52.5000022262334
360,112,19660,2,0,P|384:152|384:168,1,52.5000022262334
368,232,20104,6,0,L|368:304,1,52.5000022262334
296,296,20549,2,0,L|296:232,1,52.5000022262334
224,232,20993,2,0,L|224:296,1,52.5000022262334
152,296,21438,2,2,L|152:328,2,26.2500011131167
88,256,21882,6,0,P|56:216|56:184,1,78.7500033393501
56,160,22327,2,0,L|96:112,1,52.5000022262334
162,94,22771,2,0,L|208:152,1,52.5000022262334
264,124,23216,2,0,L|320:152,1,52.5000022262334
385,174,23660,5,4,0:0:0:0:
323,304,24104,1,0,0:0:0:0:
242,184,24549,1,4,0:0:0:0:
385,173,24993,1,0,0:0:0:0:
273,264,25438,6,0,P|233:296|160:296,1,105.000004452467
180,301,26327,1,0,0:0:0:0:
180,301,26993,1,0,0:0:0:0:
144,248,27216,6,0,P|120:208|128:137,1,105.000004452467
152,96,27882,2,0,P|192:88|224:88,1,52.5000022262334
296,72,28438,1,0,0:0:0:0:
360,136,28771,2,0,P|376:184|376:208,1,52.5000022262334
383,192,29882,5,0,0:0:0:0:
391,216,30771,1,0,0:0:0:0:
272,304,31216,1,0,0:0:0:0:
264,176,31660,2,4,L|232:136,4,26.2500011131167
80,224,32549,5,4,0:0:0:0:
80,224,33216,1,0,0:0:0:0:
96,128,33438,1,0,0:0:0:0:
96,128,34104,1,0,0:0:0:0:
192,120,34327,6,0,L|264:112,1,70.000000298023
368,104,34771,1,0,0:0:0:0:
432,176,34993,1,0,0:0:0:0:
408,272,35216,2,0,P|352:304|320:304,1,70.000000298023
240,288,35660,1,0,0:0:0:0:
160,232,35882,1,0,0:0:0:0:
128,144,36104,5,0,0:0:0:0:
128,144,36771,2,0,P|184:136|224:152,1,70.000000298023
196,138,37660,1,0,0:0:0:0:
280,112,37882,5,0,0:0:0:0:
360,136,38104,1,0,0:0:0:0:
440,112,38327,1,0,0:0:0:0:
360,136,38549,1,0,0:0:0:0:
408,200,38771,2,0,P|424:240|424:272,1,70.000000298023
352,304,39216,2,0,P|336:264|344:224,1,70.000000298023
338,237,39660,5,4,0:0:0:0:
338,237,40327,1,0,0:0:0:0:
256,224,40549,1,0,0:0:0:0:
256,224,41216,1,0,0:0:0:0:
180,186,41438,6,0,P|156:154|159:119,1,70.000000298023
229,82,41882,1,0,0:0:0:0:
157,126,42104,1,0,0:0:0:0:
72,144,42327,2,0,P|72:200|88:232,1,70.000000298023
144,264,42771,1,0,0:0:0:0:
80,216,42993,1,0,0:0:0:0:
72,304,43216,5,4,0:0:0:0:
72,304,43882,2,0,L|96:248|112:224,1,70.000000298023
135,270,44771,1,0,0:0:0:0:
168,192,44993,6,0,L|208:128,1,70.000000298023
304,128,45438,2,0,L|256:216,1,70.000000298023
216,280,45882,1,0,0:0:0:0:
216,280,46104,1,4,0:0:0:0:
152,72,46771,5,4,0:0:0:0:
152,72,47216,1,0,0:0:0:0:
224,56,47438,1,0,0:0:0:0:
294,41,47660,2,0,B|272:112,1,52.5000022262334
256,167,48104,2,0,L|200:208,1,52.5000022262334
175,267,48549,2,0,L|248:288,1,52.5000022262334
312,304,48993,1,0,0:0:0:0:
408,328,49216,1,0,0:0:0:0:
312,304,49438,1,0,0:0:0:0:
384,240,49660,1,0,0:0:0:0:
328,160,49882,6,2,L|360:168,2,26.2500011131167
288,112,50327,6,0,P|256:88|208:80,1,78.7500033393501
184,80,50771,2,0,P|168:120|168:152,1,52.5000022262334
152,192,51216,1,0,0:0:0:0:
160,288,51438,1,0,0:0:0:0:
240,200,51660,1,0,0:0:0:0:
224,328,51882,1,0,0:0:0:0:
312,232,52104,5,4,0:0:0:0:
416,152,52549,1,0,0:0:0:0:
328,264,52993,1,4,0:0:0:0:
280,128,53438,1,0,0:0:0:0:
200,224,53882,6,0,P|184:192|176:112,1,105.000004452467
172,125,54771,1,0,0:0:0:0:
172,125,55438,1,0,0:0:0:0:
240,96,55660,6,0,P|288:96|336:136,1,105.000004452467
368,208,56327,1,0,0:0:0:0:
360,280,56549,2,0,P|336:320|304:344,1,78.7500033393501
224,328,57216,2,0,P|250:341|280:344,1,52.5000022262334
272,344,58326,5,0,0:0:0:0:
272,344,59216,5,0,0:0:0:0:
184,216,59660,1,0,0:0:0:0:
120,88,60104,2,4,L|104:40,4,26.2500011131167
312,88,60994,5,6,0:0:0:0:
192,240,61438,1,6,0:0:0:0:
312,88,61882,1,6,0:0:0:0:
120,72,62327,2,0,P|88:136|88:160,1,70.000000298023
72,240,62771,5,0,0:0:0:0:
72,240,62994,1,0,0:0:0:0:
96,336,63216,2,0,P|168:320|192:304,1,70.000000298023
256,264,63660,1,0,0:0:0:0:
256,264,63882,1,0,0:0:0:0:
328,200,64105,1,6,0:0:0:0:
176,88,64549,5,6,0:0:0:0:
152,280,64993,1,6,0:0:0:0:
176,88,65438,1,0,0:0:0:0:
272,96,65660,1,0,0:0:0:0:
360,128,65882,1,0,0:0:0:0:
408,208,66105,1,0,0:0:0:0:
360,128,66327,5,0,0:0:0:0:
312,208,66549,1,0,0:0:0:0:
264,288,66771,1,0,0:0:0:0:
168,304,66994,1,0,0:0:0:0:
80,272,67216,1,6,0:0:0:0:
192,120,67660,1,6,0:0:0:0:
384,96,68105,5,6,0:0:0:0:
264,248,68549,2,0,L|328:312,1,70.000000298023
264,248,68993,2,0,L|200:184,1,70.000000298023
136,120,69438,1,0,0:0:0:0:
232,96,69660,1,0,0:0:0:0:
136,120,69882,6,0,P|112:184|112:216,1,70.000000298023
111,184,70327,2,0,L|216:304,1,140.000000596046
304,152,71216,1,0,0:0:0:0:
448,280,71660,5,0,0:0:0:0:
448,88,72105,2,0,L|312:192,1,140.000000596046
160,80,72993,1,0,0:0:0:0:
248,256,73438,5,0,0:0:0:0:
72,336,73882,1,6,0:0:0:0:
224,216,74327,1,6,0:0:0:0:
368,88,74771,1,6,0:0:0:0:
224,216,75216,5,0,0:0:0:0:
168,136,75438,1,0,0:0:0:0:
256,104,75660,1,0,0:0:0:0:
312,184,75882,1,0,0:0:0:0:
352,272,76105,2,0,L|264:312,1,70.000000298023
184,312,76549,2,0,L|120:272,1,70.000000298023
40,208,76993,5,2,0:0:0:0:
160,56,77438,1,2,0:0:0:0:
248,224,77882,1,2,0:0:0:0:
360,64,78327,2,0,P|400:120|400:152,1,70.000000298023
384,224,78771,6,0,P|328:200|304:168,1,70.000000298023
256,112,79216,2,0,P|224:144|208:184,1,70.000000298023
264,256,79660,2,0,P|224:272|184:264,1,70.000000298023
96,240,80105,1,6,0:0:0:0:
224,96,80549,5,6,0:0:0:0:
96,240,80993,1,6,0:0:0:0:
224,96,81438,1,0,0:0:0:0:
320,88,81660,1,0,0:0:0:0:
408,128,81882,1,0,0:0:0:0:
448,216,82104,2,0,P|448:280|360:320,1,140.000000596046
296,264,82771,6,0,P|240:280|208:264,1,70.000000298023
128,224,83216,2,4,L|240:112,1,140.000000596046
432,72,84105,6,0,L|312:192,1,140.000000596046
176,312,84993,1,4,0:0:0:0:
152,120,85438,1,4,0:0:0:0:
344,96,85882,1,4,0:0:0:0:
368,288,86327,1,4,0:0:0:0:
176,312,86771,6,4,P|136:280|112:184,1,140.000000596046,4|0,0:0|0:0,0:0:0:0:
120,80,87438,1,4,0:0:0:0:
120,80,87882,1,4,0:0:0:0:
216,72,88105,2,4,P|256:96|368:104,1,140.000000596046
408,192,88771,1,4,0:0:0:0:
408,192,89216,5,4,0:0:0:0:
392,288,89438,5,4,0:0:0:0:
296,272,89660,1,4,0:0:0:0:
312,176,89882,1,4,0:0:0:0:
