osu file format v14

[General]
AudioFilename: Azumanga.mp3
AudioLeadIn: 0
PreviewTime: 60928
Countdown: 0
SampleSet: Normal
StackLeniency: 0.7
Mode: 0
LetterboxInBreaks: 0
WidescreenStoryboard: 0

[Editor]
DistanceSpacing: 1.2
BeatDivisor: 2
GridSize: 16
TimelineZoom: 1

[Metadata]
Title:Soramimi Cake (TV Size)
TitleUnicode:空耳ケーキ(TV size)
Artist:Oranges & Lemons
ArtistUnicode:Oranges & Lemons
Creator:NolanM
Version:Easy
Source:Azumanga Daioh
Tags:Cake of Mishearing, lemones, lemons
BeatmapID:485046
BeatmapSetID:205538

[Difficulty]
HPDrainRate:2
CircleSize:2.5
OverallDifficulty:2
ApproachRate:3
SliderMultiplier:0.800000005960464
SliderTickRate:1

[Events]
//Background and Video events
0,0,"BG.jpg",0,0
//Break Periods
//Storyboard Layer 0 (Background)
//Storyboard Layer 1 (Fail)
//Storyboard Layer 2 (Pass)
//Storyboard Layer 3 (Foreground)
//Storyboard Sound Samples

[TimingPoints]
549,444.444444444444,4,1,0,100,1,0
17882,-133.333333333333,4,1,0,100,0,0
31327,-100,4,1,0,100,0,0
46216,-133.333333333333,4,1,0,100,0,0
60882,-100,4,1,0,100,0,1
90104,-133.333333333333,4,1,0,100,0,0

[HitObjects]
165,151,549,6,0,B|271:93|271:93|386:152,1,240.000001788139
368,240,2327,6,4,B|262:298|262:298|164:252,1,200.000001490116
80,176,4105,5,4,0:0:0:0:
272,128,4993,1,0,0:0:0:0:
464,176,5882,6,0,B|464:272|464:272|368:336|368:336|256:336,1,320.000002384186
80,240,8549,5,0,0:0:0:0:
208,96,9438,6,0,B|240:144|272:80|272:80|320:112|320:112|352:288,1,320.000002384186,0|4,0:0|0:0,0:0:0:0:
160,320,12104,5,0,0:0:0:0:
0,208,12993,6,0,B|0:128|0:128|48:64|48:64|221:65,1,320.000002384186
400,48,15660,5,0,0:0:0:0:
400,240,16549,6,0,B|288:256|320:256,1,80.0000005960464
320,160,17438,2,6,L|160:112,1,160.000001192093,2|6,0:0|0:0,0:0:0:0:
32,80,19216,5,0,0:0:0:0:
126,188,20104,2,0,P|171:217|196:116,1,180.00000820756,0|2,0:0|0:0,0:0:0:0:
148,96,21882,5,2,0:0:0:0:
292,96,22771,1,0,0:0:0:0:
339,231,23660,1,4,0:0:0:0:
340,231,24104,1,0,0:0:0:0:
340,231,24549,1,4,0:0:0:0:
340,231,24993,1,0,0:0:0:0:
337,303,25438,6,0,B|273:303|273:303|225:271,1,120.000005471707,4|0,0:0|0:0,0:0:0:0:
128,192,27216,6,0,B|128:160|128:160|144:128,1,60.0000027358533
192,80,28104,2,0,B|240:48|240:48|304:48,1,120.000005471707
432,96,29882,5,0,0:0:0:0:
384,240,30771,6,0,L|352:304,1,60.0000027358533
272,336,31660,2,0,B|176:336|176:336|128:272,1,160.000001192093,0|4,0:0|0:0,0:0:0:0:
32,128,33438,5,0,0:0:0:0:
224,96,34327,6,0,B|299:81|299:81|334:157|334:157|416:144|416:144|438:222,1,320.000002384186
272,304,36993,5,0,0:0:0:0:
112,192,37882,6,0,B|80:112|80:112|144:64|224:144|224:144|272:80,1,320.000002384186,0|4,0:0|0:0,0:0:0:0:
448,160,40549,5,0,0:0:0:0:
304,272,41438,6,0,B|224:287|224:287|192:208|192:208|112:224|112:224|96:152,1,320.000002384186,0|4,0:0|0:0,0:0:0:0:
256,64,44104,5,0,0:0:0:0:
400,192,44993,6,4,L|304:288,1,120.00000089407
224,288,46104,1,0,0:0:0:0:
208,192,46771,6,0,B|176:128|176:128|208:80,1,120.000005471707,6|0,0:0|0:0,0:0:0:0:
352,80,48549,6,0,B|384:144|384:144|336:256,1,180.00000820756,0|2,0:0|0:0,0:0:0:0:
272,272,50327,6,2,B|208:288|208:288|144:272,1,120.000005471707
178,132,52104,1,4,0:0:0:0:
178,132,52549,1,0,0:0:0:0:
178,132,52993,1,4,0:0:0:0:
178,132,53438,1,0,0:0:0:0:
205,198,53882,6,0,B|285:198|285:198|317:166,1,120.000005471707
257,36,55660,5,0,0:0:0:0:
160,160,56549,2,0,B|112:208|112:208|128:272,1,120.000005471707
256,320,58327,1,0,0:0:0:0:
336,192,59216,6,0,L|304:256,1,60.0000027358533
240,256,60104,2,8,B|192:224|192:224|131:239,1,120.000005471707,8|14,0:0|0:0,0:0:0:0:
48,208,61438,6,6,P|32:192|32:128,1,80.0000005960464
80,64,62327,2,0,P|128:48|160:48,1,80.0000005960464
240,96,63216,6,0,P|256:144|256:176,1,80.0000005960464
304,256,64104,2,2,L|336:336,2,80.0000005960464,6|2|6,0:0|0:0|0:0,0:0:0:0:
256,176,65438,5,0,0:0:0:0:
192,112,65882,2,0,B|144:160|144:160|144:256,1,160.000001192093
64,320,67216,6,2,L|0:384,2,80.0000005960464,6|2|2,0:0|0:0|0:0,0:0:0:0:
128,256,68549,6,0,P|176:208|272:176,1,160.000001192093
352,160,69882,5,0,0:0:0:0:
416,224,70327,2,0,B|352:304|352:304|208:272,1,240.000001788139
128,240,72105,6,0,B|160:160|160:160|304:96,1,240.000001788139
384,128,73882,2,2,L|448:192,2,80.0000005960464,6|2|2,0:0|0:0|0:0,0:0:0:0:
288,144,75216,6,0,L|288:224,1,80.0000005960464
208,288,76105,2,0,P|160:304|128:288,1,80.0000005960464
64,240,76993,6,2,L|0:176,2,80.0000005960464,6|2|6,0:0|0:0|0:0,0:0:0:0:
144,288,78327,1,0,0:0:0:0:
208,224,78771,6,0,B|256:176|256:176|352:176,1,160.000001192093
432,176,80104,6,2,L|528:176,2,80.0000005960464,6|2|2,0:0|0:0|0:0,0:0:0:0:
336,176,81438,5,0,0:0:0:0:
256,128,81882,2,0,B|208:96|208:96|128:160,1,160.000001192093
176,240,83216,6,0,P|240:272|256:288,1,80.0000005960464,4|0,0:0|0:0,0:0:0:0:
336,240,84105,2,0,P|304:192|272:176,1,80.0000005960464
224,112,84993,2,4,P|192:80|160:64,1,80.0000005960464
80,128,85882,2,4,P|116:144|143:173,1,80.0000005960464
224,240,86771,6,4,L|352:240,1,120.00000089407
336,96,88104,6,4,L|208:96,2,120.00000089407
432,96,89882,1,4,0:0:0:0:
