osu file format v14

[General]
AudioFilename: Yee.mp3
AudioLeadIn: 0
PreviewTime: -1
Countdown: 0
SampleSet: Normal
StackLeniency: 0.7
Mode: 3
LetterboxInBreaks: 1
SpecialStyle: 0
WidescreenStoryboard: 1

[Editor]
DistanceSpacing: 0.9
BeatDivisor: 4
GridSize: 8
TimelineZoom: 1

[Metadata]
Title:Yee Remix
TitleUnicode:Yee Remix
Artist:Orange Wolke
ArtistUnicode:Orange Wolke
Creator:_FrEsH_ChICkEn_
Version:7K YEEXHAUST
Source:dinosaur adventure
Tags:
BeatmapID:645659
BeatmapSetID:285933

[Difficulty]
HPDrainRate:8
CircleSize:7
OverallDifficulty:8
ApproachRate:5
SliderMultiplier:1.4
SliderTickRate:1

[Events]
//Background and Video events
0,0,"yee.jpg",0,0
Video,0,"Yee.avi"
//Break Periods
//Storyboard Layer 0 (Background)
//Storyboard Layer 1 (Fail)
//Storyboard Layer 2 (Pass)
//Storyboard Layer 3 (Foreground)
//Storyboard Sound Samples

[TimingPoints]
100,-100,4,1,0,0,0,0
8950,468.75,4,1,0,0,1,0
8950,-100,4,1,0,0,0,0
55825,-100,4,1,0,0,0,1

[HitObjects]
329,192,8950,5,8,0:0:0:0:
182,192,8950,1,8,0:0:0:0:
329,192,9418,1,8,0:0:0:0:
182,192,9418,1,8,0:0:0:0:
329,192,9887,1,8,0:0:0:0:
182,192,9887,1,8,0:0:0:0:
329,192,10356,1,8,0:0:0:0:
182,192,10356,1,8,0:0:0:0:
329,192,10825,1,8,0:0:0:0:
182,192,10825,1,8,0:0:0:0:
329,192,11293,1,8,0:0:0:0:
182,192,11293,1,8,0:0:0:0:
329,192,11762,1,8,0:0:0:0:
182,192,11762,1,8,0:0:0:0:
329,192,12231,1,8,0:0:0:0:
182,192,12231,1,8,0:0:0:0:
402,192,12700,1,8,0:0:0:0:
256,192,12700,1,8,0:0:0:0:
256,192,13168,1,8,0:0:0:0:
402,192,13168,1,8,0:0:0:0:
256,192,13637,1,8,0:0:0:0:
402,192,13637,1,8,0:0:0:0:
256,192,14106,1,8,0:0:0:0:
402,192,14106,1,8,0:0:0:0:
256,192,14575,1,8,0:0:0:0:
402,192,14575,1,0,0:0:0:0:
256,192,15043,1,8,0:0:0:0:
402,192,15043,1,0,0:0:0:0:
256,192,15512,1,8,0:0:0:0:
402,192,15512,1,0,0:0:0:0:
329,192,15981,128,0,16450:0:0:0:0:
182,192,15981,128,0,16450:0:0:0:0:
109,192,16450,1,8,0:0:0:0:
36,192,16450,1,8,0:0:0:0:
256,192,16450,1,8,0:0:0:0:
109,192,16918,1,8,0:0:0:0:
256,192,16918,1,8,0:0:0:0:
256,192,17387,1,8,0:0:0:0:
109,192,17387,1,8,0:0:0:0:
256,192,17856,1,8,0:0:0:0:
109,192,17856,1,8,0:0:0:0:
402,192,18325,1,8,0:0:0:0:
109,192,18325,1,8,0:0:0:0:
109,192,18793,1,8,0:0:0:0:
402,192,18793,1,8,0:0:0:0:
109,192,19262,1,8,0:0:0:0:
402,192,19262,1,8,0:0:0:0:
109,192,19731,1,8,0:0:0:0:
402,192,19731,1,8,0:0:0:0:
475,192,20200,1,8,0:0:0:0:
36,192,20200,1,8,0:0:0:0:
475,192,20668,1,8,0:0:0:0:
36,192,20668,1,8,0:0:0:0:
475,192,21137,1,8,0:0:0:0:
36,192,21137,1,8,0:0:0:0:
475,192,21606,1,8,0:0:0:0:
36,192,21606,1,8,0:0:0:0:
256,192,22075,1,12,0:0:0:0:
256,192,22543,1,12,0:0:0:0:
256,192,23012,1,12,0:0:0:0:
256,192,23481,128,0,23950:0:0:0:0:
329,192,23950,128,4,24184:0:0:0:0:
402,192,24184,1,4,0:0:0:0:
182,192,24418,128,4,24653:0:0:0:0:
109,192,24653,1,4,0:0:0:0:
329,192,24887,128,4,25121:0:0:0:0:
402,192,25121,1,4,0:0:0:0:
182,192,25356,128,4,25590:0:0:0:0:
109,192,25590,1,4,0:0:0:0:
475,192,25825,128,0,26293:0:0:0:0:
329,192,25825,128,0,26293:0:0:0:0:
402,192,26293,128,0,26762:0:0:0:0:
256,192,26293,128,0,26762:0:0:0:0:
329,192,26762,128,0,27231:0:0:0:0:
182,192,26762,128,0,27231:0:0:0:0:
109,192,27231,128,0,27700:0:0:0:0:
256,192,27231,128,0,27700:0:0:0:0:
36,192,27700,128,0,28168:0:0:0:0:
182,192,27700,128,0,28168:0:0:0:0:
109,192,28168,128,0,28637:0:0:0:0:
256,192,28168,128,0,28637:0:0:0:0:
182,192,28637,128,0,29106:0:0:0:0:
329,192,28637,128,0,29106:0:0:0:0:
256,192,29106,128,0,29575:0:0:0:0:
402,192,29106,128,0,29575:0:0:0:0:
329,192,29575,128,0,30043:0:0:0:0:
475,192,29575,128,0,30043:0:0:0:0:
402,192,30043,128,0,30512:0:0:0:0:
256,192,30043,128,0,30512:0:0:0:0:
329,192,30512,128,0,30981:0:0:0:0:
182,192,30512,128,0,30981:0:0:0:0:
256,192,30981,128,0,31450:0:0:0:0:
109,192,30981,128,0,31450:0:0:0:0:
182,192,31450,128,0,31918:0:0:0:0:
475,192,31450,1,0,0:0:0:0:
256,192,31918,128,0,32387:0:0:0:0:
475,192,31918,1,0,0:0:0:0:
329,192,32387,128,0,32856:0:0:0:0:
475,192,32387,1,0,0:0:0:0:
402,192,32856,128,0,33325:0:0:0:0:
475,192,32856,1,0,0:0:0:0:
36,192,33325,128,0,33793:0:0:0:0:
475,192,33325,1,0,0:0:0:0:
109,192,33793,128,0,34262:0:0:0:0:
475,192,33793,1,0,0:0:0:0:
182,192,34262,128,0,34731:0:0:0:0:
475,192,34262,1,0,0:0:0:0:
402,192,34262,128,0,34496:0:0:0:0:
256,192,34731,128,0,35200:0:0:0:0:
475,192,34731,1,0,0:0:0:0:
402,192,34731,128,0,34965:0:0:0:0:
36,192,35200,1,0,0:0:0:0:
475,192,35200,128,0,35668:0:0:0:0:
36,192,35668,1,0,0:0:0:0:
402,192,35668,128,0,36137:0:0:0:0:
36,192,36137,1,0,0:0:0:0:
329,192,36137,128,0,36606:0:0:0:0:
36,192,36606,1,0,0:0:0:0:
256,192,36606,128,0,37075:0:0:0:0:
36,192,37075,1,0,0:0:0:0:
475,192,37075,128,0,37543:0:0:0:0:
36,192,37543,1,0,0:0:0:0:
402,192,37543,128,0,38012:0:0:0:0:
36,192,38012,128,0,38246:0:0:0:0:
329,192,38012,128,0,38481:0:0:0:0:
36,192,38481,128,0,38715:0:0:0:0:
256,192,38481,128,0,38950:0:0:0:0:
402,192,38950,1,0,0:0:0:0:
109,192,38950,1,0,0:0:0:0:
329,192,39067,1,0,0:0:0:0:
402,192,39184,1,0,0:0:0:0:
329,192,39301,1,0,0:0:0:0:
109,192,39418,1,0,0:0:0:0:
256,192,39418,1,0,0:0:0:0:
329,192,39535,1,0,0:0:0:0:
256,192,39653,1,0,0:0:0:0:
329,192,39770,1,0,0:0:0:0:
109,192,39887,1,0,0:0:0:0:
475,192,39887,1,0,0:0:0:0:
329,192,40004,1,0,0:0:0:0:
475,192,40121,1,0,0:0:0:0:
329,192,40239,1,0,0:0:0:0:
109,192,40356,1,0,0:0:0:0:
402,192,40356,1,0,0:0:0:0:
256,192,40473,1,0,0:0:0:0:
402,192,40590,1,0,0:0:0:0:
256,192,40707,1,0,0:0:0:0:
36,192,40825,1,0,0:0:0:0:
329,192,40825,1,0,0:0:0:0:
475,192,40942,1,0,0:0:0:0:
329,192,41059,1,0,0:0:0:0:
475,192,41176,1,0,0:0:0:0:
36,192,41293,1,0,0:0:0:0:
402,192,41293,1,0,0:0:0:0:
256,192,41410,1,0,0:0:0:0:
402,192,41528,1,0,0:0:0:0:
256,192,41645,1,0,0:0:0:0:
36,192,41762,128,0,41996:0:0:0:0:
475,192,41762,1,0,0:0:0:0:
402,192,41879,1,0,0:0:0:0:
329,192,41996,1,0,0:0:0:0:
256,192,42114,1,0,0:0:0:0:
36,192,42231,128,0,42465:0:0:0:0:
475,192,42231,1,0,0:0:0:0:
402,192,42348,1,0,0:0:0:0:
329,192,42465,1,0,0:0:0:0:
256,192,42582,1,0,0:0:0:0:
475,192,42700,1,0,0:0:0:0:
109,192,42700,1,0,0:0:0:0:
182,192,42817,1,0,0:0:0:0:
256,192,42934,1,0,0:0:0:0:
329,192,43051,1,0,0:0:0:0:
475,192,43168,1,0,0:0:0:0:
36,192,43168,1,0,0:0:0:0:
109,192,43285,1,0,0:0:0:0:
182,192,43403,1,0,0:0:0:0:
256,192,43520,1,0,0:0:0:0:
475,192,43637,1,0,0:0:0:0:
109,192,43637,1,0,0:0:0:0:
182,192,43754,1,0,0:0:0:0:
256,192,43871,1,0,0:0:0:0:
329,192,43989,1,0,0:0:0:0:
475,192,44106,1,0,0:0:0:0:
182,192,44106,1,0,0:0:0:0:
36,192,44223,1,0,0:0:0:0:
182,192,44340,1,0,0:0:0:0:
36,192,44457,1,0,0:0:0:0:
475,192,44575,1,0,0:0:0:0:
109,192,44575,1,0,0:0:0:0:
256,192,44692,1,0,0:0:0:0:
109,192,44809,1,0,0:0:0:0:
256,192,44926,1,0,0:0:0:0:
475,192,45043,1,0,0:0:0:0:
36,192,45043,1,0,0:0:0:0:
256,192,45160,1,0,0:0:0:0:
36,192,45278,1,0,0:0:0:0:
256,192,45395,1,0,0:0:0:0:
475,192,45512,128,0,45746:0:0:0:0:
109,192,45512,1,0,0:0:0:0:
182,192,45629,1,0,0:0:0:0:
109,192,45746,1,0,0:0:0:0:
182,192,45864,1,0,0:0:0:0:
475,192,45981,128,0,46215:0:0:0:0:
36,192,45981,1,0,0:0:0:0:
109,192,46098,1,0,0:0:0:0:
36,192,46215,1,0,0:0:0:0:
109,192,46332,1,0,0:0:0:0:
402,192,46450,1,0,0:0:0:0:
329,192,46450,1,0,0:0:0:0:
256,192,46450,1,0,0:0:0:0:
182,192,46567,1,0,0:0:0:0:
109,192,46684,1,0,0:0:0:0:
36,192,46801,1,0,0:0:0:0:
109,192,46918,1,0,0:0:0:0:
182,192,46918,1,0,0:0:0:0:
256,192,46918,1,0,0:0:0:0:
329,192,47035,1,0,0:0:0:0:
402,192,47153,1,0,0:0:0:0:
475,192,47270,1,0,0:0:0:0:
402,192,47387,1,0,0:0:0:0:
329,192,47387,1,0,0:0:0:0:
256,192,47387,1,0,0:0:0:0:
182,192,47504,1,0,0:0:0:0:
109,192,47621,1,0,0:0:0:0:
36,192,47739,1,0,0:0:0:0:
109,192,47856,1,0,0:0:0:0:
182,192,47856,1,0,0:0:0:0:
256,192,47973,1,0,0:0:0:0:
329,192,48090,1,0,0:0:0:0:
402,192,48207,1,0,0:0:0:0:
475,192,48325,1,0,0:0:0:0:
329,192,48325,1,0,0:0:0:0:
402,192,48442,1,0,0:0:0:0:
329,192,48559,1,0,0:0:0:0:
256,192,48676,1,0,0:0:0:0:
182,192,48793,1,0,0:0:0:0:
109,192,48793,1,0,0:0:0:0:
36,192,48910,1,0,0:0:0:0:
109,192,49028,1,0,0:0:0:0:
182,192,49145,1,0,0:0:0:0:
256,192,49262,1,0,0:0:0:0:
329,192,49262,1,0,0:0:0:0:
36,192,49262,128,0,49496:0:0:0:0:
402,192,49379,1,0,0:0:0:0:
475,192,49496,1,0,0:0:0:0:
402,192,49614,1,0,0:0:0:0:
329,192,49731,1,0,0:0:0:0:
256,192,49731,1,0,0:0:0:0:
36,192,49731,128,0,49965:0:0:0:0:
182,192,49848,1,0,0:0:0:0:
109,192,49965,1,0,0:0:0:0:
182,192,50082,1,0,0:0:0:0:
256,192,50200,1,0,0:0:0:0:
402,192,50200,1,0,0:0:0:0:
329,192,50434,1,0,0:0:0:0:
182,192,50434,1,0,0:0:0:0:
256,192,50668,1,0,0:0:0:0:
402,192,50668,1,0,0:0:0:0:
329,192,50903,1,0,0:0:0:0:
182,192,50903,1,0,0:0:0:0:
109,192,51137,1,0,0:0:0:0:
256,192,51137,1,0,0:0:0:0:
182,192,51371,1,0,0:0:0:0:
329,192,51371,1,0,0:0:0:0:
109,192,51606,1,0,0:0:0:0:
256,192,51606,1,0,0:0:0:0:
182,192,51840,1,0,0:0:0:0:
329,192,51840,1,0,0:0:0:0:
256,192,52075,1,0,0:0:0:0:
329,192,52192,1,0,0:0:0:0:
182,192,52192,1,0,0:0:0:0:
402,192,52309,1,0,0:0:0:0:
109,192,52309,1,0,0:0:0:0:
475,192,52426,1,0,0:0:0:0:
36,192,52426,1,0,0:0:0:0:
256,192,52543,1,0,0:0:0:0:
329,192,52660,1,0,0:0:0:0:
182,192,52660,1,0,0:0:0:0:
402,192,52778,1,0,0:0:0:0:
109,192,52778,1,0,0:0:0:0:
475,192,52895,1,0,0:0:0:0:
36,192,52895,1,0,0:0:0:0:
475,192,53012,1,0,0:0:0:0:
402,192,53071,1,0,0:0:0:0:
329,192,53129,1,0,0:0:0:0:
256,192,53188,1,0,0:0:0:0:
182,192,53246,1,0,0:0:0:0:
109,192,53305,1,0,0:0:0:0:
36,192,53364,1,0,0:0:0:0:
475,192,53422,1,0,0:0:0:0:
402,192,53481,1,0,0:0:0:0:
329,192,53539,1,0,0:0:0:0:
256,192,53598,1,0,0:0:0:0:
182,192,53657,1,0,0:0:0:0:
109,192,53715,128,0,53950:0:0:0:0:
329,192,53950,1,0,0:0:0:0:
402,192,53950,1,0,0:0:0:0:
329,192,54184,1,0,0:0:0:0:
402,192,54184,1,0,0:0:0:0:
329,192,54301,1,0,0:0:0:0:
402,192,54301,1,0,0:0:0:0:
256,192,54535,1,0,0:0:0:0:
256,192,54653,1,0,0:0:0:0:
256,192,54770,1,0,0:0:0:0:
182,192,54887,1,0,0:0:0:0:
182,192,55121,1,0,0:0:0:0:
182,192,55239,1,0,0:0:0:0:
256,192,55356,1,0,0:0:0:0:
329,192,55356,1,0,0:0:0:0:
402,192,55356,1,0,0:0:0:0:
109,192,55356,1,0,0:0:0:0:
475,192,55825,1,0,0:0:0:0:
36,192,55825,1,0,0:0:0:0:
475,192,56059,1,0,0:0:0:0:
36,192,56059,1,0,0:0:0:0:
475,192,56176,1,0,0:0:0:0:
36,192,56176,1,0,0:0:0:0:
402,192,56293,1,0,0:0:0:0:
109,192,56293,1,0,0:0:0:0:
256,192,56410,1,0,0:0:0:0:
256,192,56528,1,0,0:0:0:0:
256,192,56645,1,0,0:0:0:0:
402,192,56762,1,0,0:0:0:0:
182,192,56762,1,0,0:0:0:0:
36,192,56762,1,0,0:0:0:0:
475,192,56762,1,0,0:0:0:0:
402,192,56996,1,0,0:0:0:0:
182,192,56996,1,0,0:0:0:0:
402,192,57114,1,0,0:0:0:0:
182,192,57114,1,0,0:0:0:0:
329,192,57231,1,0,0:0:0:0:
36,192,57231,1,0,0:0:0:0:
256,192,57348,1,0,0:0:0:0:
475,192,57348,1,0,0:0:0:0:
256,192,57465,1,0,0:0:0:0:
475,192,57465,1,0,0:0:0:0:
256,192,57582,1,0,0:0:0:0:
475,192,57582,1,0,0:0:0:0:
182,192,57700,1,0,0:0:0:0:
36,192,57700,1,0,0:0:0:0:
402,192,57700,1,0,0:0:0:0:
329,192,57700,1,0,0:0:0:0:
182,192,57934,1,0,0:0:0:0:
36,192,57934,1,0,0:0:0:0:
182,192,58051,1,0,0:0:0:0:
36,192,58051,1,0,0:0:0:0:
402,192,58168,1,0,0:0:0:0:
475,192,58168,1,0,0:0:0:0:
329,192,58285,1,0,0:0:0:0:
109,192,58285,1,0,0:0:0:0:
329,192,58403,1,0,0:0:0:0:
109,192,58403,1,0,0:0:0:0:
329,192,58520,1,0,0:0:0:0:
109,192,58520,1,0,0:0:0:0:
402,192,58637,1,0,0:0:0:0:
475,192,58637,1,0,0:0:0:0:
182,192,58637,1,0,0:0:0:0:
36,192,58637,1,0,0:0:0:0:
256,192,58754,1,0,0:0:0:0:
402,192,58871,1,0,0:0:0:0:
475,192,58871,1,0,0:0:0:0:
256,192,58989,1,0,0:0:0:0:
475,192,59106,1,0,0:0:0:0:
36,192,59106,1,0,0:0:0:0:
402,192,59223,1,0,0:0:0:0:
329,192,59223,1,0,0:0:0:0:
402,192,59340,1,0,0:0:0:0:
329,192,59340,1,0,0:0:0:0:
402,192,59457,1,0,0:0:0:0:
329,192,59457,1,0,0:0:0:0:
36,192,59575,1,0,0:0:0:0:
256,192,59575,1,0,0:0:0:0:
182,192,59575,1,0,0:0:0:0:
36,192,59809,1,0,0:0:0:0:
36,192,59926,1,0,0:0:0:0:
256,192,60043,1,0,0:0:0:0:
109,192,60043,1,0,0:0:0:0:
182,192,60160,1,0,0:0:0:0:
182,192,60278,1,0,0:0:0:0:
182,192,60395,1,0,0:0:0:0:
329,192,60512,1,0,0:0:0:0:
402,192,60512,1,0,0:0:0:0:
475,192,60746,1,0,0:0:0:0:
36,192,60746,1,0,0:0:0:0:
475,192,60864,1,0,0:0:0:0:
36,192,60864,1,0,0:0:0:0:
329,192,60981,1,0,0:0:0:0:
256,192,60981,1,0,0:0:0:0:
182,192,60981,1,0,0:0:0:0:
402,192,61098,1,0,0:0:0:0:
109,192,61098,1,0,0:0:0:0:
402,192,61215,1,0,0:0:0:0:
109,192,61215,1,0,0:0:0:0:
402,192,61332,1,0,0:0:0:0:
109,192,61332,1,0,0:0:0:0:
329,192,61450,1,0,0:0:0:0:
182,192,61450,1,0,0:0:0:0:
329,192,61684,1,0,0:0:0:0:
182,192,61684,1,0,0:0:0:0:
329,192,61801,1,0,0:0:0:0:
182,192,61801,1,0,0:0:0:0:
402,192,61918,1,0,0:0:0:0:
256,192,61918,1,0,0:0:0:0:
109,192,61918,1,0,0:0:0:0:
329,192,62035,1,0,0:0:0:0:
182,192,62035,1,0,0:0:0:0:
329,192,62153,1,0,0:0:0:0:
182,192,62153,1,0,0:0:0:0:
329,192,62270,1,0,0:0:0:0:
182,192,62270,1,0,0:0:0:0:
475,192,62387,1,0,0:0:0:0:
36,192,62387,1,0,0:0:0:0:
475,192,62621,1,0,0:0:0:0:
36,192,62621,1,0,0:0:0:0:
475,192,62739,1,0,0:0:0:0:
36,192,62739,1,0,0:0:0:0:
256,192,62856,128,0,63325:0:0:0:0:
329,192,62856,1,0,0:0:0:0:
182,192,62856,1,0,0:0:0:0:
475,192,63325,1,0,0:0:0:0:
329,192,63325,1,0,0:0:0:0:
475,192,63559,1,0,0:0:0:0:
329,192,63559,1,0,0:0:0:0:
475,192,63676,1,0,0:0:0:0:
329,192,63676,1,0,0:0:0:0:
182,192,63793,1,0,0:0:0:0:
36,192,63793,1,0,0:0:0:0:
402,192,63910,1,0,0:0:0:0:
256,192,63910,1,0,0:0:0:0:
402,192,64028,1,0,0:0:0:0:
256,192,64028,1,0,0:0:0:0:
402,192,64145,1,0,0:0:0:0:
256,192,64145,1,0,0:0:0:0:
36,192,64262,1,0,0:0:0:0:
182,192,64262,1,0,0:0:0:0:
36,192,64496,1,0,0:0:0:0:
182,192,64496,1,0,0:0:0:0:
36,192,64614,1,0,0:0:0:0:
182,192,64614,1,0,0:0:0:0:
329,192,64731,1,0,0:0:0:0:
475,192,64731,1,0,0:0:0:0:
109,192,64848,1,0,0:0:0:0:
256,192,64848,1,0,0:0:0:0:
109,192,64965,1,0,0:0:0:0:
256,192,64965,1,0,0:0:0:0:
109,192,65082,1,0,0:0:0:0:
256,192,65082,1,0,0:0:0:0:
402,192,65200,1,0,0:0:0:0:
182,192,65200,1,0,0:0:0:0:
182,192,65434,1,0,0:0:0:0:
402,192,65434,1,0,0:0:0:0:
402,192,65551,1,0,0:0:0:0:
182,192,65551,1,0,0:0:0:0:
256,192,65668,1,0,0:0:0:0:
329,192,65668,1,0,0:0:0:0:
182,192,65785,1,0,0:0:0:0:
36,192,65785,1,0,0:0:0:0:
182,192,65903,1,0,0:0:0:0:
36,192,65903,1,0,0:0:0:0:
182,192,66020,1,0,0:0:0:0:
36,192,66020,1,0,0:0:0:0:
256,192,66137,1,0,0:0:0:0:
256,192,66254,1,0,0:0:0:0:
256,192,66489,1,0,0:0:0:0:
329,192,66723,1,0,0:0:0:0:
329,192,66840,1,0,0:0:0:0:
329,192,66957,1,0,0:0:0:0:
256,192,67075,1,0,0:0:0:0:
182,192,67075,1,0,0:0:0:0:
256,192,67309,1,0,0:0:0:0:
182,192,67309,1,0,0:0:0:0:
256,192,67426,1,0,0:0:0:0:
182,192,67426,1,0,0:0:0:0:
329,192,67543,1,0,0:0:0:0:
109,192,67543,1,0,0:0:0:0:
402,192,67660,1,0,0:0:0:0:
36,192,67660,1,0,0:0:0:0:
402,192,67778,1,0,0:0:0:0:
36,192,67778,1,0,0:0:0:0:
402,192,67895,1,0,0:0:0:0:
36,192,67895,1,0,0:0:0:0:
329,192,68012,1,0,0:0:0:0:
475,192,68012,1,0,0:0:0:0:
329,192,68246,1,0,0:0:0:0:
475,192,68246,1,0,0:0:0:0:
329,192,68364,1,0,0:0:0:0:
475,192,68364,1,0,0:0:0:0:
402,192,68481,1,0,0:0:0:0:
256,192,68481,1,0,0:0:0:0:
109,192,68598,1,0,0:0:0:0:
182,192,68598,1,0,0:0:0:0:
109,192,68715,1,0,0:0:0:0:
182,192,68715,1,0,0:0:0:0:
109,192,68832,1,0,0:0:0:0:
182,192,68832,1,0,0:0:0:0:
256,192,68950,1,0,0:0:0:0:
329,192,68950,1,0,0:0:0:0:
256,192,69184,1,0,0:0:0:0:
329,192,69184,1,0,0:0:0:0:
256,192,69301,1,0,0:0:0:0:
329,192,69301,1,0,0:0:0:0:
402,192,69418,1,0,0:0:0:0:
182,192,69418,1,0,0:0:0:0:
256,192,69535,1,0,0:0:0:0:
329,192,69535,1,0,0:0:0:0:
256,192,69653,1,0,0:0:0:0:
329,192,69653,1,0,0:0:0:0:
256,192,69770,1,0,0:0:0:0:
329,192,69770,1,0,0:0:0:0:
402,192,69887,1,0,0:0:0:0:
402,192,70121,1,0,0:0:0:0:
402,192,70239,1,0,0:0:0:0:
402,192,70356,128,0,70825:0:0:0:0:
36,192,70825,1,0,0:0:0:0:
475,192,70825,1,0,0:0:0:0:
256,192,70825,1,0,0:0:0:0:
475,192,71059,1,0,0:0:0:0:
256,192,71059,1,0,0:0:0:0:
475,192,71176,1,0,0:0:0:0:
256,192,71176,1,0,0:0:0:0:
36,192,71293,1,0,0:0:0:0:
329,192,71410,1,0,0:0:0:0:
402,192,71410,1,0,0:0:0:0:
329,192,71528,1,0,0:0:0:0:
402,192,71528,1,0,0:0:0:0:
329,192,71645,1,0,0:0:0:0:
402,192,71645,1,0,0:0:0:0:
36,192,71762,1,0,0:0:0:0:
256,192,71762,1,0,0:0:0:0:
182,192,71762,1,0,0:0:0:0:
256,192,71996,1,0,0:0:0:0:
182,192,71996,1,0,0:0:0:0:
256,192,72114,1,0,0:0:0:0:
182,192,72114,1,0,0:0:0:0:
36,192,72231,1,0,0:0:0:0:
329,192,72348,1,0,0:0:0:0:
475,192,72348,1,0,0:0:0:0:
329,192,72465,1,0,0:0:0:0:
475,192,72465,1,0,0:0:0:0:
329,192,72582,1,0,0:0:0:0:
475,192,72582,1,0,0:0:0:0:
36,192,72700,1,0,0:0:0:0:
402,192,72700,1,0,0:0:0:0:
402,192,72934,1,0,0:0:0:0:
402,192,73051,1,0,0:0:0:0:
36,192,73168,1,0,0:0:0:0:
182,192,73285,1,0,0:0:0:0:
475,192,73285,1,0,0:0:0:0:
182,192,73403,1,0,0:0:0:0:
475,192,73403,1,0,0:0:0:0:
182,192,73520,1,0,0:0:0:0:
475,192,73520,1,0,0:0:0:0:
36,192,73637,1,0,0:0:0:0:
329,192,73637,1,0,0:0:0:0:
402,192,73637,1,0,0:0:0:0:
329,192,73754,1,0,0:0:0:0:
475,192,73754,1,0,0:0:0:0:
329,192,73989,1,0,0:0:0:0:
36,192,74106,1,0,0:0:0:0:
402,192,74223,1,0,0:0:0:0:
475,192,74223,1,0,0:0:0:0:
402,192,74340,1,0,0:0:0:0:
475,192,74340,1,0,0:0:0:0:
402,192,74457,1,0,0:0:0:0:
475,192,74457,1,0,0:0:0:0:
36,192,74575,1,0,0:0:0:0:
182,192,74575,1,0,0:0:0:0:
329,192,74575,1,0,0:0:0:0:
182,192,74809,1,0,0:0:0:0:
329,192,74809,1,0,0:0:0:0:
182,192,74926,1,0,0:0:0:0:
329,192,74926,1,0,0:0:0:0:
36,192,75043,1,0,0:0:0:0:
329,192,75160,1,0,0:0:0:0:
329,192,75278,1,0,0:0:0:0:
329,192,75395,1,0,0:0:0:0:
36,192,75512,1,0,0:0:0:0:
256,192,75512,1,0,0:0:0:0:
256,192,75746,1,0,0:0:0:0:
256,192,75864,1,0,0:0:0:0:
36,192,75981,1,0,0:0:0:0:
475,192,76098,1,0,0:0:0:0:
475,192,76215,1,0,0:0:0:0:
475,192,76332,1,0,0:0:0:0:
36,192,76450,1,0,0:0:0:0:
329,192,76450,1,0,0:0:0:0:
329,192,76684,1,0,0:0:0:0:
329,192,76801,1,0,0:0:0:0:
36,192,76918,1,0,0:0:0:0:
402,192,77035,1,0,0:0:0:0:
256,192,77035,1,0,0:0:0:0:
402,192,77153,1,0,0:0:0:0:
256,192,77153,1,0,0:0:0:0:
402,192,77270,1,0,0:0:0:0:
256,192,77270,1,0,0:0:0:0:
36,192,77387,1,0,0:0:0:0:
329,192,77387,1,0,0:0:0:0:
329,192,77621,1,0,0:0:0:0:
329,192,77739,1,0,0:0:0:0:
475,192,77856,128,0,78325:0:0:0:0:
36,192,77856,128,0,78325:0:0:0:0:
256,192,78325,1,0,0:0:0:0:
402,192,78325,1,0,0:0:0:0:
402,192,78559,1,0,0:0:0:0:
402,192,78676,1,0,0:0:0:0:
256,192,78793,1,0,0:0:0:0:
36,192,78910,1,0,0:0:0:0:
36,192,79028,1,0,0:0:0:0:
36,192,79145,1,0,0:0:0:0:
256,192,79262,1,0,0:0:0:0:
475,192,79262,1,0,0:0:0:0:
475,192,79496,1,0,0:0:0:0:
475,192,79614,1,0,0:0:0:0:
256,192,79731,1,0,0:0:0:0:
402,192,79848,1,0,0:0:0:0:
402,192,79965,1,0,0:0:0:0:
402,192,80082,1,0,0:0:0:0:
256,192,80200,1,0,0:0:0:0:
109,192,80200,1,0,0:0:0:0:
109,192,80434,1,0,0:0:0:0:
109,192,80551,1,0,0:0:0:0:
256,192,80668,1,0,0:0:0:0:
182,192,80785,1,0,0:0:0:0:
182,192,80903,1,0,0:0:0:0:
182,192,81020,1,0,0:0:0:0:
256,192,81137,1,0,0:0:0:0:
402,192,81137,1,0,0:0:0:0:
475,192,81254,1,0,0:0:0:0:
475,192,81489,1,0,0:0:0:0:
256,192,81606,1,0,0:0:0:0:
402,192,81723,1,0,0:0:0:0:
402,192,81840,1,0,0:0:0:0:
402,192,81957,1,0,0:0:0:0:
256,192,82075,1,0,0:0:0:0:
36,192,82075,1,0,0:0:0:0:
36,192,82309,1,0,0:0:0:0:
36,192,82426,1,0,0:0:0:0:
256,192,82543,1,0,0:0:0:0:
475,192,82660,1,0,0:0:0:0:
475,192,82778,1,0,0:0:0:0:
475,192,82895,1,0,0:0:0:0:
256,192,83012,1,0,0:0:0:0:
402,192,83012,1,0,0:0:0:0:
402,192,83246,1,0,0:0:0:0:
402,192,83364,1,0,0:0:0:0:
256,192,83481,1,0,0:0:0:0:
402,192,83598,1,0,0:0:0:0:
402,192,83715,1,0,0:0:0:0:
402,192,83832,1,0,0:0:0:0:
256,192,83950,1,0,0:0:0:0:
182,192,83950,1,0,0:0:0:0:
182,192,84184,1,0,0:0:0:0:
182,192,84301,1,0,0:0:0:0:
256,192,84418,1,0,0:0:0:0:
109,192,84535,1,0,0:0:0:0:
109,192,84653,1,0,0:0:0:0:
109,192,84770,1,0,0:0:0:0:
256,192,84887,1,0,0:0:0:0:
402,192,84887,1,0,0:0:0:0:
402,192,85121,1,0,0:0:0:0:
402,192,85239,1,0,0:0:0:0:
256,192,85356,128,0,85825:0:0:0:0:
329,192,85356,1,0,0:0:0:0:
182,192,85356,1,0,0:0:0:0:
475,192,85825,1,0,0:0:0:0:
36,192,85825,1,0,0:0:0:0:
36,192,86059,1,0,0:0:0:0:
36,192,86176,1,0,0:0:0:0:
475,192,86293,1,0,0:0:0:0:
329,192,86293,1,0,0:0:0:0:
109,192,86410,1,0,0:0:0:0:
475,192,86528,1,0,0:0:0:0:
109,192,86528,1,0,0:0:0:0:
109,192,86645,1,0,0:0:0:0:
36,192,86762,1,0,0:0:0:0:
475,192,86996,1,0,0:0:0:0:
36,192,86996,1,0,0:0:0:0:
36,192,87114,1,0,0:0:0:0:
475,192,87231,1,0,0:0:0:0:
329,192,87231,1,0,0:0:0:0:
402,192,87348,1,0,0:0:0:0:
256,192,87348,1,0,0:0:0:0:
256,192,87465,1,0,0:0:0:0:
256,192,87582,1,0,0:0:0:0:
475,192,87700,1,0,0:0:0:0:
182,192,87700,1,0,0:0:0:0:
182,192,87934,1,0,0:0:0:0:
182,192,88051,1,0,0:0:0:0:
475,192,88168,1,0,0:0:0:0:
329,192,88168,1,0,0:0:0:0:
109,192,88285,1,0,0:0:0:0:
475,192,88403,1,0,0:0:0:0:
109,192,88403,1,0,0:0:0:0:
109,192,88520,1,0,0:0:0:0:
182,192,88637,1,0,0:0:0:0:
36,192,88754,1,0,0:0:0:0:
475,192,88871,1,0,0:0:0:0:
109,192,88989,1,0,0:0:0:0:
475,192,89106,1,0,0:0:0:0:
329,192,89106,1,0,0:0:0:0:
402,192,89223,1,0,0:0:0:0:
182,192,89223,1,0,0:0:0:0:
182,192,89340,1,0,0:0:0:0:
182,192,89457,1,0,0:0:0:0:
36,192,89575,1,0,0:0:0:0:
475,192,89575,1,0,0:0:0:0:
475,192,89809,1,0,0:0:0:0:
475,192,89926,1,0,0:0:0:0:
36,192,90043,1,0,0:0:0:0:
182,192,90043,1,0,0:0:0:0:
329,192,90160,1,0,0:0:0:0:
36,192,90278,1,0,0:0:0:0:
329,192,90278,1,0,0:0:0:0:
329,192,90395,1,0,0:0:0:0:
256,192,90512,1,0,0:0:0:0:
36,192,90746,1,0,0:0:0:0:
256,192,90746,1,0,0:0:0:0:
256,192,90864,1,0,0:0:0:0:
182,192,90981,1,0,0:0:0:0:
36,192,90981,1,0,0:0:0:0:
109,192,91098,1,0,0:0:0:0:
402,192,91098,1,0,0:0:0:0:
402,192,91215,1,0,0:0:0:0:
402,192,91332,1,0,0:0:0:0:
36,192,91450,1,0,0:0:0:0:
329,192,91450,1,0,0:0:0:0:
329,192,91684,1,0,0:0:0:0:
329,192,91801,1,0,0:0:0:0:
36,192,91918,1,0,0:0:0:0:
182,192,91918,1,0,0:0:0:0:
402,192,92035,1,0,0:0:0:0:
109,192,92153,1,0,0:0:0:0:
402,192,92153,1,0,0:0:0:0:
402,192,92270,1,0,0:0:0:0:
475,192,92387,1,0,0:0:0:0:
402,192,92621,1,0,0:0:0:0:
329,192,92739,1,0,0:0:0:0:
182,192,92856,1,0,0:0:0:0:
36,192,92856,1,0,0:0:0:0:
256,192,92856,128,0,93325:0:0:0:0:
329,192,93325,1,0,0:0:0:0:
182,192,93325,1,0,0:0:0:0:
329,192,93559,1,0,0:0:0:0:
182,192,93559,1,0,0:0:0:0:
329,192,93676,1,0,0:0:0:0:
182,192,93676,1,0,0:0:0:0:
256,192,93910,1,0,0:0:0:0:
402,192,93910,1,0,0:0:0:0:
109,192,93910,1,0,0:0:0:0:
256,192,94028,1,0,0:0:0:0:
402,192,94028,1,0,0:0:0:0:
109,192,94028,1,0,0:0:0:0:
256,192,94145,1,0,0:0:0:0:
402,192,94145,1,0,0:0:0:0:
109,192,94145,1,0,0:0:0:0:
475,192,94262,1,0,0:0:0:0:
329,192,94262,1,0,0:0:0:0:
475,192,94496,1,0,0:0:0:0:
329,192,94496,1,0,0:0:0:0:
475,192,94614,1,0,0:0:0:0:
329,192,94614,1,0,0:0:0:0:
109,192,94848,1,0,0:0:0:0:
182,192,94848,1,0,0:0:0:0:
109,192,94965,1,0,0:0:0:0:
182,192,94965,1,0,0:0:0:0:
109,192,95082,1,0,0:0:0:0:
182,192,95082,1,0,0:0:0:0:
256,192,95200,1,0,0:0:0:0:
256,192,95434,1,0,0:0:0:0:
256,192,95551,1,0,0:0:0:0:
329,192,95785,1,0,0:0:0:0:
329,192,95903,1,0,0:0:0:0:
329,192,96020,1,0,0:0:0:0:
402,192,96137,1,0,0:0:0:0:
475,192,96254,1,0,0:0:0:0:
402,192,96489,1,0,0:0:0:0:
256,192,96723,1,0,0:0:0:0:
36,192,96723,1,0,0:0:0:0:
256,192,96840,1,0,0:0:0:0:
36,192,96840,1,0,0:0:0:0:
256,192,96957,1,0,0:0:0:0:
36,192,96957,1,0,0:0:0:0:
402,192,97075,1,0,0:0:0:0:
182,192,97075,1,0,0:0:0:0:
402,192,97309,1,0,0:0:0:0:
182,192,97309,1,0,0:0:0:0:
402,192,97426,1,0,0:0:0:0:
182,192,97426,1,0,0:0:0:0:
256,192,97660,1,0,0:0:0:0:
475,192,97660,1,0,0:0:0:0:
256,192,97778,1,0,0:0:0:0:
475,192,97778,1,0,0:0:0:0:
256,192,97895,1,0,0:0:0:0:
475,192,97895,1,0,0:0:0:0:
329,192,98012,1,0,0:0:0:0:
402,192,98012,1,0,0:0:0:0:
329,192,98246,1,0,0:0:0:0:
402,192,98246,1,0,0:0:0:0:
329,192,98364,1,0,0:0:0:0:
402,192,98364,1,0,0:0:0:0:
256,192,98598,1,0,0:0:0:0:
182,192,98598,1,0,0:0:0:0:
256,192,98715,1,0,0:0:0:0:
182,192,98715,1,0,0:0:0:0:
256,192,98832,1,0,0:0:0:0:
182,192,98832,1,0,0:0:0:0:
329,192,98950,1,0,0:0:0:0:
109,192,98950,1,0,0:0:0:0:
475,192,98950,1,0,0:0:0:0:
329,192,99184,1,0,0:0:0:0:
109,192,99184,1,0,0:0:0:0:
475,192,99184,1,0,0:0:0:0:
329,192,99301,1,0,0:0:0:0:
109,192,99301,1,0,0:0:0:0:
475,192,99301,1,0,0:0:0:0:
402,192,99535,1,0,0:0:0:0:
256,192,99535,1,0,0:0:0:0:
36,192,99535,1,0,0:0:0:0:
402,192,99653,1,0,0:0:0:0:
256,192,99653,1,0,0:0:0:0:
36,192,99653,1,0,0:0:0:0:
402,192,99770,1,0,0:0:0:0:
256,192,99770,1,0,0:0:0:0:
36,192,99770,1,0,0:0:0:0:
329,192,99887,1,0,0:0:0:0:
182,192,99887,1,0,0:0:0:0:
329,192,100121,1,0,0:0:0:0:
182,192,100121,1,0,0:0:0:0:
329,192,100239,1,0,0:0:0:0:
182,192,100239,1,0,0:0:0:0:
256,192,100356,128,0,103637:0:0:0:0:
