osu file format v7

[General]
AudioFilename: Bleach_-_Asterisk_TV_Size.mp3
AudioLeadIn: 1000
PreviewTime: 56451
Countdown: 0
SampleSet: Soft
StackLeniency: 0.7
Mode: 0
LetterboxInBreaks: 1

[Editor]
Bookmarks: 32304,47788,57466,80691
DistanceSpacing: 0.699999988079071
BeatDivisor: 4
GridSize: 8

[Metadata]
Title:*~Asterisk~ (TV Size)
Artist:Orange Range
Creator:Xero_HT
Version:*Easy
Source:Bleach
Tags:JRock Shonen JPop

[Difficulty]
HPDrainRate:2
CircleSize:3
OverallDifficulty:3
SliderMultiplier:1.4
SliderTickRate:1

[Events]
//Background and Video events
0,0,"kk.png"
Video,192,"Bleach_HD_OP_1280X720p.avi"
//Break Periods
2,47860,54446
//Storyboard Layer 0 (Background)
//Storyboard Layer 1 (Fail)
//Storyboard Layer 2 (Pass)
//Storyboard Layer 3 (Foreground)
//Storyboard Sound Samples
//Background Colour Transformations
3,100,163,162,255

[TimingPoints]
1693,483.870967741935,4,2,0,100,1,0
16931,-100,4,1,0,100,0,0
32415,-100,4,2,0,100,0,0
57335,-100,4,1,0,100,0,0
57818,-100,4,1,0,100,0,1
69189,-100,4,2,0,100,0,1
73060,-100,4,1,0,100,0,1
77173,-100,4,2,0,100,0,1
80802,-100,4,1,0,100,0,1
88060,-100,4,2,0,100,0,1
88905,-100,4,2,0,100,0,0

[Colours]
Combo1 : 240,5,5
Combo2 : 255,255,255
Combo3 : 5,5,240

[HitObjects]
64,160,1692,2,2,B|64:32|256:32|240:160|240:192,1,280
328,120,3144,1,0
416,168,3628,2,2,B|416:296|224:296|240:168|240:136,1,280
424,232,5563,6,0,B|304:344|248:256|200:184|136:168|88:200|24:280|32:288,1,420
48,160,7499,6,0,B|168:272|224:184|272:112|336:96|384:128|448:208|440:216,1,420
424,96,9434,6,2,B|264:96|344:192|104:192|104:160,1,280
64,176,10886,1,0
160,176,11370,2,2,B|320:176|240:272|480:272|480:240,1,280
424,152,13305,6,0,B|400:224|472:288|424:360,2,210
320,152,15241,5,4
224,152,15725,2,0,B|136:152|136:152,4,70,0|0|0|0|4
168,232,17176,6,2,B|456:232|464:232,1,280,2|0
376,152,18628,1,2
448,72,19112,2,2,B|456:72|168:72,1,280,2|0
224,152,20563,1,2
168,72,21047,6,2,B|88:120|88:224|192:312,1,280,2|0
248,232,22499,1,2
280,328,22983,2,2,B|360:280|360:176|256:88,1,280,2|0
184,160,24434,1,2
104,96,24918,5,2
184,32,25402,2,2,B|496:32|504:32,1,280
488,128,26854,1,2
464,224,27338,2,2,B|168:224|144:224,1,280
88,224,28789,6,2,B|88:112|200:48|288:128|296:128,1,280
384,128,30241,1,4
80,80,32660,6,0,B|80:152|152:216|152:216|152:216,1,140
64,264,33628,1,2
152,304,34112,1,2
248,304,34596,6,0,B|248:232|320:168|320:168|320:168,1,140
400,152,35563,1,2
328,88,36047,1,2
240,96,36531,6,0,B|240:184|344:184|344:176,1,140
424,264,37499,2,0,B|424:176|320:176|320:184,1,140
288,88,38467,2,0,B|384:88|448:128|464:136,1,140
464,208,39434,1,2
400,280,39918,1,2
304,280,40402,6,2,B|232:376|128:272|160:312,1,140
224,224,41370,2,2,B|152:128|48:232|80:192,1,140
136,104,42338,5,0
216,48,42822,1,2
296,104,43305,1,0
376,48,43789,1,2
448,112,44273,6,0,B|496:200|408:328|296:176|176:56|144:240|144:240,1,420
56,224,46209,1,2
104,312,46693,2,4,B|176:408|224:208|344:272|416:320|416:320,1,280
256,192,55886,12,4,57338
192,112,57822,6,2,B|296:72|344:136|344:104,2,140
256,192,59273,1,8
192,264,59757,2,2,B|296:304|344:240|344:272,2,140
48,136,61693,6,8,L|112:104|184:104,1,140
280,104,62660,1,2
376,104,63144,1,2
376,200,63628,2,8,L|312:240|312:320|304:320,1,140
216,304,64596,1,2
120,304,65080,1,6
120,208,65563,6,0,B|240:232|272:152|336:128|416:160|440:184,1,280
472,104,67015,1,8
400,40,67499,2,0,B|280:16|248:96|184:120|104:88|80:64,1,280
48,144,68951,1,8
128,200,69434,5,0
64,272,69918,1,8
128,344,70402,1,0
192,272,70886,1,8
288,272,71370,1,0
352,344,71854,1,8
416,272,72338,1,0
352,200,72822,1,8
352,200,73305,6,2,L|296:256|208:256|224:256,2,140
264,152,74757,1,8
264,152,75241,1,0
352,112,75725,2,2,L|296:56|208:56|224:56,1,140
264,152,76693,1,8
264,248,77176,6,0,L|240:280|288:280|248:328|232:328,1,140
160,312,78144,1,0
88,248,78628,1,8
88,152,79112,2,0,L|120:176|120:128|168:168|168:184,1,140
256,160,80080,1,0
256,160,80563,1,8
320,232,81047,6,2,B|384:160|304:72,2,140
256,160,82499,1,8
184,104,82983,2,2,B|129:161|193:233,2,140
256,160,84434,1,8
312,240,84918,5,2
256,320,85402,1,8
200,240,85886,1,2
312,144,86854,5,2
256,64,87338,1,8
200,144,87822,1,2
256,224,88305,6,4,B|248:352|336:352|368:352|368:352,1,140
