osu file format v4

[General]
AudioFilename: Orange Range - Shanghai Honey.mp3
AudioLeadIn: 0
AudioHash: 6bf3ee276b93c3453626596c24a81649
PreviewTime: -1
SampleSet: Normal

[Metadata]
Title:Shanghai Honey
Artist:Orange Range
Creator:elzamxrai
Version:Normal

[Difficulty]
HPDrainRate:6
CircleSize:4
OverallDifficulty:5
SliderMultiplier: 1.5
SliderTickRate: 2

[Events]
0,0,"1112134263.jpg"
2,39079,54355
2,84288,106066
2,136003,142980
3,0,163,162,255

[TimingPoints]
4669,461.538461538462,4,1,1

[HitObjects]
160,320,15976,2,0,B|160:320|64:320|64:224,1,150
160,224,16668,2,2,B|160:224|288:256|384:224,1,225
448,160,17822,5,0,
384,96,18053,1,0,
320,160,18284,1,0,
256,224,18515,2,2,B|256:224|162:256|34:224,1,225
64,96,19668,5,0,
128,160,19899,1,0,
192,96,20130,1,0,
256,160,20361,2,2,B|256:160|352:160|352:96,2,112.5
64,320,21515,5,0,
64,224,21745,1,0,
64,128,21976,1,0,
160,128,22207,2,2,B|160:128|288:96|384:128,1,225
448,64,23361,5,0,
448,160,23592,1,0,
448,256,23822,1,0,
352,256,24053,1,4,
256,192,24399,1,4,
160,128,24745,1,4,
160,256,25207,6,0,B|160:256|64:256|64:160,1,150
160,160,25899,1,4,
256,96,26245,1,4,
352,32,26592,1,4,
448,256,27053,5,0,
352,256,27284,1,0,
256,256,27515,1,0,
160,256,27745,2,0,B|160:256|96:256,3,75
64,160,28899,5,0,
64,160,29130,1,0,
64,160,29361,1,0,
160,160,29592,1,0,
160,160,29822,1,0,
160,160,30053,1,0,
160,160,30284,1,0,
256,160,30515,5,4,
416,128,30976,6,0,B|416:128|416:32,2,75
320,64,32130,2,0,B|320:64|320:160,1,75
320,256,32822,1,2,
192,256,33284,1,2,
64,256,33745,2,0,B|64:256|64:160,2,75
64,64,34669,2,0,B|64:64|160:64,2,75
256,64,35822,5,0,
256,64,36053,1,0,
256,192,36515,1,0,
256,320,36976,1,2,
256,192,37899,5,2,
256,192,38822,1,2,
416,96,55669,6,0,B|416:96|288:128|192:96,2,225
96,288,57515,6,0,B|96:288|224:256|320:288,2,225
416,288,59361,5,0,
352,224,59592,1,0,
416,160,59822,1,0,
352,96,60053,2,2,B|352:96|224:96,2,112.5
96,288,61207,5,0,
96,192,61438,1,0,
96,96,61669,1,0,
192,96,61899,2,2,B|192:96|320:96,2,112.5
288,288,63053,6,0,B|288:288|224:320|192:256,3,75
128,288,64207,5,0,
128,288,64438,1,0,
256,64,64899,6,0,B|256:64|96:64,1,150
64,160,65592,2,0,B|64:160|64:288,2,112.5
448,64,66745,5,0,
384,128,66976,1,0,
320,64,67207,1,0,
224,64,67438,2,2,B|224:64|224:320,1,225
64,192,68592,5,2,
128,256,68822,1,2,
192,192,69053,1,2,
288,192,69284,2,0,B|288:192|384:192,4,75
416,96,70899,6,4,B|416:96|416:160,1,75
416,288,72053,5,2,
320,288,72515,1,2,
224,288,72976,1,2,
128,288,73438,2,4,B|128:288|32:288|32:192,1,150
128,192,74361,2,4,B|128:192|224:192,2,75
288,192,75284,1,0,
288,96,75745,2,4,B|288:96|384:96|384:192,1,150
384,288,76669,2,0,B|384:288|224:288,2,150
352,288,78284,5,0,
352,288,78515,1,0,
160,288,79438,1,0,
64,288,79899,1,0,
64,192,80361,1,0,
64,96,80822,1,0,
160,96,81284,1,0,
256,192,81745,12,0,84053
448,192,107361,1,0,
384,128,107592,1,0,
320,192,107822,1,0,
224,192,108053,2,0,B|224:192|128:192|128:128,2,112.5
416,288,109207,5,0,
320,288,109438,1,0,
224,288,109669,1,0,
128,288,109899,2,0,B|128:288|128:32,1,225
448,320,111053,5,0,
352,224,111284,1,0,
256,128,111515,1,0,
224,256,111745,2,2,B|224:256|128:288|96:256,2,112.5
64,64,112899,5,0,
160,160,113130,1,0,
256,256,113361,1,0,
288,128,113592,2,2,B|288:128|384:96|416:128,2,112.5
416,96,114745,5,2,
256,96,115207,1,2,
64,96,115669,1,2,
64,224,116130,1,2,
160,288,116592,5,2,
320,288,117053,1,2,
480,288,117515,1,2,
480,160,117976,1,2,
256,96,118438,6,0,B|256:96|160:96|160:192,1,150
256,192,119130,1,0,
352,192,119361,2,0,B|352:192|352:288|256:288,1,150
160,288,120284,6,0,B|160:288|96:288,3,75
64,192,121207,2,0,B|64:192|64:96,2,75
160,160,121899,5,4,
256,160,122361,2,0,B|256:160|256:64,2,75
352,64,123745,1,0,
256,64,124207,1,0,
160,64,124669,1,0,
64,160,125130,2,0,B|64:160|64:224,2,75
160,288,126284,6,0,B|160:288|224:288,1,75
448,288,127438,1,0,
448,192,127899,1,0,
448,96,128361,2,2,B|448:96|288:96,2,150
192,96,129976,1,0,
192,96,130207,1,0,
64,96,131130,5,0,
64,192,131592,1,0,
64,288,132053,2,0,B|64:288|224:288,2,150
256,192,133438,12,0,135745
64,128,144284,1,2,
160,64,144745,1,2,
352,64,145207,1,2,
448,128,145669,1,2,
192,192,146130,1,0,
256,128,146361,1,0,
320,192,146592,1,0,
384,288,146822,2,0,B|384:288|128:288,1,225
64,256,147976,5,2,
160,320,148438,1,2,
352,320,148899,1,2,
448,256,149361,1,2,
192,192,149822,1,0,
256,256,150053,1,0,
320,192,150284,1,0,
384,96,150515,2,0,B|384:96|128:96,1,225
64,256,151669,5,2,
160,320,152130,1,2,
352,320,152592,1,2,
448,256,153053,1,2,
320,192,153515,2,0,B|320:192|256:224|160:192,1,150
96,128,154207,1,2,
160,64,154438,1,2,
224,128,154669,1,2,
288,64,154899,1,2,
448,128,155361,5,2,
352,64,155822,1,2,
160,64,156284,1,2,
64,128,156745,1,2,
192,192,157207,2,0,B|192:192|256:160|352:192,1,150
416,256,157899,1,2,
352,320,158130,1,2,
288,256,158361,1,2,
224,320,158592,1,2,
256,192,159053,12,4,165976
