osu file format v3

[General]
AudioFilename: Orange Range - Shanghai Honey.mp3
AudioLeadIn: 0
AudioHash: 6bf3ee276b93c3453626596c24a81649
PreviewTime: -1
SampleSet: Normal

[Metadata]
Title:Shanghai Honey
Artist:Orange Range
Creator:elzamxrai
Version:Easy

[Difficulty]
HPDrainRate:5
CircleSize:4
OverallDifficulty:4
SliderMultiplier: 1.5
SliderTickRate: 2

[Events]
0,0,"1112134263.jpg"
2,39079,54355
2,84288,106066
2,136003,142980
3,0,163,162,255

[TimingPoints]
4669,461.538461538462

[HitObjects]
416,128,15976,5,0,
288,256,16668,2,2,B|288:256|160:288|64:256,1,225
64,160,17822,5,0,
64,64,18515,2,2,B|64:64|192:32|288:64,1,225
416,96,19668,5,0,
416,96,19899,1,0,
288,256,20361,2,2,B|288:256|160:288|64:256,1,225
64,160,21515,5,0,
64,160,21745,1,0,
64,64,22207,2,2,B|64:64|192:32|288:64,1,225
416,160,23361,6,0,B|416:160|416:256|320:256,3,150
192,256,25207,6,0,B|192:256|102:257|102:161,3,150
416,64,27053,5,0,
416,64,27284,1,0,
352,128,27745,2,0,B|352:128|256:96|128:128,1,225
64,192,28899,5,0,
64,192,29130,1,0,
128,256,29592,2,0,B|128:256|224:256,3,75
416,128,31207,6,0,B|416:128|416:32,1,75
320,64,32130,2,0,B|320:64|320:160,1,75
320,256,32822,1,2,
192,256,33284,1,2,
64,256,33976,2,0,B|64:256|64:160,1,75
64,64,34899,2,0,B|64:64|160:64,1,75
256,64,36053,5,2,
256,192,36515,1,0,
256,320,36976,1,2,
256,192,37899,5,4,
256,192,38822,1,4,
416,96,55669,6,0,B|416:96|288:128|192:96,2,225
320,288,57515,6,0,B|320:288|192:256|96:288,2,225
416,288,59361,5,0,
416,288,59592,1,0,
320,192,60053,2,0,B|320:192|64:192,1,225
96,288,61207,5,0,
96,288,61438,1,0,
96,288,61669,1,0,
192,288,61899,2,0,B|192:288|192:160,2,112.5
320,288,63053,6,0,B|320:288|320:128,3,150
256,64,64899,6,0,B|256:64|96:64,1,150
64,160,65592,2,0,B|64:160|64:288,2,112.5
416,320,66745,5,0,
416,320,66976,1,0,
352,256,67438,2,0,B|352:256|256:288|128:256,1,225
64,192,68592,5,0,
64,192,68822,1,0,
128,128,69284,2,0,B|128:128|224:128,3,75
416,96,70899,6,0,B|416:96|416:160,1,75
416,288,72053,5,2,
320,288,72515,1,2,
224,288,72976,1,2,
128,288,73438,1,2,
64,192,73899,5,0,
64,96,74361,1,0,
160,96,74822,1,0,
256,96,75284,1,0,
352,96,75745,1,0,
448,192,76207,1,0,
352,192,76669,2,0,B|352:192|192:192,2,150
352,288,78284,5,0,
352,288,78515,1,0,
160,288,79438,1,0,
64,288,79899,1,0,
64,192,80361,1,0,
64,96,80822,1,0,
160,96,81284,1,0,
256,192,81745,12,0,84053
96,96,107361,1,0,
192,96,107822,1,0,
192,192,108284,2,0,B|192:192|352:192,1,150
416,288,109207,5,0,
320,288,109669,1,0,
320,192,110130,2,0,B|320:192|160:192,1,150
64,128,111053,6,0,B|64:128|64:192,1,75
64,288,111745,2,0,B|64:288|192:288,2,112.5
320,288,112899,5,0,
416,288,113130,1,0,
416,192,113592,2,0,B|416:192|288:192,2,112.5
416,96,114745,5,0,
256,96,115207,1,0,
64,96,115669,1,0,
64,192,116130,1,0,
96,288,116592,5,0,
288,288,117053,1,0,
448,288,117515,1,0,
448,192,117976,1,0,
256,96,118438,6,0,B|256:96|160:96|160:192,1,150
256,192,119130,1,0,
352,192,119361,2,0,B|352:192|352:288|256:288,1,150
160,288,120284,6,0,B|160:288|96:288,2,75
256,288,121207,2,0,B|256:288|256:192,2,75
352,288,121899,5,4,
448,288,122361,2,0,B|448:288|448:192,2,75
352,64,123745,1,0,
256,64,124207,1,0,
160,64,124669,1,0,
64,160,125130,2,0,B|64:160|64:224,2,75
160,288,126284,6,0,B|160:288|224:288,1,75
448,288,127438,1,0,
448,192,127899,1,0,
448,96,128361,2,2,B|448:96|288:96,2,150
192,96,129976,1,0,
192,96,130207,1,0,
64,96,131130,5,0,
64,192,131592,1,0,
64,288,132053,2,0,B|64:288|224:288,2,150
256,192,133438,12,0,135745
64,128,144284,1,2,
160,64,144745,1,2,
352,64,145207,1,2,
448,128,145669,1,2,
320,256,146130,2,0,B|320:256|160:256,3,150
64,256,147976,5,2,
160,320,148438,1,2,
352,320,148899,1,2,
448,256,149361,1,2,
320,128,149822,2,0,B|320:128|160:128,3,150
448,224,151669,6,0,B|448:224|256:448|64:224,1,450
64,160,153515,6,0,B|64:160|256:-64|448:160,1,450
352,192,155361,5,0,
352,192,155592,1,0,
352,192,155822,1,0,
160,192,156284,5,0,
160,192,156515,1,0,
160,192,156745,1,0,
160,288,157207,5,0,
160,288,157438,1,0,
160,288,157669,1,0,
256,288,157899,2,0,B|256:288|320:288,3,75
256,192,159053,12,4,165976
