osu file format v5

[General]
AudioFilename: Code_Geass_R2_-_O2_TV_Size.mp3
AudioLeadIn: 3000
PreviewTime: -1
Countdown: 1
SampleSet: Normal
StackLeniency: 0.8
Mode: 0
LetterboxInBreaks: 1
EditorBookmarks: 173,23118

[Metadata]
Title:O2 (TV Size)
Artist:Orange Range
Creator:HollowDream
Version:Normal
Source:
Tags:

[Difficulty]
HPDrainRate:5
CircleSize:4
OverallDifficulty:3
SliderMultiplier:1.5
SliderTickRate:0.5

[Events]
//Background and Video events
0,0,"code geass r2.png"
//Break Periods
2,23141,25681
//Storyboard Layer 0 (Background)
//Storyboard Layer 1 (Failing)
//Storyboard Layer 2 (Passing)
//Storyboard Layer 3 (Foreground)
//Storyboard Sound Samples
//Background Colour Transformations
3,100,163,162,255

[TimingPoints]
390,705.915249929399,4,1,0,79,1

[Colours]
Combo1 : 255,150,0
Combo2 : 5,240,5
Combo3 : 5,5,240
Combo4 : 240,5,5

[HitObjects]
96,64,390,1,0
192,64,919,1,0
288,64,1448,1,0
352,64,1801,1,4
352,160,2331,1,0
256,160,2860,1,0
192,160,3213,1,4
96,160,3743,1,0
96,256,4272,1,0
160,256,4625,2,0,B|224:288|256:256|259:243|288:256,1,112.5
416,192,6037,6,0,B|416:96,2,75
320,256,7449,2,0,B|217:232|229:274|220:304|192:288,1,112.5
224,160,8684,5,0
224,160,8860,2,0,B|157:88|121:207|44:144,1,187.5
64,256,10272,6,0,B|160:256,1,75
139,256,10802,1,0
208,258,11155,1,0
288,224,11684,5,0
288,128,12214,1,0
192,128,12743,1,0
128,128,13096,1,0
32,128,13625,1,0
32,224,14155,1,0
96,224,14508,1,0
192,224,15037,1,0
288,224,15567,1,0
352,224,15920,1,0
352,224,16096,1,0
448,224,16449,1,0
384,128,17331,6,0,B|330:96|224:128,1,150
384,64,18567,1,0
384,64,18743,1,0
314,65,19096,1,0
314,65,19273,1,0
128,32,20155,6,0,B|105:241|416:224,1,375
382,225,22096,1,0
416,160,22449,1,0
416,160,22626,1,4
384,96,22979,1,12
384,96,27214,6,8,B|256:96,1,112.5
241,96,27920,1,4
241,96,28273,1,0
192,96,28626,1,0
128,96,28979,1,0
128,160,29332,1,0
128,224,29685,1,0
192,224,30038,1,0
256,224,30391,1,0
320,224,30744,1,0
384,128,31450,6,2,B|256:128,1,112.5
256,160,32156,2,2,B|384:160,1,112.5
368,160,32862,1,4
416,256,33391,5,0
384,256,33568,1,0
352,256,33744,1,0
320,256,33920,1,0
256,256,34273,1,0
192,256,34626,1,0
128,256,34979,1,0
128,192,35332,1,0
128,128,35685,1,0
192,128,36038,1,2
192,128,36215,1,2
192,128,36391,1,2
288,192,37097,5,0
288,192,37450,1,0
352,192,37803,1,0
352,192,38156,1,0
352,128,38509,6,0,B|256:128,3,75
224,160,39921,5,0
192,160,40097,1,0
160,160,40274,1,0
128,160,40450,2,0,B|256:160|224:288,1,187.5
192,320,41686,1,0
128,320,42038,1,0
160,256,42391,1,4
160,256,42568,1,4
192,192,42921,6,0,B|128:192|128:128,1,75
128,96,43627,2,0,B|128:30|192:32,1,75
224,32,44333,6,0,B|288:32|288:96,1,75
288,128,45039,2,0,B|288:192|352:192,1,75
352,192,45568,1,0
384,96,46098,1,0
384,64,46274,6,0,B|288:64|256:160|160:128,1,225
160,160,47509,1,0
160,160,47686,2,0,B|113:210|180:240,1,75
160,256,48215,1,0
192,256,48392,1,0
224,256,48568,1,0
256,256,48745,1,0
320,256,49098,1,0
384,256,49451,2,0,B|384:192|256:160,1,150
276,165,50333,5,0
246,166,50509,2,0,B|150:166,2,75,0|0|0
224,128,51568,5,0
224,64,51921,1,0
288,96,52274,1,0
288,96,52451,1,0
352,96,52804,1,0
320,160,53157,2,2,B|367:204|416:128|512:192,1,187.5
448,224,54392,5,0
384,256,54745,1,0
320,256,55098,1,0
320,256,55274,1,0
256,256,55627,1,0
256,256,55980,2,10,B|192:256|192:160,1,112.5
192,128,56863,6,2,B|288:128,1,75,2|2
288,96,57392,6,2,B|160:96,1,112.5,2|4
128,128,58275,5,0
128,224,58804,1,0
224,224,59333,1,0
288,224,59686,1,0
384,224,60216,1,0
480,224,60745,1,0
480,160,61098,1,0
480,64,61628,1,0
384,64,62157,1,0
320,64,62510,1,0
288,64,62687,2,0,B|192:64,1,75
160,160,63922,6,2,B|256:160,2,75
160,256,65157,1,0
192,288,65334,1,0
224,256,65510,1,0
256,288,65687,1,0
288,256,65863,1,0
320,128,66569,1,0
320,128,66746,1,0
320,128,66922,1,0
384,128,67275,2,0,B|448:192|384:256|288:224,1,187.5
256,256,68510,1,4
224,224,68687,1,4
192,288,69040,1,4
128,224,69569,5,0
128,128,70099,1,0
128,32,70628,1,0
160,64,70981,1,0
256,96,71510,1,0
352,128,72040,1,0
416,128,72393,1,0
384,224,72922,1,0
288,224,73452,1,0
224,224,73805,1,0
224,224,73981,1,0
224,160,74334,1,0
128,96,75217,6,0,B|224:96,1,75
203,96,75746,1,0
203,96,75922,1,0
224,192,76628,2,0,B|320:192,1,75
299,192,77158,1,0
342,87,78040,6,0,B|300:107|235:119|147:30|225:8|318:36|302:110|129:100,1,300
213,203,79805,1,0
224,225,79981,1,0
255,283,80334,1,0
255,283,80511,1,0
314,283,80864,2,0,B|442:283|410:187|416:96,1,225
352,128,82276,5,0
352,128,82629,1,0
352,128,82982,1,0
352,128,83335,1,0
256,192,83511,12,4,85629
256,192,86158,5,4
256,192,86511,1,4
