osu file format v5

[General]
AudioFilename: orange_range_-_monkey_magic-nekelstal.mp3
AudioLeadIn: 0
PreviewTime: -1
Countdown: 1
SampleSet: None
StackLeniency: 0.7
Mode: 0
LetterboxInBreaks: 1
EditorBookmarks: 45953,77328,80828,112578,131953,153953,161078

[Metadata]
Title:Monkey Magic
Artist:Orange Range
Creator:minyeob
Version:Normal
Source:
Tags:

[Difficulty]
HPDrainRate:10
CircleSize:5
OverallDifficulty:6
SliderMultiplier:1.4
SliderTickRate:1

[Events]
//Background and Video events
//Break Periods
2,77153,79903
2,112153,131028
2,153653,160753
//Storyboard Layer 0 (Background)
//Storyboard Layer 1 (Failing)
//Storyboard Layer 2 (Passing)
//Storyboard Layer 3 (Foreground)
//Storyboard Sound Samples
//Background Colour Transformations
3,100,163,162,255

[TimingPoints]
45950,500,4,0,0,100,1

[HitObjects]
160,64,45953,1,0
256,64,46328,1,0
352,64,46703,1,0
352,128,46953,5,0
256,128,47328,1,0
160,128,47703,1,0
160,192,47953,2,0,B|416:192,1,245
160,64,49953,5,0
256,64,50328,1,0
352,64,50703,1,0
352,160,50953,1,0
256,160,51328,1,0
160,160,51703,1,0
128,224,51953,2,0,B|384:224,1,245
256,352,53703,5,0
256,288,53953,2,0,B|256:128,3,140
192,96,55953,2,0,B|352:96,2,140
160,192,57953,1,0
256,192,58328,1,0
352,192,58703,1,0
352,96,58953,1,0
256,96,59328,1,0
160,96,59703,1,0
160,192,59950,2,0,B|416:192,1,245
256,64,62453,5,0
256,64,62703,1,0
256,64,62953,1,0
256,192,64453,5,0
256,192,64703,1,0
256,256,64953,2,0,B|256:384,1,105
32,192,66453,5,0
96,192,66703,1,0
160,192,66953,1,0
256,192,68453,5,0
256,192,68703,1,0
256,192,68953,1,0
256,64,69328,1,0
256,192,70453,5,0
256,192,70703,1,0
256,192,70953,1,0
256,256,71328,1,0
256,128,72453,5,0
256,128,72703,1,0
256,128,72953,1,0
256,192,73328,1,0
256,64,74453,5,0
256,64,74703,1,0
256,64,74953,1,0
256,160,75328,1,0
192,64,76453,5,0
256,64,76703,1,0
320,64,76953,1,0
128,64,80953,5,0
256,64,81328,1,0
384,64,81703,1,0
384,160,81953,1,0
256,160,82328,1,0
128,160,82703,1,0
128,224,82953,2,0,B|384:224,1,245
256,64,84953,5,0
256,128,85328,1,0
256,192,85703,1,0
256,256,85953,1,0
256,256,86203,1,0
256,256,86453,1,0
256,256,86703,1,0
256,192,86953,1,0
256,128,87453,1,0
256,64,87828,1,0
256,320,88703,5,0
256,256,88953,2,0,B|256:96,3,140
256,64,90953,1,0
256,320,91453,1,0
256,320,91703,1,0
128,64,92953,5,0
256,64,93328,1,0
384,64,93703,1,0
384,160,93953,1,0
256,160,94328,1,0
128,160,94703,1,0
256,192,95078,12,0,96453
256,96,97453,5,0
256,160,97703,1,0
256,224,97953,1,0
256,288,98328,1,0
256,192,99453,5,0
256,192,99703,1,0
256,128,99953,1,0
256,96,100328,1,0
64,192,101453,5,0
64,192,101703,1,0
128,192,101953,2,0,B|256:192,1,105
256,96,103453,5,0
256,96,103703,1,0
256,96,103953,1,0
256,96,104328,1,0
256,192,105453,5,0
256,192,105703,1,0
256,192,105953,1,0
256,288,106328,1,0
96,192,107453,5,0
160,192,107703,1,0
224,192,107953,1,0
352,192,108328,1,0
256,128,109453,5,0
256,192,109703,1,0
256,256,109953,1,0
256,320,110328,1,0
256,192,111453,5,0
256,192,111703,1,0
256,192,111953,1,0
256,192,132078,12,0,133453
256,192,133953,12,0,135453
160,192,135953,6,0,B|320:192,3,140
64,192,138453,5,0
64,256,138703,1,0
128,256,138953,1,0
128,192,139203,1,0
192,192,139453,1,0
192,256,139703,1,0
256,256,139953,1,0
352,256,140453,1,0
352,160,140953,1,0
352,64,141453,1,0
96,64,142453,5,0
96,128,142703,1,0
160,128,142953,1,0
224,128,143203,1,0
288,128,143453,1,0
352,128,143703,1,0
352,192,143953,2,0,B|96:192,2,245
352,256,145953,1,0
352,320,146453,5,0
288,320,146703,1,0
224,320,146953,1,0
160,320,147203,1,0
96,320,147453,1,0
96,192,147953,1,0
224,192,148453,1,0
352,192,148953,1,0
480,192,149453,1,0
256,192,149953,12,0,153453
128,64,161953,5,0
256,64,162328,1,0
384,64,162703,1,0
384,160,162953,1,0
256,160,163328,1,0
128,160,163703,1,0
128,224,163953,2,0,B|384:224,1,245
384,320,165953,5,0
256,320,166328,1,0
128,320,166703,1,0
128,224,166953,1,0
256,224,167328,1,0
384,224,167703,1,0
384,160,167953,2,0,B|128:160,1,245
256,352,169703,5,0
256,288,169953,2,0,B|256:0,3,280
160,32,173953,5,0
256,32,174328,1,0
256,96,174703,1,0
256,160,174953,1,0
256,224,175328,1,0
256,288,175703,1,0
320,288,175953,1,0
352,224,176453,1,0
384,160,176828,1,0
256,128,178453,5,0
256,128,178703,1,0
256,128,178953,1,0
256,192,179328,1,0
96,192,180453,5,0
96,192,180703,1,0
96,192,180953,1,0
160,192,181328,1,0
448,192,182453,5,0
448,192,182703,1,0
448,192,182953,1,0
384,192,183328,1,0
256,352,184453,5,0
256,352,184703,1,0
256,352,184953,1,0
256,288,185328,1,0
256,96,186453,5,0
256,96,186703,1,0
256,96,186953,1,0
256,160,187328,1,0
256,288,187953,1,0
256,224,188453,5,0
256,224,188703,1,0
256,160,188953,1,0
256,96,189328,1,0
256,192,189953,12,0,193328
