osu file format v5

[General]
AudioFilename: orange_range_-_monkey_magic-nekelstal.mp3
AudioLeadIn: 0
PreviewTime: -1
Countdown: 1
SampleSet: None
StackLeniency: 0.7
Mode: 0
LetterboxInBreaks: 1
EditorBookmarks: 45953,77328,80828,112578,131953,153953,161078

[Metadata]
Title:Monkey Magic
Artist:Orange Range
Creator:minyeob
Version:Hard
Source:
Tags:

[Difficulty]
HPDrainRate:8
CircleSize:5
OverallDifficulty:6
SliderMultiplier:1.4
SliderTickRate:1

[Events]
//Background and Video events
//Break Periods
2,77153,79903
2,112153,131253
2,153653,160753
//Storyboard Layer 0 (Background)
//Storyboard Layer 1 (Failing)
//Storyboard Layer 2 (Passing)
//Storyboard Layer 3 (Foreground)
//Storyboard Sound Samples
//Background Colour Transformations
3,100,163,162,255

[TimingPoints]
45950,500,4,0,0,100,1

[HitObjects]
128,64,45953,1,0
256,64,46328,1,0
384,64,46703,1,0
384,160,46953,1,0
256,160,47328,1,0
128,160,47703,1,0
128,256,47953,1,0
256,256,48453,1,0
384,256,48828,1,0
256,320,49203,1,0
256,320,49328,1,0
256,320,49453,1,0
384,320,49953,5,0
256,320,50328,1,0
128,320,50703,1,0
128,192,50953,1,0
256,192,51328,1,0
384,192,51703,1,0
384,96,51953,1,0
256,96,52453,1,0
128,96,52828,1,0
256,64,53203,1,0
256,64,53328,1,0
256,64,53453,1,0
160,192,53953,6,0,B|320:192,3,140
352,256,55703,1,0
288,320,55953,2,0,B|448:320,3,140
256,96,57953,1,0
256,128,58328,1,0
256,160,58703,1,0
256,192,58953,1,0
256,224,59328,1,0
256,256,59703,1,0
256,288,59953,1,0
256,320,60453,1,0
256,352,60828,1,0
256,192,61203,1,0
256,192,61328,1,0
256,192,61453,1,0
256,64,62453,5,0
320,64,62703,1,0
320,128,62953,2,0,B|224:128,4,70
160,320,64453,5,0
224,320,64703,1,0
160,256,64953,2,0,B|288:256,2,105
160,192,65953,1,0
256,64,66453,5,0
256,128,66703,1,0
256,192,66953,2,0,B|256:288,2,70
192,192,67703,1,0
192,192,67828,1,0
192,192,67953,1,0
256,64,68453,5,0
256,128,68703,1,0
256,192,68953,2,0,B|256:288,2,70
256,192,69703,1,0
256,192,69828,1,0
256,192,69953,1,0
192,96,70453,5,0
256,96,70703,1,0
320,96,70953,2,0,B|320:192,2,70
384,96,71703,1,0
384,96,71828,1,0
384,96,71953,1,0
96,224,72453,5,0
96,160,72703,1,0
96,96,72953,2,0,B|192:96,4,70
256,128,74453,1,0
256,192,74703,1,0
256,256,74953,1,0
256,320,75325,1,0
192,96,76453,5,0
256,96,76703,1,0
320,96,76953,1,0
128,64,80953,5,0
256,64,81328,1,0
384,64,81703,1,0
384,160,81953,1,0
256,160,82328,1,0
128,160,82703,1,0
128,224,82953,1,0
128,288,83453,2,0,B|128:352,2,35
256,288,84203,1,0
256,288,84328,1,0
256,288,84453,1,0
384,288,84953,5,0
256,288,85328,1,0
128,288,85703,1,0
128,192,85953,1,0
128,192,86203,1,0
128,192,86453,1,0
128,192,86703,1,0
256,192,86953,1,0
256,128,87453,1,0
256,64,87828,1,0
256,192,88203,1,0
256,192,88328,1,0
256,192,88453,1,0
256,128,88703,5,0
256,192,88953,2,0,B|256:352,3,140
320,320,90703,1,0
320,288,90953,2,0,B|320:192,4,70
320,320,92203,1,0
320,320,92328,1,0
320,320,92453,1,0
256,96,92953,5,0
256,160,93328,1,0
256,224,93703,1,0
192,224,93953,1,0
192,160,94328,1,0
192,96,94703,1,0
128,96,94953,1,0
128,224,95453,1,0
128,224,95828,1,0
256,320,96453,1,0
256,64,97453,5,0
256,128,97703,1,0
256,192,97953,2,0,B|256:288,4,70
256,64,99453,5,0
256,128,99703,1,0
256,192,99953,2,0,B|256:288,2,70
256,192,100703,1,0
256,192,100828,1,0
256,192,100953,1,0
256,96,101453,5,0
256,160,101703,1,0
256,224,101953,1,0
256,288,102328,1,0
256,352,102703,1,0
256,352,102828,1,0
256,352,102953,1,0
64,192,103453,5,0
128,192,103703,1,0
128,192,103953,2,0,B|256:192,1,105
288,192,104703,1,0
288,192,104828,1,0
288,192,104953,1,0
256,64,105453,5,0
256,128,105703,1,0
256,192,105953,2,0,B|256:320,1,105
256,352,106703,1,0
256,352,106828,1,0
256,352,106953,1,0
96,192,107453,5,0
96,192,107703,1,0
96,192,107953,2,0,B|224:192,1,105
256,192,108703,1,0
256,192,108828,1,0
256,192,108953,1,0
256,128,109453,5,0
256,128,109703,1,0
256,128,109953,1,0
256,192,110328,1,0
256,192,110953,12,0,111953
256,192,131953,12,0,133453
256,192,133953,12,0,135453
256,128,135953,6,0,B|256:192,15,35
96,96,138453,5,0
96,160,138703,1,0
96,224,138953,1,0
96,288,139203,1,0
96,352,139453,1,0
160,352,139703,1,0
224,352,139953,1,0
288,352,140453,1,0
352,352,140953,1,0
416,352,141453,1,0
256,192,141953,1,0
64,32,142453,5,0
64,96,142703,1,0
64,160,142953,1,0
64,224,143203,1,0
64,288,143453,1,0
128,288,143703,1,0
192,288,143953,1,0
256,288,144203,1,0
320,288,144453,1,0
384,288,144703,1,0
384,224,144953,1,0
384,160,145203,1,0
384,96,145453,1,0
384,32,145703,1,0
320,32,145953,2,0,B|224:32,1,70
256,96,146453,5,0
256,160,146703,1,0
256,224,146953,1,0
256,288,147203,1,0
192,288,147453,1,0
128,288,147703,1,0
128,224,147953,1,0
128,160,148203,1,0
128,96,148453,1,0
192,96,148703,1,0
256,160,148953,1,0
256,160,149203,1,0
256,160,149453,1,0
256,192,149953,12,0,153453
160,64,161953,5,0
256,64,162328,1,0
352,64,162703,1,0
352,160,162953,1,0
256,160,163328,1,0
160,160,163703,1,0
160,256,163953,1,0
256,256,164453,1,0
352,256,164828,1,0
256,320,165203,1,0
256,320,165328,1,0
256,320,165453,1,0
352,320,165953,5,0
256,320,166328,1,0
160,320,166703,1,0
160,224,166953,1,0
256,224,167328,1,0
352,224,167703,1,0
352,128,167953,1,0
256,128,168453,1,0
160,128,168828,1,0
256,64,169203,1,0
256,64,169328,1,0
256,64,169453,1,0
256,128,169703,5,0
256,192,169953,2,0,B|256:352,3,140
192,320,171703,1,0
192,256,171953,2,0,B|192:128,2,105
192,320,173203,1,0
192,320,173328,1,0
192,320,173453,1,0
256,64,173953,5,0
256,128,174328,1,0
256,192,174703,1,0
160,128,174953,1,0
160,192,175328,1,0
160,256,175703,1,0
224,256,175953,2,0,B|448:256,1,210
416,320,177203,1,0
416,320,177328,1,0
416,320,177453,1,0
256,64,178453,5,0
256,128,178703,1,0
256,192,178953,2,0,B|256:288,2,70
192,192,179703,1,0
192,256,179953,1,0
192,320,180203,1,0
256,320,180453,5,0
320,320,180703,1,0
320,256,180953,2,0,B|320:160,2,70
384,256,181703,1,0
448,256,181953,1,0
448,192,182203,1,0
448,128,182453,5,0
384,128,182703,1,0
320,128,182953,2,0,B|160:128,1,140
128,128,183703,1,0
128,192,183953,1,0
192,192,184203,5,0
256,192,184453,1,0
320,192,184703,1,0
320,256,184953,2,0,B|192:256,1,105
160,256,185703,1,0
160,256,185828,1,0
160,256,185953,1,0
160,320,186203,1,0
224,320,186453,5,0
288,320,186703,1,0
352,320,186953,2,0,B|352:224,2,70
416,320,187703,1,0
416,256,187953,1,0
416,192,188203,1,0
352,192,188453,1,0
288,192,188703,1,0
224,192,188953,2,0,B|224:288,2,70
224,128,189703,1,0
224,128,189953,1,0
224,128,190203,2,0,B|320:128,1,70
352,128,190703,1,0
352,192,190953,5,0
352,256,191203,1,0
352,320,191453,1,0
288,320,191703,1,0
224,320,191953,1,0
256,192,192578,12,0,193953
