osu file format v5

[General]
AudioFilename: orange_range_-_monkey_magic-nekelstal.mp3
AudioLeadIn: 0
PreviewTime: -1
Countdown: 1
SampleSet: None
StackLeniency: 0.7
Mode: 0
LetterboxInBreaks: 1
EditorBookmarks: 45953,77328,80828,112578,131953,153953,161078

[Metadata]
Title:Monkey Magic
Artist:Orange Range
Creator:minyeob
Version:Easy
Source:
Tags:

[Difficulty]
HPDrainRate:5
CircleSize:4
OverallDifficulty:5
SliderMultiplier:1.4
SliderTickRate:1

[Events]
//Background and Video events
//Break Periods
2,77153,80003
2,112153,131253
2,153653,160753
//Storyboard Layer 0 (Background)
//Storyboard Layer 1 (Failing)
//Storyboard Layer 2 (Passing)
//Storyboard Layer 3 (Foreground)
//Storyboard Sound Samples
//Background Colour Transformations
3,100,163,162,255

[TimingPoints]
45950,500,4,0,0,100,1

[HitObjects]
96,96,45953,1,0
192,96,46450,1,0
288,96,46950,1,0
384,96,47450,1,0
384,192,47953,2,0,B|128:192,1,245
384,288,49950,5,0
288,288,50450,1,0
192,288,50950,1,0
96,288,51453,1,0
96,192,51953,2,0,B|352:192,1,245
256,96,53953,6,0,B|256:384,3,280
160,96,57953,1,0
256,96,58453,1,0
352,96,58953,1,0
352,192,59453,1,0
256,192,59953,1,0
160,192,60453,1,0
256,288,60953,5,0
256,64,62453,5,0
256,64,62703,1,0
256,64,62953,1,0
256,352,64453,5,0
256,352,64703,1,0
256,352,64953,1,0
448,192,66453,5,0
448,192,66703,1,0
448,192,66953,1,0
96,192,68453,5,0
96,192,68703,1,0
96,192,68953,1,0
256,192,70453,5,0
256,192,70703,1,0
256,192,70953,1,0
256,96,72450,2,0,B|256:256,1,140
256,64,74453,5,0
256,128,74703,1,0
256,192,74953,1,0
256,352,76453,5,0
256,288,76703,1,0
256,224,76953,1,0
96,96,80953,5,0
192,96,81453,1,0
288,96,81953,1,0
384,96,82453,1,0
384,192,82953,1,0
288,192,83453,1,0
192,192,83953,1,0
64,352,84953,5,0
192,352,85453,1,0
320,352,85953,1,0
448,352,86453,1,0
448,224,86953,1,0
320,224,87453,1,0
192,224,87953,1,0
256,96,88953,6,0,B|256:256,6,140
256,96,92953,1,0
256,160,93453,1,0
256,224,93953,1,0
256,288,94453,1,0
256,192,94953,5,0
256,192,95453,1,0
256,192,95953,1,0
256,64,97453,1,0
256,64,97703,1,0
256,64,97953,1,0
256,192,99453,5,0
256,192,99703,1,0
256,192,99953,1,0
256,352,101453,5,0
256,352,101703,1,0
256,352,101953,1,0
256,192,103453,5,0
256,192,103703,1,0
256,192,103953,1,0
256,32,105453,5,0
256,32,105703,1,0
256,32,105953,1,0
32,192,107453,5,0
32,192,107703,1,0
32,192,107953,1,0
480,192,109453,5,0
480,192,109703,1,0
480,192,109953,1,0
256,96,111453,5,0
256,160,111703,1,0
256,224,111953,1,0
256,192,132453,12,0,133453
256,192,133953,12,0,135453
256,64,135953,5,0
256,128,136453,1,0
256,192,136953,1,0
256,256,137453,1,0
160,192,138453,5,0
160,96,138953,1,0
256,96,139453,1,0
352,96,139953,1,0
352,192,140453,1,0
256,192,140953,1,0
256,288,141453,1,0
160,256,142453,5,0
160,160,142953,1,0
160,64,143453,1,0
256,64,143953,2,0,B|256:352,2,280
256,96,146453,5,0
256,160,146953,1,0
256,224,147453,1,0
256,288,147953,5,0
256,288,148453,1,0
256,288,148953,1,0
256,288,149453,1,0
256,192,149953,12,0,153453
256,64,161953,5,0
256,160,162453,1,0
256,256,162953,1,0
256,352,163453,1,0
256,192,163953,1,0
256,256,164453,1,0
256,256,164828,1,0
96,192,165953,5,0
192,192,166450,1,0
288,192,166950,1,0
384,192,167453,1,0
256,192,167953,1,0
256,128,168453,1,0
256,128,168828,1,0
256,64,169953,6,0,B|256:352,3,280
256,64,173953,5,0
256,128,174453,1,0
256,192,174953,1,0
256,256,175453,1,0
256,320,175953,1,0
192,320,176453,5,0
320,320,176953,5,0
256,160,178453,2,0,B|256:256,2,70
256,64,180453,6,0,B|256:160,2,70
256,192,182453,1,0
256,192,182703,1,0
256,192,182953,1,0
256,288,184453,5,0
256,288,184703,1,0
256,288,184953,1,0
256,192,186453,5,0
256,192,186703,1,0
256,192,186953,1,0
256,96,188453,1,0
256,160,188703,1,0
256,224,188953,1,0
256,192,189953,12,0,193328
