osu file format v4

[General]
AudioFilename: Asterisk half version.mp3
AudioLeadIn: 3000
AudioHash: 61b01467d4f7d7a5f58cf6b042a8c00b
PreviewTime: -1
Countdown: 1
SampleSet: Normal
EditorBookmarks: 0

[Metadata]
Title:Asterisk
Artist:Orange Range
Creator:Ozitiho
Version:Hard

[Difficulty]
HPDrainRate:7
CircleSize:6
OverallDifficulty:6
SliderMultiplier: 1.4
SliderTickRate: 1

[Events]
//Background and Video events
1,0,"b498c42b9b73db1611d26192111bc229.avi"
//Break Periods
//Storyboard Layer 0 (Background)
//Storyboard Layer 1 (Failing)
//Storyboard Layer 2 (Passing)
//Storyboard Layer 3 (Foreground)
//Storyboard Sound Samples
//Background Colour Transformations
3,100,162,161,254

[TimingPoints]
1618,483.675937122128,4,1,0,100

[Colours]
Combo1 : 20,20,20
Combo2 : 191,191,191
Combo3 : 88,1,40
Combo4 : 203,113,12
Combo5 : 0,0,128

[HitObjects]
120,72,1618,1,0
120,72,1738,1,0
176,72,1980,5,0
176,72,2101,1,0
224,72,2343,5,0
224,72,2463,1,0
272,72,2706,5,0
272,72,2827,1,0
168,136,3008,6,0,B|168:136|240:136,5,70
240,136,4399,1,0
224,192,4701,1,0
136,64,9356,5,0
136,64,9477,1,0
208,64,9719,5,0
208,64,9840,1,0
288,64,10082,5,0
288,64,10203,1,0
360,64,10445,5,0
360,64,10566,1,0
256,192,10807,5,0
256,192,11049,1,0
256,192,11291,1,0
256,192,11533,1,0
256,192,11775,1,0
320,192,12017,5,0
320,192,12137,1,0
384,192,12440,1,0
256,192,15160,5,4
96,96,17035,5,0
152,72,17277,1,0
208,72,17518,1,0
248,112,17760,1,0
152,176,18244,5,0
200,208,18486,1,0
256,224,18728,1,0
312,224,19030,1,0
352,184,19272,1,0
368,128,19514,1,0
344,72,19755,1,0
232,104,20239,5,0
184,136,20481,1,0
136,160,20723,1,0
112,224,20965,5,0
160,248,21206,1,0
208,272,21448,1,0
264,272,21690,1,0
352,336,22113,5,0
296,343,22355,1,0
239,343,22597,1,0
185,328,22839,1,0
140,298,23081,2,0,B|140:298|139:226,5,70
139,228,24532,1,0
144,146,24773,5,0
191,116,25015,1,0
244,98,25257,1,0
286,134,25498,1,0
140,76,26043,5,0
191,52,26285,1,0
246,45,26527,1,0
300,55,26769,1,0
240,112,27010,5,0
240,112,27252,1,0
240,112,27494,1,0
240,176,27917,1,0
239,176,28159,1,0
239,176,28401,1,0
176,200,28643,5,0
224,232,28885,1,0
280,224,29127,1,0
304,168,29369,1,0
304,104,30033,2,4,B|304:104|305:32,3,70
80,64,32512,5,0
136,64,32754,2,0,B|136:64|184:64,1,35
128,176,33359,1,0
128,176,33480,1,0
128,176,33601,1,0
128,176,33722,1,0
128,176,33843,1,0
128,176,33964,1,0
128,176,34085,1,0
128,176,34206,1,0
128,272,34447,5,0
160,232,34689,1,0
192,200,34931,1,0
224,232,35173,1,0
248,264,35415,1,0
368,272,35717,1,0
368,272,35838,1,0
440,192,36079,1,0
440,192,36200,1,0
320,192,36382,5,0
320,192,36503,1,0
320,192,36624,1,0
320,192,36744,1,0
320,192,36865,1,0
320,192,36986,1,0
320,192,37107,1,0
320,192,37228,1,0
320,192,37349,1,0
320,192,37470,1,0
320,192,37591,1,0
320,192,37712,1,0
320,192,37893,1,0
224,200,38135,5,0
160,160,38377,1,0
96,128,38619,1,0
32,80,38861,1,0
32,80,39102,1,0
64,216,39344,5,0
96,232,39526,1,0
96,232,39647,1,0
96,232,39767,1,0
432,64,40191,5,0
432,64,40312,1,0
368,64,40554,1,0
368,64,40675,1,0
320,64,40796,1,0
320,64,40917,1,0
320,128,41279,1,0
432,136,41521,1,0
432,136,41642,1,0
432,136,41763,1,0
352,208,42246,6,0,B|352:208|280:208,6,70
160,288,44121,5,0
160,288,44241,1,0
160,288,44362,1,0
160,288,44483,1,0
160,288,44604,1,0
160,288,44725,1,0
224,224,44967,5,0
224,224,45088,1,0
160,176,45390,1,0
160,176,45511,1,0
200,112,45813,5,4
264,72,46055,5,4
336,120,46297,5,4
280,192,46538,5,4
200,112,46780,5,4
168,200,47990,2,0,B|168:200|168:128,2,70
168,264,48715,2,0,B|168:264|168:336,2,70
112,232,49441,2,0,B|112:232|32:232,2,70
216,232,50167,2,0,B|216:232|288:232,2,70
160,176,50892,2,0,B|160:176|160:104,2,70
256,192,51980,12,0,55668
96,56,57724,5,0
96,56,57845,1,0
152,56,58026,1,0
152,56,58147,1,0
96,128,58389,5,0
96,128,58510,1,0
152,128,58752,1,0
152,128,58873,1,0
80,176,59175,5,0
120,232,59417,1,0
152,288,59659,1,0
192,232,59900,1,0
224,288,60142,1,0
264,232,60384,1,0
264,232,60505,1,0
304,288,60747,1,0
88,64,61593,5,0
176,64,61775,1,0
200,96,61896,1,0
216,64,62017,1,0
240,96,62138,1,0
304,64,62379,5,0
304,64,62500,1,0
304,64,62621,1,0
368,64,62742,1,0
416,64,62984,1,0
440,200,63226,5,0
440,200,63528,2,0,B|440:200|429:172|416:200,4,35
440,264,64435,1,0
440,264,64556,1,0
440,328,64798,1,0
440,328,64919,1,0
240,336,65463,5,0
240,336,65584,1,0
240,256,65765,1,0
240,256,65886,1,0
160,336,66128,5,0
160,336,66249,1,0
160,256,66491,1,0
160,256,66611,1,0
96,192,66853,5,0
144,128,67095,1,0
200,192,67336,1,0
224,160,67518,1,0
320,192,67760,1,0
320,192,67881,1,0
256,264,68123,1,0
256,264,68244,1,0
144,256,68546,1,0
72,96,69272,5,0
160,96,69514,1,0
240,96,69816,2,0,B|240:96,1,0
312,96,70118,2,0,B|312:96|305:73|336:96,5,35
312,96,70904,1,0
448,192,71267,5,0
416,192,71509,1,0
448,192,71751,1,0
416,192,71992,1,0
352,192,72234,2,0,B|352:192|312:192,4,35
256,192,72899,1,0
152,256,73202,5,0
152,256,73322,1,0
152,168,73564,1,0
152,168,73685,1,0
240,256,73927,5,0
240,256,74048,1,0
240,168,74290,1,0
240,168,74411,1,0
120,104,74652,5,0
144,64,74894,1,0
168,104,75136,1,0
184,64,75317,1,0
216,104,75559,1,0
304,56,75801,5,0
304,96,75983,1,0
304,176,76285,1,0
96,312,77010,5,0
152,248,77252,2,0,B|152:248|152:200,3,35
152,176,77978,1,0
152,176,78220,1,0
152,176,78462,1,0
152,96,78764,2,0,B|152:96|200:96,6,35
56,96,79973,1,0
56,96,80093,1,0
56,176,80336,1,0
56,176,80457,1,0
256,192,81001,12,0,86805
