osu file format v14

[General]
AudioFilename: katharsis.mp3
AudioLeadIn: 0
PreviewTime: 31526
Countdown: 1
SampleSet: Soft
StackLeniency: 0.7
Mode: 0
LetterboxInBreaks: 1
WidescreenStoryboard: 1

[Editor]
DistanceSpacing: 0.8
BeatDivisor: 4
GridSize: 8
TimelineZoom: 0.5999999

[Metadata]
Title:Mousou Katharsis
TitleUnicode:妄想Katharsis
Artist:Orange Heart(cv:Honda Mariko) Neptune(cv:Tanaka Rie)
ArtistUnicode:オレンジハート(cv:本多真梨子)・ネプテューヌ(cv:田中理恵)
Creator:blissfulyoshi
Version:Normal
Source:新次元ゲイム ネプテューヌVⅡ
Tags:Shin Jigen Game Hyperdimension Neptunia Victory 2 VII 7 Dimension H ED
BeatmapID:734715
BeatmapSetID:331697

[Difficulty]
HPDrainRate:4
CircleSize:3
OverallDifficulty:4
ApproachRate:4
SliderMultiplier:2.99999990463257
SliderTickRate:2

[Events]
//Background and Video events
Video,0,"katharsis.avi"
0,0,"49978296_p0.jpg",0,0
//Break Periods
//Storyboard Layer 0 (Background)
//Storyboard Layer 1 (Fail)
//Storyboard Layer 2 (Pass)
//Storyboard Layer 3 (Foreground)
//Storyboard Sound Samples

[TimingPoints]
246,731.707317073171,4,2,0,50,1,0

[Colours]
Combo1 : 255,197,76
Combo2 : 255,136,83
Combo3 : 192,52,61

[HitObjects]
144,120,246,6,0,P|64:160|56:240,1,149.999995231629
144,296,977,2,0,P|224:256|232:176,1,149.999995231629,2|0,0:0|0:0,0:0:0:0:
240,80,1709,1,0,0:0:0:0:
352,112,2075,1,0,0:0:0:0:
320,232,2441,1,2,0:0:0:0:
440,264,2806,1,0,0:0:0:0:
360,352,3172,2,0,P|288:368|224:280,1,149.999995231629
208,208,3904,2,0,L|192:56,1,149.999995231629,2|0,0:0|0:0,0:0:0:0:
72,24,4636,2,0,L|88:176,1,149.999995231629
144,280,5367,2,0,P|208:305|290:259,1,149.999995231629,2|0,0:0|0:0,0:0:0:0:
368,192,6099,6,0,L|472:64,1,149.999995231629
352,24,6831,2,0,L|192:56,1,149.999995231629,2|0,0:0|0:0,0:0:0:0:
88,80,7563,1,0,0:0:0:0:
176,160,7928,1,0,0:0:0:0:
72,216,8294,1,2,0:0:0:0:
160,296,8660,1,0,0:0:0:0:
56,352,9026,2,0,B|104:352|104:352|120:368|160:392|208:368|221:348,1,149.999995231629
312,320,9758,2,0,P|368:280|408:208,1,149.999995231629,2|0,0:0|0:0,0:0:0:0:
320,128,10489,2,0,P|288:224|210:243,1,149.999995231629
128,232,11221,1,2,0:0:0:0:
40,144,11587,1,0,0:0:0:0:
128,64,11953,6,0,P|208:32|288:40,1,149.999995231629,4|0,0:0|0:0,0:0:0:0:
384,64,12685,1,8,0:0:0:0:
448,168,13050,1,0,0:0:0:0:
376,264,13416,2,0,B|336:288|304:264|272:240|232:264,1,149.999995231629
120,304,14148,2,0,B|96:264|120:232|144:200|120:160,1,149.999995231629,8|0,0:0|0:0,0:0:0:0:
56,64,14880,1,0,0:0:0:0:
168,16,15245,1,0,0:0:0:0:
200,128,15611,2,0,B|256:128|256:128|264:120|264:120|264:136|264:136|272:128|272:128|328:128,1,149.999995231629,8|0,0:0|0:0,0:0:0:0:
448,128,16343,2,0,P|424:199|355:246,1,149.999995231629
248,280,17075,1,8,0:0:0:0:
136,328,17441,1,0,0:0:0:0:
16,328,17806,6,0,P|23:254|81:192,1,149.999995231629
192,192,18538,2,0,B|176:152|120:160|80:112|88:32|128:-8|184:-16|224:24|216:32|216:32|208:24|248:-16|304:-8|344:32|352:112|312:160|256:152|240:192,1,599.999980926514,8|8,0:0|0:0,0:0:0:0:
216,312,20367,1,0,0:0:0:0:
112,248,20733,2,0,P|55:205|16:120,1,149.999995231629
120,64,21465,2,0,P|177:107|216:192,1,149.999995231629,8|0,0:0|0:0,0:0:0:0:
312,240,22197,2,0,P|310:161|285:86,1,149.999995231629
392,40,22928,1,12,0:0:0:0:
464,136,23294,1,0,0:0:0:0:
472,256,23660,6,0,P|448:320|376:312,1,149.999995231629,4|0,0:0|0:0,0:0:0:0:
288,232,24392,2,0,B|295:216|351:232|344:360|207:368|88:264|175:104|292:94|383:149|388:243,1,449.999985694885,8|0,0:0|0:0,0:0:0:0:
360,336,25855,1,8,0:0:0:0:
248,376,26220,1,0,0:0:0:0:
144,320,26587,2,0,P|104:248|120:160,1,149.999995231629
120,64,27319,2,0,L|264:24,1,149.999995231629,8|0,0:0|0:0,0:0:0:0:
352,104,28050,2,0,L|208:144,1,149.999995231629
176,256,28782,1,8,0:0:0:0:
264,344,29148,1,0,0:0:0:0:
384,328,29514,6,0,P|488:192|432:80,1,299.999990463257,0|8,0:0|0:0,0:0:0:0:
344,16,30611,1,0,0:0:0:0:
368,136,30977,2,0,P|408:201|332:251,1,149.999995231629
256,280,31709,2,0,L|80:320,1,149.999995231629,8|0,0:0|0:0,0:0:0:0:
8,240,32441,2,0,L|184:200,1,149.999995231629
272,176,33172,2,0,P|344:144|384:88,1,149.999995231629,8|0,0:0|0:0,0:0:0:0:
504,112,33904,2,0,B|480:205|432:232|408:192|448:296|472:312|512:320|560:336|592:120|496:128|376:280|322:278,1,449.999985694885
256,288,35367,6,0,P|192:304|104:304,1,149.999995231629,4|0,0:0|0:0,0:0:0:0:
0,232,36099,2,0,P|-8:176|32:88,1,149.999995231629,2|0,0:0|0:0,0:0:0:0:
128,24,36831,1,0,0:0:0:0:
208,112,37197,1,0,0:0:0:0:
288,24,37563,1,2,0:0:0:0:
368,112,37928,1,0,0:0:0:0:
304,216,38294,2,0,B|224:216|224:216|152:256,1,149.999995231629
162,370,39026,2,0,B|242:370|242:370|314:330,1,149.999995231629,2|0,0:0|0:0,0:0:0:0:
400,264,39758,2,0,B|464:208|464:208|464:136,1,149.999995231629
408,40,40489,2,0,P|336:80|272:72,1,149.999995231629,2|0,0:0|0:0,0:0:0:0:
192,160,41221,6,0,P|265:153|328:191,1,149.999995231629
239,272,41953,1,2,0:0:0:0:
128,320,42319,1,0,0:0:0:0:
16,272,42685,1,0,0:0:0:0:
16,152,43050,1,0,0:0:0:0:
128,104,43416,2,0,B|128:160|128:160|136:168|136:168|120:168|120:168|128:176|128:176|128:232,1,149.999995231629,2|0,0:0|0:0,0:0:0:0:
256,192,44148,12,4,46343,0:0:0:0:
