osu file format v12

[General]
AudioFilename: Shanghai Romance.mp3
AudioLeadIn: 0
PreviewTime: 118026
Countdown: 0
SampleSet: Normal
StackLeniency: 0.7
Mode: 0
LetterboxInBreaks: 0

[Editor]
Bookmarks: 209939
DistanceSpacing: 1.2
BeatDivisor: 4
GridSize: 4

[Metadata]
Title:Shanghai Romance
TitleUnicode:샹하이 로맨스
Artist:Orange Caramel
ArtistUnicode:오렌지캬라멜
Creator:Kurai
Version:Insane
Source:
Tags:K-Pop Kpop Aldwych
BeatmapID:167300
BeatmapSetID:55082

[Difficulty]
HPDrainRate:7
CircleSize:5
OverallDifficulty:7
ApproachRate:8
SliderMultiplier:1.8
SliderTickRate:2

[Events]
//Background and Video events
0,0,"sha.jpg",0,0
Video,-300,"shasha.avi"
//Break Periods
2,92555,98048
2,156984,168920
//Storyboard Layer 0 (Background)
//Storyboard Layer 1 (Fail)
//Storyboard Layer 2 (Pass)
//Storyboard Layer 3 (Foreground)
//Storyboard Sound Samples
//Background Colour Transformations
3,100,163,162,255

[TimingPoints]
15040,402.684563758389,4,1,1,80,1,0
27925,-100,4,1,1,50,0,0
31147,-100,4,1,2,60,0,0
32858,-100,4,1,1,80,0,0
40811,-100,4,1,1,80,0,0
66583,-100,4,1,1,100,0,1
79419,-100,4,1,1,100,0,0
79469,-100,4,1,1,100,0,1
90744,-100,4,1,1,80,0,1
92355,-100,4,1,1,80,0,0
118127,-100,4,1,1,100,0,1
130962,-100,4,1,1,100,0,0
131013,-100,4,1,1,100,0,1
143899,-100,4,1,1,70,0,0
183764,-100,4,2,1,5,0,0
184167,-100,4,1,1,100,0,1
197003,-100,4,1,1,100,0,0
197053,-100,4,1,1,100,0,1
209939,-100,4,1,1,100,0,0

[Colours]
Combo1 : 0,236,0
Combo2 : 115,85,200
Combo3 : 53,209,255
Combo4 : 241,128,14
SliderBorder : 255,69,0

[HitObjects]
80,104,15040,2,0,B|48:192|84:296,1,180,4|8,0:0|0:0,0:0:0:0:
256,304,15845,1,0,0:0:0:0:
348,336,16046,1,0,0:0:0:0:
408,272,16248,1,8,0:0:0:0:
496,272,16449,1,0,0:0:0:0:
464,192,16650,6,0,B|424:168|408:116|432:56|504:56,1,180,0|8,0:0|0:0,0:0:0:0:
312,72,17456,1,0,0:0:0:0:
240,128,17657,1,0,0:0:0:0:
168,184,17858,1,8,0:0:0:0:
80,168,18060,1,0,0:0:0:0:
104,256,18261,6,0,B|142:292|209:291|260:256|257:192,1,180,0|8,0:0|0:0,0:0:0:0:
328,273,18865,2,0,B|335:229|385:193|439:203|477:239,1,180,0|0,0:0|0:0,0:0:0:0:
480,144,19469,2,0,B|424:123|382:132,1,90,8|0,0:0|0:0,0:0:0:0:
304,152,19872,6,0,B|256:176|209:169|170:134|169:79,1,180,0|8,0:0|0:0,0:0:0:0:
258,71,20476,2,0,B|226:161|146:228,1,180
64,216,21080,1,8,0:0:0:0:
72,304,21281,1,0,0:0:0:0:
152,344,21482,6,0,B|192:360|288:320|336:344,1,180,4|8,0:0|0:0,0:0:0:0:
400,176,22288,2,0,B|452:256,2,90,0|0|8,0:0|0:0|0:0,0:0:0:0:
352,100,22892,1,0,0:0:0:0:
280,152,23093,6,0,B|260:196|208:212|152:200|128:160,1,180,0|8,0:0|0:0,0:0:0:0:
40,320,23899,1,0,0:0:0:0:
124,284,24100,1,0,0:0:0:0:
196,336,24301,1,8,0:0:0:0:
280,304,24503,1,0,0:0:0:0:
368,316,24704,6,0,B|416:312|456:332|456:332|464:284|504:252,1,180,0|8,0:0|0:0,0:0:0:0:
412,236,25308,2,0,B|352:236|324:196|308:160|324:108,1,180
408,144,25912,1,8,0:0:0:0:
256,44,26315,5,4,0:0:0:0:
256,192,27925,5,0,0:0:0:0:
76,340,29133,5,0,0:0:0:0:
49,254,29335,1,0,0:0:0:0:
135,227,29536,1,0,0:0:0:0:
162,313,29737,1,0,0:0:0:0:
162,313,30140,1,0,0:0:0:0:
318,52,31147,5,2,0:0:0:0:
142,89,31550,1,2,0:0:0:0:
123,268,31952,1,2,0:0:0:0:
287,341,32355,1,2,0:0:0:0:
408,208,32758,1,2,0:0:0:0:
68,192,34368,6,0,B|116:180|140:116,1,90,4|0,0:0|0:0,0:0:0:0:
132,44,34771,1,0,0:0:0:0:
196,212,35174,1,0,0:0:0:0:
352,120,35576,6,0,B|328:176|288:192,1,90
360,252,35979,1,0,0:0:0:0:
308,324,36180,2,0,B|200:304|116:344,1,180
44,180,36986,1,0,0:0:0:0:
20,268,37187,1,0,0:0:0:0:
180,188,37590,5,0,0:0:0:0:
332,88,37993,1,0,0:0:0:0:
356,268,38395,2,0,B|312:184,1,90,0|0,0:0|0:0,0:0:0:0:
204,332,38999,1,0,0:0:0:0:
116,352,39201,5,0,0:0:0:0:
96,344,39301,1,0,0:0:0:0:
80,328,39402,1,0,0:0:0:0:
72,308,39503,1,0,0:0:0:0:
72,284,39603,1,0,0:0:0:0:
80,264,39704,1,0,0:0:0:0:
96,248,39805,1,0,0:0:0:0:
116,236,39905,1,0,0:0:0:0:
136,224,40006,1,0,0:0:0:0:
156,212,40107,1,0,0:0:0:0:
172,196,40207,1,0,0:0:0:0:
188,180,40308,1,0,0:0:0:0:
196,160,40409,1,0,0:0:0:0:
192,136,40509,1,0,0:0:0:0:
180,116,40610,1,0,0:0:0:0:
176,92,40711,1,0,0:0:0:0:
184,72,40811,5,4,0:0:0:0:
284,32,41013,1,0,0:0:0:0:
340,124,41214,2,0,B|304:160|312:216,1,90,8|0,0:0|0:0,0:0:0:0:
440,252,41617,2,0,B|426:202|374:181,1,90,0|0,0:0|0:0,0:0:0:0:
276,276,42019,2,0,B|325:289|369:254,1,90,8|0,0:0|0:0,0:0:0:0:
184,236,42422,5,0,0:0:0:0:
96,296,42623,2,0,B|124:388,2,90
32,208,43227,2,0,B|32:148|72:104|112:88|168:88,1,180,0|8,0:0|0:0,0:0:0:0:
308,96,44033,6,0,B|372:160,1,90
460,175,44435,2,8,B|371:160,1,90,8|0,0:0|0:0,0:0:0:0:
413,80,44838,2,0,B|371:160,1,90
385,248,45241,2,0,B|370:158,1,90,8|0,0:0|0:0,0:0:0:0:
292,200,45644,5,0,0:0:0:0:
292,308,45845,1,0,0:0:0:0:
199,254,46046,2,0,B|160:220|104:220,1,90,8|0,0:0|0:0,0:0:0:0:
72,300,46449,2,0,B|28:272|12:220|32:168|72:144,1,180,0|8,0:0|0:0,0:0:0:0:
323,72,47254,6,0,B|292:104|240:100,1,90
427,203,47657,2,0,B|396:172|400:120,1,90,8|0,0:0|0:0,0:0:0:0:
296,307,48060,2,0,B|328:276|380:280,1,90
184,188,48462,2,0,B|216:220|212:272,1,90,8|0,0:0|0:0,0:0:0:0:
94,336,48865,6,0,B|120:304|120:252,1,90
34,276,49268,1,8,0:0:0:0:
56,189,49469,1,0,0:0:0:0:
128,136,49670,2,0,B|156:108|156:56|156:56|192:80|248:72,1,180,0|8,0:0|0:0,0:0:0:0:
380,192,50476,5,2,0:0:0:0:
256,320,50878,1,2,0:0:0:0:
108,216,51281,2,0,B|128:312,1,90,2|2,0:0|0:0,0:0:0:0:
32,152,51885,1,0,0:0:0:0:
88,84,52086,5,0,0:0:0:0:
112,72,52187,1,0,0:0:0:0:
136,64,52288,1,0,0:0:0:0:
164,60,52388,1,0,0:0:0:0:
192,56,52489,1,0,0:0:0:0:
212,76,52590,1,0,0:0:0:0:
232,92,52691,1,0,0:0:0:0:
256,100,52791,1,0,0:0:0:0:
280,92,52892,1,0,0:0:0:0:
300,76,52993,1,0,0:0:0:0:
320,56,53093,1,0,0:0:0:0:
348,60,53194,1,0,0:0:0:0:
376,64,53295,1,0,0:0:0:0:
400,72,53395,1,0,0:0:0:0:
424,84,53496,1,0,0:0:0:0:
444,100,53597,1,0,0:0:0:0:
440,128,53697,6,0,B|416:176|432:240,1,90,6|0,0:0|0:0,0:0:0:0:
440,308,54100,1,8,0:0:0:0:
356,344,54301,1,2,0:0:0:0:
272,316,54503,1,0,0:0:0:0:
184,336,54704,1,0,0:0:0:0:
184,336,54905,1,8,0:0:0:0:
200,248,55107,1,0,0:0:0:0:
112,248,55308,6,0,B|113:189|156:144|230:149|256:180,1,180,2|8,0:0|0:0,0:0:0:0:
200,248,55912,2,0,B|136:164|152:56,1,180,2|0,0:0|0:0,0:0:0:0:
228,32,56516,1,8,0:0:0:0:
422,205,56919,6,0,B|420:156|380:128,1,90
383,278,57321,2,0,B|420:296|472:280,1,90,8|0,0:0|0:0,0:0:0:0:
340,208,57724,2,0,B|300:231|294:283,1,90
228,220,58127,1,8,0:0:0:0:
156,272,58328,1,0,0:0:0:0:
84,220,58529,6,0,B|84:152|168:140|168:56,1,180,0|8,0:0|0:0,0:0:0:0:
256,60,59133,1,0,0:0:0:0:
316,128,59335,2,0,B|352:164|400:160,2,90,0|0|8,0:0|0:0|0:0,0:0:0:0:
256,300,60140,5,6,0:0:0:0:
428,252,60543,1,8,0:0:0:0:
352,296,60744,2,0,B|352:240|312:196|248:188|208:216,1,180,2|0,0:0|0:0,0:0:0:0:
172,280,61348,1,8,0:0:0:0:
88,312,61550,1,0,0:0:0:0:
72,224,61751,6,0,B|144:212|172:176|180:148|184:104,1,180,2|0,0:0|0:0,0:0:0:0:
100,136,62355,2,0,B|119:105|108:65|150:41|150:41|180:26|206:32|257:41|255:121,1,270,2|8,0:0|0:0,0:0:0:0:
428,258,63362,6,0,B|428:168,1,90,2|0,0:0|0:0,0:0:0:0:
278,324,63764,2,0,B|368:324,1,90,8|2,0:0|0:0,0:0:0:0:
216,170,64167,2,0,B|216:260,1,90,0|0,0:0|0:0,0:0:0:0:
370,104,64570,2,0,B|280:104,1,90,8|2,0:0|0:0,0:0:0:0:
200,64,64972,5,0,0:0:0:0:
176,60,65073,1,0,0:0:0:0:
152,60,65174,1,0,0:0:0:0:
128,64,65274,1,0,0:0:0:0:
108,72,65375,1,0,0:0:0:0:
88,84,65476,1,0,0:0:0:0:
76,104,65576,1,0,0:0:0:0:
64,124,65677,1,0,0:0:0:0:
60,144,65778,1,0,0:0:0:0:
60,168,65878,1,0,0:0:0:0:
64,188,65979,1,0,0:0:0:0:
76,208,66080,1,0,0:0:0:0:
84,228,66180,1,0,0:0:0:0:
88,252,66281,1,0,0:0:0:0:
84,276,66382,1,0,0:0:0:0:
76,296,66482,1,0,0:0:0:0:
56,320,66583,5,12,0:0:0:0:
161,265,66784,2,0,B|168:308|132:348,1,90,0|8,0:0|0:0,0:0:0:0:
244,288,67187,2,0,B|248:336|214:370,1,90,0|8,0:0|0:0,0:0:0:0:
348,280,67590,5,0,0:0:0:0:
348,172,67791,1,8,0:0:0:0:
441,226,67993,1,0,0:0:0:0:
340,160,68194,1,0,0:0:0:0:
340,294,68395,1,0,0:0:0:0:
456,227,68597,1,8,0:0:0:0:
420,116,68798,2,0,B|398:86|406:48|444:1|517:18|550:77|531:137|472:170|427:127,1,270,0|8,0:0|0:0,0:0:0:0:
244,56,69805,6,0,B|256:152,1,90,0|0,0:0|0:0,0:0:0:0:
140,156,70207,2,0,B|198:233,1,90,8|0,0:0|0:0,0:0:0:0:
100,300,70610,2,0,B|189:337,1,90,0|0,0:0|0:0,0:0:0:0:
292,296,71013,1,8,0:0:0:0:
416,328,71214,1,0,0:0:0:0:
384,216,71415,6,0,B|448:172|372:124|384:72|440:44,1,180,0|8,0:0|0:0,0:0:0:0:
188,60,72221,1,0,0:0:0:0:
256,156,72422,1,0,0:0:0:0:
324,60,72623,1,8,0:0:0:0:
132,192,73026,6,0,B|72:272,1,90,12|0,0:0|0:0,0:0:0:0:
256,240,73429,2,0,B|256:336,1,90,8|0,0:0|0:0,0:0:0:0:
380,192,73831,2,0,B|440:272,1,90,8|0,0:0|0:0,0:0:0:0:
436,92,74234,5,8,0:0:0:0:
324,60,74435,1,0,0:0:0:0:
256,156,74637,1,0,0:0:0:0:
188,60,74838,2,0,B|155:28|96:24|49:60|48:124,1,180
120,332,75644,2,0,B|148:268|144:224,1,90,0|8,0:0|0:0,0:0:0:0:
369,163,76248,5,2,0:0:0:0:
337,276,76449,1,0,0:0:0:0:
174,107,76650,1,10,0:0:0:0:
288,79,76852,1,0,0:0:0:0:
223,304,77053,1,0,0:0:0:0:
142,220,77254,1,2,0:0:0:0:
256,192,77657,1,0,0:0:0:0:
366,162,77858,5,0,0:0:0:0:
347,121,77958,1,0,0:0:0:0:
313,92,78059,1,0,0:0:0:0:
270,77,78160,1,0,0:0:0:0:
226,80,78260,1,0,0:0:0:0:
185,99,78361,1,0,0:0:0:0:
155,133,78462,1,0,0:0:0:0:
140,176,78562,1,0,0:0:0:0:
144,221,78663,1,0,0:0:0:0:
163,261,78764,1,0,0:0:0:0:
197,291,78864,1,0,0:0:0:0:
240,306,78965,1,0,0:0:0:0:
284,302,79066,1,0,0:0:0:0:
325,283,79166,1,0,0:0:0:0:
355,249,79267,1,0,0:0:0:0:
369,206,79368,1,0,0:0:0:0:
400,172,79469,6,0,B|428:124|492:128,1,90,12|0,0:0|0:0,0:0:0:0:
256,192,79872,2,0,B|256:80,1,90,8|0,0:0|0:0,0:0:0:0:
112,172,80274,2,0,B|84:124|20:128,1,90,8|0,0:0|0:0,0:0:0:0:
124,316,80677,5,8,0:0:0:0:
12,348,80878,1,0,0:0:0:0:
36,232,81080,1,0,0:0:0:0:
236,344,81281,2,0,B|428:336,1,180
468,108,82086,1,0,0:0:0:0:
392,200,82288,1,8,0:0:0:0:
164,252,82691,6,0,B|140:160,1,90
32,120,83093,2,0,B|123:145,1,90,8|0,0:0|0:0,0:0:0:0:
212,72,83496,2,0,B|144:138,1,90
376,192,84100,1,0,0:0:0:0:
348,304,84301,6,0,B|334:364|396:393|459:355|423:288,1,180,0|8,0:0|0:0,0:0:0:0:
304,96,85107,1,0,0:0:0:0:
376,192,85308,1,0,0:0:0:0:
420,84,85509,1,8,0:0:0:0:
26,116,85912,6,0,B|73:107|85:55,1,90,12|0,0:0|0:0,0:0:0:0:
136,252,86315,2,0,B|104:215|53:230,1,90,8|0,0:0|0:0,0:0:0:0:
198,92,86717,2,0,B|181:137|220:174,1,90,8|0,0:0|0:0,0:0:0:0:
336,160,87120,5,8,0:0:0:0:
444,203,87321,1,0,0:0:0:0:
400,312,87523,1,0,0:0:0:0:
292,268,87724,2,0,B|200:244|112:272,2,180
336,160,88731,1,8,0:0:0:0:
104,184,89133,6,0,B|148:160|152:108,1,90,2|0,0:0|0:0,0:0:0:0:
248,180,89536,2,0,B|274:137|251:90,1,90,10|0,0:0|0:0,0:0:0:0:
372,104,89939,2,0,B|373:53|330:24,1,90,0|2,0:0|0:0,0:0:0:0:
100,60,90543,1,0,0:0:0:0:
36,160,90744,5,0,0:0:0:0:
24,204,90845,1,0,0:0:0:0:
24,248,90946,1,0,0:0:0:0:
48,288,91046,1,0,0:0:0:0:
88,308,91147,1,0,0:0:0:0:
132,304,91248,1,0,0:0:0:0:
172,284,91348,1,0,0:0:0:0:
212,260,91449,1,0,0:0:0:0:
256,244,91550,1,0,0:0:0:0:
300,260,91650,1,0,0:0:0:0:
340,284,91751,1,0,0:0:0:0:
380,304,91852,1,0,0:0:0:0:
424,308,91952,1,0,0:0:0:0:
464,288,92053,1,0,0:0:0:0:
488,248,92154,1,0,0:0:0:0:
488,204,92254,1,0,0:0:0:0:
476,160,92355,1,4,0:0:0:0:
170,181,98798,6,0,B|174:129|230:109,1,90
308,123,99201,2,0,B|350:152|340:210,1,90,8|0,0:0|0:0,0:0:0:0:
289,271,99603,2,0,B|236:292|197:256,1,90
116,252,100006,1,8,0:0:0:0:
168,80,100409,5,0,0:0:0:0:
256,52,100610,1,0,0:0:0:0:
344,80,100811,1,8,0:0:0:0:
472,204,101214,2,0,B|440:168|424:116|432:72|456:28,1,180,0|8,0:0|0:0,0:0:0:0:
348,184,102019,6,0,B|380:220|396:272|388:316|364:360,1,180,2|10,0:0|0:0,0:0:0:0:
212,260,102825,2,0,B|304:308,1,90,2|2,0:0|0:0,0:0:0:0:
116,336,103429,1,0,0:0:0:0:
84,252,103630,5,0,0:0:0:0:
72,228,103731,1,0,0:0:0:0:
64,204,103831,1,0,0:0:0:0:
60,176,103932,1,0,0:0:0:0:
64,148,104033,1,0,0:0:0:0:
72,124,104133,1,0,0:0:0:0:
88,100,104234,1,0,0:0:0:0:
108,80,104335,1,0,0:0:0:0:
132,68,104435,1,0,0:0:0:0:
156,60,104536,1,0,0:0:0:0:
184,60,104637,1,0,0:0:0:0:
212,64,104737,1,0,0:0:0:0:
240,64,104838,1,0,0:0:0:0:
268,56,104939,1,0,0:0:0:0:
292,44,105039,1,0,0:0:0:0:
320,40,105140,1,0,0:0:0:0:
352,48,105241,6,0,B|404:64|436:112,1,90,2|0,0:0|0:0,0:0:0:0:
392,176,105644,1,8,0:0:0:0:
444,248,105845,1,2,0:0:0:0:
276,312,106248,1,2,0:0:0:0:
392,176,106650,1,0,0:0:0:0:
300,172,106852,6,0,B|256:160|164:208|144:184|112:172,1,180,2|8,0:0|0:0,0:0:0:0:
176,104,107456,1,2,0:0:0:0:
88,88,107657,1,0,0:0:0:0:
28,156,107858,1,0,0:0:0:0:
64,240,108060,1,8,0:0:0:0:
216,336,108462,6,0,B|348:348,1,90
389,247,108865,2,0,B|300:256,1,90,8|0,0:0|0:0,0:0:0:0:
210,155,109268,2,0,B|300:164,1,90
128,216,109872,1,0,0:0:0:0:
100,132,110073,6,0,B|108:64|168:28|240:48,1,180,0|8,0:0|0:0,0:0:0:0:
364,168,110878,1,0,0:0:0:0:
378,79,111080,1,0,0:0:0:0:
466,65,111281,1,8,0:0:0:0:
507,145,111482,1,0,0:0:0:0:
444,208,111684,6,0,B|432:264|384:316|304:324,1,180,2|8,0:0|0:0,0:0:0:0:
264,252,112288,1,2,0:0:0:0:
92,300,112691,2,0,B|152:256|152:180|120:132,1,180,2|0,0:0|0:0,0:0:0:0:
36,132,113295,5,2,0:0:0:0:
196,52,113697,1,8,0:0:0:0:
264,112,113899,1,2,0:0:0:0:
408,212,114301,1,0,0:0:0:0:
404,120,114503,1,8,0:0:0:0:
84,280,114905,6,0,B|136:264|144:212,1,90
48,124,115308,2,0,B|35:177|76:209,1,90,8|0,0:0|0:0,0:0:0:0:
204,168,115711,2,0,B|164:130|115:150,1,90
256,28,116315,1,0,0:0:0:0:
344,44,116516,5,0,0:0:0:0:
372,52,116617,1,0,0:0:0:0:
400,60,116717,1,0,0:0:0:0:
428,68,116818,1,0,0:0:0:0:
452,76,116919,1,0,0:0:0:0:
476,84,117019,1,0,0:0:0:0:
484,112,117120,1,0,0:0:0:0:
488,140,117221,1,0,0:0:0:0:
492,168,117321,1,0,0:0:0:0:
496,196,117422,1,0,0:0:0:0:
500,224,117523,1,0,0:0:0:0:
472,220,117623,1,0,0:0:0:0:
444,212,117724,1,0,0:0:0:0:
416,204,117824,1,0,0:0:0:0:
388,196,117925,1,0,0:0:0:0:
364,188,118026,1,0,0:0:0:0:
340,192,118127,6,0,B|233:207,1,90,12|0,0:0|0:0,0:0:0:0:
117,48,118529,2,0,B|183:131,1,90,8|0,0:0|0:0,0:0:0:0:
106,313,118932,2,0,B|145:212,1,90,8|0,0:0|0:0,0:0:0:0:
254,117,119335,5,8,0:0:0:0:
78,154,119536,1,0,0:0:0:0:
200,288,119737,1,0,0:0:0:0:
254,117,119939,1,0,0:0:0:0:
328,220,120140,1,0,0:0:0:0:
452,232,120342,1,0,0:0:0:0:
430,64,120744,2,0,B|364:152,1,90,0|8,0:0|0:0,0:0:0:0:
160,72,121348,6,0,B|121:104|65:82,1,90,0|0,0:0|0:0,0:0:0:0:
171,153,121751,2,0,B|152:200|94:209,1,90,8|0,0:0|0:0,0:0:0:0:
224,216,122154,2,0,B|232:268|186:303,1,90
420,352,122758,1,0,0:0:0:0:
376,244,122959,6,0,B|356:188|360:128|376:96|404:60,1,180,0|8,0:0|0:0,0:0:0:0:
160,72,123764,1,0,0:0:0:0:
60,132,123966,1,0,0:0:0:0:
108,240,124167,1,8,0:0:0:0:
340,264,124570,6,0,B|344:316|384:344,1,90,12|0,0:0|0:0,0:0:0:0:
480,192,124972,2,0,B|476:236|433:265,1,90,8|0,0:0|0:0,0:0:0:0:
292,176,125375,2,0,B|332:157|379:179,1,90,8|0,0:0|0:0,0:0:0:0:
316,80,125778,5,8,0:0:0:0:
212,132,125979,1,0,0:0:0:0:
108,80,126180,1,0,0:0:0:0:
120,196,126382,2,0,B|124:256|104:300|60:320|8:332,2,180
224,252,127388,1,8,0:0:0:0:
428,96,127791,6,0,B|388:184,1,90,2|0,0:0|0:0,0:0:0:0:
256,68,128194,2,0,B|256:168,1,90,10|0,0:0|0:0,0:0:0:0:
85,96,128597,2,0,B|125:184,1,90,2|2,0:0|0:0,0:0:0:0:
256,352,129201,1,0,0:0:0:0:
424,328,129402,5,0,0:0:0:0:
415,297,129503,1,0,0:0:0:0:
401,269,129603,1,0,0:0:0:0:
382,244,129704,1,0,0:0:0:0:
359,223,129805,1,0,0:0:0:0:
332,206,129905,1,0,0:0:0:0:
302,195,130006,1,0,0:0:0:0:
271,189,130107,1,0,0:0:0:0:
240,189,130207,1,0,0:0:0:0:
209,195,130308,1,0,0:0:0:0:
180,206,130409,1,0,0:0:0:0:
153,223,130509,1,0,0:0:0:0:
130,244,130610,1,0,0:0:0:0:
111,269,130711,1,0,0:0:0:0:
97,297,130811,1,0,0:0:0:0:
88,328,130912,1,0,0:0:0:0:
68,352,131013,6,0,B|20:332|8:276,1,90,12|0,0:0|0:0,0:0:0:0:
256,36,131415,2,0,B|256:136,1,90,8|0,0:0|0:0,0:0:0:0:
444,352,131818,2,0,B|492:332|504:276,1,90,12|0,0:0|0:0,0:0:0:0:
180,352,132221,5,8,0:0:0:0:
332,351,132423,1,0,0:0:0:0:
256,219,132624,1,0,0:0:0:0:
180,352,132825,1,0,0:0:0:0:
188,136,133227,2,0,B|208:88|256:72|312:88|328:140,1,180
448,192,133831,1,8,0:0:0:0:
256,328,134234,6,0,B|256:232,1,90
159,288,134637,2,0,B|227:220,1,90,8|0,0:0|0:0,0:0:0:0:
120,191,135039,2,0,B|216:192,1,90
404,56,135644,2,0,B|336:123,1,90
376,292,136248,5,8,0:0:0:0:
164,233,136650,1,0,0:0:0:0:
164,348,136852,1,0,0:0:0:0:
263,290,137053,1,8,0:0:0:0:
164,233,137254,1,0,0:0:0:0:
116,116,137456,6,0,B|164:112|184:60,1,90,14|0,0:0|0:0,0:0:0:0:
256,168,137858,2,0,B|256:72,1,90,8|0,0:0|0:0,0:0:0:0:
396,116,138261,2,0,B|348:112|328:60,1,90,8|0,0:0|0:0,0:0:0:0:
351,237,138664,5,8,0:0:0:0:
256,168,138865,1,0,0:0:0:0:
161,237,139066,1,0,0:0:0:0:
197,348,139268,1,0,0:0:0:0:
313,348,139469,1,8,0:0:0:0:
351,237,139670,2,0,B|396:236|436:216|472:168|468:120,1,180
416,20,140274,1,8,0:0:0:0:
144,108,140677,6,0,B|92:120|76:180,1,90,2|0,0:0|0:0,0:0:0:0:
168,264,141080,2,0,B|183:212|139:169,1,90,10|0,0:0|0:0,0:0:0:0:
24,207,141482,2,0,B|60:246|120:229,1,90,0|2,0:0|0:0,0:0:0:0:
336,192,142087,1,0,0:0:0:0:
476,160,142288,5,0,0:0:0:0:
488,204,142389,1,0,0:0:0:0:
488,248,142490,1,0,0:0:0:0:
464,288,142590,1,0,0:0:0:0:
424,308,142691,1,0,0:0:0:0:
380,304,142792,1,0,0:0:0:0:
340,284,142892,1,0,0:0:0:0:
300,260,142993,1,0,0:0:0:0:
256,244,143094,1,0,0:0:0:0:
212,260,143194,1,0,0:0:0:0:
172,284,143295,1,0,0:0:0:0:
132,304,143396,1,0,0:0:0:0:
88,308,143496,1,0,0:0:0:0:
48,288,143597,1,0,0:0:0:0:
24,248,143698,1,0,0:0:0:0:
24,204,143798,1,0,0:0:0:0:
36,160,143899,1,4,0:0:0:0:
151,41,144301,5,8,0:0:0:0:
228,68,144503,1,0,0:0:0:0:
272,148,144704,1,0,0:0:0:0:
352,184,144905,1,0,0:0:0:0:
444,184,145107,2,0,B|504:184|544:240|528:304|496:324,1,180,8|0,0:0|0:0,0:0:0:0:
424,276,145711,6,0,B|388:312|300:324|248:300,1,180
76,268,146516,1,0,0:0:0:0:
76,178,146717,1,8,0:0:0:0:
153,223,146919,1,0,0:0:0:0:
68,284,147120,5,0,0:0:0:0:
169,226,147322,1,0,0:0:0:0:
68,167,147523,1,8,0:0:0:0:
60,300,147724,1,0,0:0:0:0:
60,156,147925,1,0,0:0:0:0:
184,228,148127,1,0,0:0:0:0:
268,200,148328,2,8,B|316:184|368:208,1,90,8|0,0:0|0:0,0:0:0:0:
320,288,148731,6,0,B|344:328|408:332|460:312|460:236,1,180,0|8,0:0|0:0,0:0:0:0:
464,168,149335,1,0,0:0:0:0:
428,84,149536,1,0,0:0:0:0:
344,48,149737,1,0,0:0:0:0:
316,36,149838,1,0,0:0:0:0:
288,24,149939,1,8,0:0:0:0:
272,132,150140,1,0,0:0:0:0:
188,76,150342,6,0,B|132:60|88:80|60:112|52:160,1,180,0|8,0:0|0:0,0:0:0:0:
68,336,151147,1,0,0:0:0:0:
31,253,151348,1,0,0:0:0:0:
113,217,151550,1,8,0:0:0:0:
150,299,151751,1,0,0:0:0:0:
328,324,152154,6,0,B|376:236,1,90,0|8,0:0|0:0,0:0:0:0:
461,242,152556,2,0,B|360:244,1,90
324,168,152959,2,0,B|376:253,1,90,0|8,0:0|0:0,0:0:0:0:
332,68,153563,5,2,0:0:0:0:
256,116,153764,1,0,0:0:0:0:
180,68,153966,1,2,0:0:0:0:
256,322,154368,2,0,B|256:232,1,90,2|2,0:0|0:0,0:0:0:0:
116,348,154972,1,2,0:0:0:0:
64,276,155174,5,0,0:0:0:0:
48,252,155274,1,0,0:0:0:0:
40,228,155375,1,0,0:0:0:0:
36,200,155476,1,0,0:0:0:0:
40,172,155576,1,0,0:0:0:0:
52,148,155677,1,0,0:0:0:0:
68,128,155778,1,0,0:0:0:0:
92,112,155878,1,0,0:0:0:0:
116,104,155979,1,0,0:0:0:0:
144,104,156080,1,0,0:0:0:0:
168,112,156180,1,0,0:0:0:0:
192,120,156281,1,0,0:0:0:0:
220,124,156382,1,0,0:0:0:0:
248,120,156482,1,0,0:0:0:0:
272,112,156583,1,0,0:0:0:0:
300,108,156684,1,0,0:0:0:0:
328,112,156784,1,4,0:0:0:0:
256,60,169670,5,4,0:0:0:0:
256,60,170073,1,8,0:0:0:0:
204,232,170476,1,0,0:0:0:0:
256,304,170677,1,0,0:0:0:0:
308,232,170878,1,8,0:0:0:0:
444,348,171281,6,0,B|480:296|480:248|460:196|428:168,1,180,0|8,0:0|0:0,0:0:0:0:
480,100,171885,2,0,B|432:76|384:104|360:124|292:104,1,180
220,136,172489,1,8,0:0:0:0:
52,68,172892,5,0,0:0:0:0:
60,248,173295,2,0,B|56:156,1,90,8|0,0:0|0:0,0:0:0:0:
200,304,173899,2,0,B|248:212,1,90,0|8,0:0|0:0,0:0:0:0:
220,136,174301,1,0,0:0:0:0:
184,52,174503,6,0,B|232:32|292:48|312:96|308:148,1,180,0|8,0:0|0:0,0:0:0:0:
312,316,175308,1,0,0:0:0:0:
368,244,175509,1,0,0:0:0:0:
428,176,175711,1,8,0:0:0:0:
288,64,176113,6,0,B|168:76,1,90
156,152,176516,2,0,B|284:140,1,90,8|0,0:0|0:0,0:0:0:0:
212,228,176919,2,0,B|92:240,1,90
256,360,177523,1,0,0:0:0:0:
288,276,177724,6,0,B|320:224|376:240|416:236|448:192|440:148,1,180,0|8,0:0|0:0,0:0:0:0:
324,44,178529,1,0,0:0:0:0:
256,104,178731,1,0,0:0:0:0:
188,44,178932,1,8,0:0:0:0:
148,220,179335,6,0,B|124:272|76:288,1,90
41,208,179737,2,0,B|85:244|88:295,1,90,8|0,0:0|0:0,0:0:0:0:
2,309,180140,2,0,B|48:275|98:286,1,90
176,296,180543,1,8,0:0:0:0:
264,276,180744,1,0,0:0:0:0:
256,192,180946,12,0,183764,0:0:0:0:
415,328,184167,22,0,B|358:257,1,90,12|0,0:0|0:0,0:0:0:0:
192,184,184569,2,0,B|281:171,1,90,8|0,0:0|0:0,0:0:0:0:
426,63,184972,2,0,B|387:164,1,90,8|0,0:0|0:0,0:0:0:0:
266,263,185375,5,8,0:0:0:0:
442,226,185576,1,0,0:0:0:0:
320,92,185777,1,0,0:0:0:0:
266,263,185979,1,0,0:0:0:0:
60,154,186382,1,0,0:0:0:0:
92,348,186784,2,0,B|147:259,1,90,0|8,0:0|0:0,0:0:0:0:
352,312,187388,6,0,B|391:280|447:302,1,90
341,231,187791,2,0,B|360:184|418:175,1,90,8|0,0:0|0:0,0:0:0:0:
288,168,188194,2,0,B|280:116|326:81,1,90
92,32,188798,1,0,0:0:0:0:
136,140,188999,6,0,B|156:196|152:256|136:288|108:324,1,180,0|8,0:0|0:0,0:0:0:0:
352,312,189804,1,0,0:0:0:0:
452,252,190006,1,0,0:0:0:0:
404,144,190207,1,8,0:0:0:0:
131,42,190610,6,0,B|168:68|172:120,1,90,12|0,0:0|0:0,0:0:0:0:
32,192,191012,2,0,B|36:148|79:119,1,90,8|0,0:0|0:0,0:0:0:0:
220,208,191415,2,0,B|180:227|133:205,1,90,8|0,0:0|0:0,0:0:0:0:
196,304,191818,5,8,0:0:0:0:
300,252,192019,1,0,0:0:0:0:
404,304,192220,1,0,0:0:0:0:
392,188,192422,2,0,B|388:128|408:84|452:64|504:52,2,180
288,132,193428,1,8,0:0:0:0:
84,288,193831,6,0,B|124:200,1,90,2|0,0:0|0:0,0:0:0:0:
256,316,194234,2,0,B|256:216,1,90,10|0,0:0|0:0,0:0:0:0:
428,288,194637,2,0,B|388:200,1,90,0|2,0:0|0:0,0:0:0:0:
256,32,195241,1,0,0:0:0:0:
372,52,195442,5,0,0:0:0:0:
400,88,195543,1,0,0:0:0:0:
400,132,195644,1,0,0:0:0:0:
372,168,195744,1,0,0:0:0:0:
328,176,195845,1,0,0:0:0:0:
288,156,195946,1,0,0:0:0:0:
248,132,196046,1,0,0:0:0:0:
212,104,196147,1,0,0:0:0:0:
168,100,196248,1,0,0:0:0:0:
124,116,196348,1,0,0:0:0:0:
104,156,196449,1,0,0:0:0:0:
116,200,196550,1,0,0:0:0:0:
152,228,196650,1,0,0:0:0:0:
168,272,196751,1,0,0:0:0:0:
156,316,196852,1,0,0:0:0:0:
116,340,196952,1,0,0:0:0:0:
72,328,197053,6,0,B|36:296|40:244,1,90,12|0,0:0|0:0,0:0:0:0:
256,240,197456,2,0,B|256:352,1,90,8|0,0:0|0:0,0:0:0:0:
440,328,197858,2,0,B|476:296|472:244,1,90,8|0,0:0|0:0,0:0:0:0:
388,68,198261,5,8,0:0:0:0:
500,36,198462,1,0,0:0:0:0:
476,152,198664,1,0,0:0:0:0:
276,40,198865,2,0,B|84:48,1,180
44,276,199670,1,0,0:0:0:0:
120,184,199872,1,8,0:0:0:0:
348,132,200275,6,0,B|372:224,1,90
480,264,200677,2,0,B|389:239,1,90,8|0,0:0|0:0,0:0:0:0:
300,312,201080,2,0,B|368:246,1,90
136,192,201684,1,0,0:0:0:0:
164,80,201885,6,0,B|178:20|116:-9|53:29|89:96,1,180,0|8,0:0|0:0,0:0:0:0:
208,288,202691,1,0,0:0:0:0:
136,192,202892,1,0,0:0:0:0:
92,300,203093,1,8,0:0:0:0:
380,192,203496,6,0,B|440:112,1,90,12|0,0:0|0:0,0:0:0:0:
256,144,203899,2,0,B|256:48,1,90,8|0,0:0|0:0,0:0:0:0:
132,192,204301,2,0,B|72:112,1,90,8|0,0:0|0:0,0:0:0:0:
76,292,204704,5,8,0:0:0:0:
188,324,204905,1,0,0:0:0:0:
256,228,205107,1,0,0:0:0:0:
324,324,205308,2,0,B|357:356|416:360|463:324|464:260,1,180
392,52,206114,2,0,B|364:116|368:160,1,90,0|8,0:0|0:0,0:0:0:0:
143,221,206718,5,2,0:0:0:0:
370,164,206919,1,0,0:0:0:0:
175,108,207120,1,2,0:0:0:0:
338,277,207322,1,0,0:0:0:0:
289,80,207523,1,2,0:0:0:0:
224,305,207724,1,2,0:0:0:0:
256,192,208127,1,0,0:0:0:0:
146,222,208328,5,0,0:0:0:0:
165,263,208428,1,0,0:0:0:0:
199,292,208529,1,0,0:0:0:0:
242,307,208630,1,0,0:0:0:0:
286,304,208730,1,0,0:0:0:0:
327,285,208831,1,0,0:0:0:0:
357,251,208932,1,0,0:0:0:0:
372,208,209032,1,0,0:0:0:0:
370,163,209133,1,0,0:0:0:0:
349,123,209234,1,0,0:0:0:0:
315,93,209334,1,0,0:0:0:0:
272,78,209435,1,0,0:0:0:0:
228,82,209536,1,0,0:0:0:0:
187,101,209636,1,0,0:0:0:0:
157,135,209737,1,0,0:0:0:0:
143,178,209838,1,0,0:0:0:0:
146,221,209939,1,4,0:0:0:0:
