osu file format v12

[General]
AudioFilename: Shanghai Romance.mp3
AudioLeadIn: 0
PreviewTime: 118026
Countdown: 0
SampleSet: Normal
StackLeniency: 0.7
Mode: 0
LetterboxInBreaks: 0

[Editor]
Bookmarks: 209939
DistanceSpacing: 1.2
BeatDivisor: 4
GridSize: 4

[Metadata]
Title:Shanghai Romance
TitleUnicode:샹하이 로맨스
Artist:Orange Caramel
ArtistUnicode:오렌지캬라멜
Creator:Kurai
Version:Hard
Source:
Tags:K-Pop Kpop Aldwych
BeatmapID:228731
BeatmapSetID:55082

[Difficulty]
HPDrainRate:5
CircleSize:4
OverallDifficulty:6
ApproachRate:7
SliderMultiplier:1.4
SliderTickRate:2

[Events]
//Background and Video events
0,0,"sha.jpg",0,0
Video,-300,"shasha.avi"
//Break Periods
2,92555,97898
2,156984,168770
//Storyboard Layer 0 (Background)
//Storyboard Layer 1 (Fail)
//Storyboard Layer 2 (Pass)
//Storyboard Layer 3 (Foreground)
//Storyboard Sound Samples
//Background Colour Transformations
3,100,163,162,255

[TimingPoints]
15040,402.684563758389,4,1,1,80,1,0
27925,-100,4,1,1,50,0,0
31147,-100,4,1,2,60,0,0
32858,-100,4,1,1,80,0,0
40811,-100,4,1,1,80,0,0
66583,-100,4,1,1,100,0,1
79419,-100,4,1,1,100,0,0
79469,-100,4,1,1,100,0,1
92355,-100,4,1,1,60,0,0
98798,-100,4,1,1,80,0,0
118127,-100,4,1,1,100,0,1
130962,-100,4,1,1,100,0,0
131013,-100,4,1,1,100,0,1
143899,-100,4,1,1,70,0,0
183764,-100,4,2,1,5,0,0
184167,-100,4,1,1,100,0,1
197003,-100,4,1,1,100,0,0
197053,-100,4,1,1,100,0,1
209939,-100,4,1,1,100,0,0

[Colours]
Combo1 : 0,236,0
Combo2 : 115,85,200
Combo3 : 53,209,255
Combo4 : 241,128,14
SliderBorder : 255,69,0

[HitObjects]
160,120,15040,2,0,P|108:176|124:264,1,140,0|8,0:0|0:0,0:0:0:0:
232,216,15845,2,0,P|256:252|252:304,2,70,0|0|8,0:0|0:0|0:0,0:0:0:0:
356,240,16650,6,0,P|408:184|392:96,1,140,0|8,0:0|0:0,0:0:0:0:
284,144,17455,2,0,P|260:108|264:56,2,70,0|0|8,0:0|0:0|0:0,0:0:0:0:
164,104,18261,5,0,0:0:0:0:
85,219,18664,1,8,0:0:0:0:
171,329,19066,1,0,0:0:0:0:
303,281,19469,1,8,0:0:0:0:
228,164,19872,5,0,0:0:0:0:
116,80,20274,1,8,0:0:0:0:
84,216,20677,2,0,P|40:280|72:348,1,140,0|8,0:0|0:0,0:0:0:0:
180,300,21482,5,4,0:0:0:0:
300,336,21885,1,8,0:0:0:0:
396,256,22288,2,0,L|468:280,2,70,0|0|8,0:0|0:0|0:0,0:0:0:0:
436,136,23093,6,0,P|372:144|308:92,1,140,0|8,0:0|0:0,0:0:0:0:
192,72,23899,1,0,0:0:0:0:
140,120,24100,1,0,0:0:0:0:
91,169,24301,1,8,0:0:0:0:
56,304,24704,6,0,P|136:328|196:288,1,140,0|8,0:0|0:0,0:0:0:0:
256,260,25308,1,0,0:0:0:0:
329,303,25509,2,0,P|376:328|456:304,1,140,0|8,0:0|0:0,0:0:0:0:
388,176,26315,5,4,0:0:0:0:
120,64,27925,5,2,0:0:0:0:
448,324,29133,2,0,L|376:304,1,70
312,328,29536,2,0,L|248:280,1,70
340,172,30140,1,0,0:0:0:0:
48,80,31147,5,2,0:0:0:0:
124,200,31550,1,2,0:0:0:0:
256,160,31952,1,2,0:0:0:0:
388,200,32355,1,2,0:0:0:0:
464,80,32758,1,2,0:0:0:0:
172,296,34368,6,0,P|84:328|32:308,2,140
88,184,35576,1,0,0:0:0:0:
125,124,35778,1,0,0:0:0:0:
191,102,35979,1,0,0:0:0:0:
259,118,36180,2,0,P|318:160|310:240,1,140
408,332,36986,2,0,L|480:304,1,70
416,180,37590,5,2,0:0:0:0:
368,48,37993,1,2,0:0:0:0:
236,92,38395,1,2,0:0:0:0:
184,160,38597,2,0,P|172:236|120:260,1,140,2|2,0:0|0:0,0:0:0:0:
256,192,39201,12,0,40409,0:0:0:0:
164,80,40811,6,0,P|148:124|128:144,2,70,0|0|8,0:0|0:0|0:0,0:0:0:0:
72,240,41617,1,0,0:0:0:0:
116,312,41818,1,0,0:0:0:0:
196,340,42019,1,8,0:0:0:0:
244,272,42221,1,0,0:0:0:0:
324,252,42422,6,0,P|400:260|444:220,2,140,0|8|0,0:0|0:0|0:0,0:0:0:0:
352,88,43630,1,8,0:0:0:0:
184,100,44033,5,0,0:0:0:0:
120,156,44234,1,0,0:0:0:0:
36,168,44435,1,8,0:0:0:0:
160,284,44838,2,0,L|88:316,2,70,0|0|8,0:0|0:0|0:0,0:0:0:0:
240,308,45442,1,0,0:0:0:0:
320,332,45644,5,0,0:0:0:0:
380,276,45845,1,0,0:0:0:0:
464,292,46046,1,8,0:0:0:0:
436,124,46449,2,0,L|296:140,1,140,0|8,0:0|0:0,0:0:0:0:
144,68,47254,6,0,L|72:80,1,70
32,152,47657,1,8,0:0:0:0:
104,196,47858,1,0,0:0:0:0:
52,260,48060,2,0,P|40:308|112:348,1,140,0|8,0:0|0:0,0:0:0:0:
264,288,48865,5,0,0:0:0:0:
340,252,49066,1,0,0:0:0:0:
424,264,49268,2,0,L|444:112,2,140,8|0|8,0:0|0:0|0:0,0:0:0:0:
328,128,50476,5,2,0:0:0:0:
160,140,50878,1,2,0:0:0:0:
56,272,51281,2,0,P|100:264|136:240,1,70,2|2,0:0|0:0,0:0:0:0:
260,348,51885,1,2,0:0:0:0:
256,192,52086,12,0,53295,0:0:0:0:
80,292,53697,6,0,P|164:336|216:312,1,140,6|8,0:0|0:0,0:0:0:0:
272,276,54301,2,0,P|340:240|432:248,2,140,2|2|2,0:0|0:0|0:0,0:0:0:0:
200,228,55308,2,0,P|288:168|408:156,1,210,2|2,0:0|0:0,0:0:0:0:
256,52,56315,1,0,0:0:0:0:
256,52,56516,1,8,0:0:0:0:
92,84,56919,6,0,P|88:128|56:156,1,70
120,216,57321,2,0,P|108:264|128:292,1,70,8|0,0:0|0:0,0:0:0:0:
200,284,57724,1,0,0:0:0:0:
280,304,57925,2,0,P|344:276|352:200,1,140
436,188,58529,5,0,0:0:0:0:
480,24,58932,1,8,0:0:0:0:
316,68,59335,2,0,L|300:156,2,70,0|0|8,0:0|0:0|0:0,0:0:0:0:
232,56,59939,1,0,0:0:0:0:
152,28,60140,6,0,P|72:60|64:172,1,210,2|2,0:0|0:0,0:0:0:0:
168,304,61147,2,0,P|196:244|164:168,1,140,2|2,0:0|0:0,0:0:0:0:
232,120,61751,2,0,P|280:212|256:332,2,210,2|2|8,0:0|0:0|0:0,0:0:0:0:
84,40,63362,6,0,L|12:72,2,70,2|0|8,0:0|0:0|0:0,0:0:0:0:
168,40,63966,2,0,P|208:56|236:88,1,70,0|2,0:0|0:0,0:0:0:0:
308,60,64368,1,0,0:0:0:0:
416,188,64771,1,2,0:0:0:0:
256,192,64972,12,0,66180,0:0:0:0:
124,72,66583,6,0,P|56:72|28:152,2,140,4|8|0,0:0|0:0|0:0,0:0:0:0:
108,240,67791,5,8,0:0:0:0:
172,292,67993,1,0,0:0:0:0:
252,272,68194,1,0,0:0:0:0:
320,224,68395,2,0,P|392:204|476:244,2,140
244,184,69402,1,8,0:0:0:0:
124,68,69805,6,0,L|64:120,1,70
96,192,70207,2,0,L|149:146,2,70,8|0|0,0:0|0:0|0:0,0:0:0:0:
144,260,70811,2,0,P|152:320|224:336,1,140
280,280,71415,1,0,0:0:0:0:
452,312,71818,1,8,0:0:0:0:
412,236,72019,1,0,0:0:0:0:
324,92,72422,5,0,0:0:0:0:
236,68,72623,2,0,L|164:80,1,70,8|0,0:0|0:0,0:0:0:0:
84,60,73026,6,0,P|24:104|28:168,2,140,0|8|0,0:0|0:0|0:0,0:0:0:0:
200,184,74234,5,8,0:0:0:0:
164,260,74435,1,0,0:0:0:0:
216,324,74637,1,0,0:0:0:0:
292,288,74838,2,0,L|444:280,2,140
276,204,75845,1,8,0:0:0:0:
428,192,76248,6,0,P|356:160|356:96,1,140,2|10,0:0|0:0,0:0:0:0:
184,108,77053,2,0,P|112:144|-16:112,1,210,2|2,0:0|0:0,0:0:0:0:
256,192,77858,12,0,79066,0:0:0:0:
424,84,79469,6,0,P|392:196|412:224,2,140,4|8|0,0:0|0:0|0:0,0:0:0:0:
256,104,80677,5,8,0:0:0:0:
176,128,80878,1,0,0:0:0:0:
208,208,81080,1,0,0:0:0:0:
152,272,81281,2,0,P|228:292|280:252,2,140
68,292,82288,1,8,0:0:0:0:
60,124,82691,6,0,L|80:52,1,70
164,52,83093,2,0,L|144:128,1,70,8|0,0:0|0:0,0:0:0:0:
232,112,83496,1,0,0:0:0:0:
292,56,83697,2,0,P|384:36|444:72,1,140
456,132,84301,5,0,0:0:0:0:
408,288,84704,1,8,0:0:0:0:
324,304,84905,2,0,L|184:268,1,140
116,308,85509,1,8,0:0:0:0:
48,156,85912,6,0,P|124:160|164:88,2,140,0|8|0,0:0|0:0|0:0,0:0:0:0:
160,32,87120,5,8,0:0:0:0:
240,64,87321,1,0,0:0:0:0:
240,148,87523,1,0,0:0:0:0:
324,164,87724,2,0,L|424:264,2,140
284,236,88731,1,8,0:0:0:0:
132,308,89133,6,0,L|52:280,1,70,2|0,0:0|0:0,0:0:0:0:
61,198,89536,2,0,L|137:226,1,70,10|0,0:0|0:0,0:0:0:0:
152,144,89939,1,0,0:0:0:0:
224,100,90140,2,0,P|292:72|368:84,1,140,2|2,0:0|0:0,0:0:0:0:
256,192,90744,12,4,92355,0:0:0:0:
80,96,98798,6,0,P|152:136|128:204,1,140,0|8,0:0|0:0,0:0:0:0:
256,312,99603,1,0,0:0:0:0:
304,240,99805,1,0,0:0:0:0:
388,228,100006,1,8,0:0:0:0:
464,80,100409,6,0,L|324:108,1,140,0|8,0:0|0:0,0:0:0:0:
168,48,101214,1,0,0:0:0:0:
84,192,101617,1,8,0:0:0:0:
192,320,102019,6,0,P|264:352|344:332,1,140,2|10,0:0|0:0,0:0:0:0:
448,232,102825,2,0,L|420:308,1,70,2|2,0:0|0:0,0:0:0:0:
408,132,103429,1,2,0:0:0:0:
256,192,103630,12,0,104838,0:0:0:0:
414,65,105241,6,0,P|324:35|276:67,1,140,6|8,0:0|0:0,0:0:0:0:
227,111,105845,2,0,P|165:157|73:164,2,140,2|2|2,0:0|0:0|0:0,0:0:0:0:
305,145,106852,2,0,P|228:218|111:249,1,210,2|2,0:0|0:0,0:0:0:0:
277,330,107859,1,0,0:0:0:0:
277,330,108060,1,8,0:0:0:0:
434,273,108463,6,0,P|431:228|459:196,1,70
386,147,108865,2,0,P|390:97|366:73,1,70,8|0,0:0|0:0,0:0:0:0:
296,92,109268,1,0,0:0:0:0:
220,60,109469,2,0,P|161:98|165:174,1,140
96,220,110073,5,0,0:0:0:0:
260,192,110476,1,8,0:0:0:0:
189,336,110879,2,0,L|191:246,2,70,0|0|8,0:0|0:0|0:0,0:0:0:0:
270,307,111483,1,0,0:0:0:0:
353,322,111684,6,0,P|427:278|417:166,1,210,2|2,0:0|0:0,0:0:0:0:
294,52,112691,2,0,P|276:115|319:185,1,140,2|2,0:0|0:0,0:0:0:0:
260,247,113295,2,0,P|199:164|203:42,2,210,2|2|8,0:0|0:0|0:0,0:0:0:0:
426,270,114905,6,0,L|492:227,2,70,2|0|2,0:0|0:0|0:0,0:0:0:0:
366,328,115510,2,0,P|324:318|292:291,1,70
225,330,115912,1,2,0:0:0:0:
98,220,116315,1,2,0:0:0:0:
256,192,116516,12,0,117724,0:0:0:0:
124,100,118127,5,4,0:0:0:0:
84,264,118529,1,8,0:0:0:0:
248,224,118932,1,0,0:0:0:0:
328,76,119335,6,0,P|360:68|408:72,1,70,8|0,0:0|0:0,0:0:0:0:
388,152,119737,1,0,0:0:0:0:
448,208,119939,2,0,P|480:264|448:328,2,140
384,264,120946,1,8,0:0:0:0:
216,288,121348,6,0,L|136:328,1,70
100,256,121751,2,0,P|120:224|120:184,1,70,8|0,0:0|0:0,0:0:0:0:
84,120,122154,1,0,0:0:0:0:
156,80,122355,2,0,L|300:100,1,140
372,68,122959,5,0,0:0:0:0:
476,200,123362,1,8,0:0:0:0:
428,268,123563,1,0,0:0:0:0:
260,292,123966,5,0,0:0:0:0:
176,308,124167,1,8,0:0:0:0:
96,280,124368,1,0,0:0:0:0:
80,196,124570,6,0,P|80:144|156:88,2,140,0|8|0,0:0|0:0|0:0,0:0:0:0:
248,204,125778,5,8,0:0:0:0:
288,132,125979,2,0,L|372:120,1,70
416,60,126382,2,0,P|480:124|480:200,1,140
384,304,127187,2,0,L|400:220,1,70,0|8,0:0|0:0,0:0:0:0:
236,288,127791,5,2,0:0:0:0:
152,304,127993,1,0,0:0:0:0:
152,220,128194,2,0,L|72:184,1,70,10|0,0:0|0:0,0:0:0:0:
132,120,128597,1,0,0:0:0:0:
216,124,128798,2,0,P|296:96|312:44,1,140,2|2,0:0|0:0,0:0:0:0:
256,192,129402,12,0,130610,0:0:0:0:
424,72,131013,6,0,L|464:224,2,140,4|8|0,0:0|0:0|0:0,0:0:0:0:
292,176,132221,5,8,0:0:0:0:
268,256,132422,1,0,0:0:0:0:
196,300,132623,1,0,0:0:0:0:
112,296,132825,2,0,P|72:268|64:180,2,140
140,216,133831,1,8,0:0:0:0:
184,52,134234,6,0,L|320:84,2,140,0|8|0,0:0|0:0|0:0,0:0:0:0:
100,68,135241,2,0,B|52:120|52:120|64:160|56:208,1,140
20,264,135845,5,0,0:0:0:0:
180,316,136248,1,8,0:0:0:0:
260,336,136449,1,0,0:0:0:0:
368,208,136852,5,0,0:0:0:0:
404,132,137053,1,8,0:0:0:0:
340,64,137254,1,0,0:0:0:0:
284,128,137456,6,0,P|208:144|136:128,2,140,0|8|0,0:0|0:0|0:0,0:0:0:0:
416,232,138664,6,0,P|436:280|428:320,1,70,8|0,0:0|0:0,0:0:0:0:
352,300,139066,2,0,P|336:340|288:356,1,70
276,276,139469,1,8,0:0:0:0:
208,324,139670,2,0,P|116:352|24:268,1,210,0|8,0:0|0:0,0:0:0:0:
28,120,140677,6,0,L|108:88,1,70,2|0,0:0|0:0,0:0:0:0:
172,120,141080,2,0,L|252:88,1,70,10|0,0:0|0:0,0:0:0:0:
320,112,141482,1,0,0:0:0:0:
396,80,141684,2,0,P|464:88|488:148,1,140,2|2,0:0|0:0,0:0:0:0:
256,192,142288,12,0,143496,0:0:0:0:
432,64,143899,5,6,0:0:0:0:
368,220,144301,1,8,0:0:0:0:
264,88,144704,2,0,L|196:116,2,70,0|0|8,0:0|0:0|0:0,0:0:0:0:
96,64,145509,5,0,0:0:0:0:
52,136,145711,2,0,P|32:216|60:284,2,140
112,196,146717,6,0,P|128:256|188:320,1,140,8|2,0:0|0:0,0:0:0:0:
346,303,147523,1,10,0:0:0:0:
387,140,147926,1,2,0:0:0:0:
244,51,148328,1,10,0:0:0:0:
116,159,148731,1,2,0:0:0:0:
256,252,149133,6,0,B|300:304|300:304|356:296|392:304,1,140,8|0,0:0|0:0,0:0:0:0:
452,320,149737,2,0,P|476:292|488:240,1,70,0|8,0:0|0:0,0:0:0:0:
464,96,150342,5,2,0:0:0:0:
304,148,150744,2,0,P|208:160|152:136,1,140,8|0,0:0|0:0,0:0:0:0:
112,84,151348,1,0,0:0:0:0:
84,164,151550,1,10,0:0:0:0:
24,224,151751,1,0,0:0:0:0:
184,272,152154,6,0,P|208:312|208:344,2,70,0|8|0,0:0|0:0|0:0,0:0:0:0:
216,196,152758,2,0,L|304:164,1,70
320,96,153160,1,8,0:0:0:0:
432,220,153563,6,0,P|412:280|452:344,2,140,2|10|2,0:0|0:0|0:0,0:0:0:0:
480,148,154570,1,2,0:0:0:0:
320,96,154972,1,2,0:0:0:0:
256,192,155174,12,4,156784,0:0:0:0:
64,76,169670,5,4,0:0:0:0:
176,204,170073,2,0,P|216:288|220:360,1,140,8|0,0:0|0:0,0:0:0:0:
312,192,170878,1,8,0:0:0:0:
180,88,171281,2,0,P|268:96|340:64,1,140,0|8,0:0|0:0,0:0:0:0:
384,28,171885,2,0,L|480:136,1,140
476,216,172489,1,0,0:0:0:0:
320,276,172892,6,0,B|284:288|260:324|260:324|192:332,1,140,0|8,0:0|0:0,0:0:0:0:
116,340,173496,2,0,P|140:272|204:252,1,140
288,60,174301,1,0,0:0:0:0:
220,112,174503,2,0,P|140:140|64:128,1,140,0|8,0:0|0:0,0:0:0:0:
36,296,175308,2,0,L|0:212,2,70,0|0|8,0:0|0:0|0:0,0:0:0:0:
204,276,176113,5,0,0:0:0:0:
372,276,176516,1,8,0:0:0:0:
428,116,176919,2,0,L|428:192,1,70
292,84,177523,2,0,P|208:140|88:132,1,210,0|8,0:0|0:0,0:0:0:0:
76,304,178529,1,0,0:0:0:0:
148,260,178731,1,0,0:0:0:0:
232,268,178932,1,8,0:0:0:0:
388,312,179335,6,0,L|420:168,1,140,0|8,0:0|0:0,0:0:0:0:
296,60,180140,2,0,L|316:140,1,70
148,100,180744,1,0,0:0:0:0:
256,192,180946,12,0,183764,0:0:0:0:
374,325,184167,6,0,P|442:332|478:255,2,140,4|8|0,0:0|0:0|0:0,0:0:0:0:
408,159,185375,5,8,0:0:0:0:
349,101,185577,1,0,0:0:0:0:
268,112,185778,1,0,0:0:0:0:
195,153,185979,2,0,P|121:165|42:117,2,140
267,201,186986,1,8,0:0:0:0:
374,329,187389,6,0,L|439:283,1,70
415,208,187791,2,0,L|357:248,2,70,8|0|0,0:0|0:0|0:0,0:0:0:0:
366,139,188395,2,0,P|364:78|294:55,1,140
170,166,189201,1,0,0:0:0:0:
98,123,189402,1,8,0:0:0:0:
170,82,189603,1,0,0:0:0:0:
176,288,190006,5,0,0:0:0:0:
262,317,190207,2,0,L|335:313,1,70,8|0,0:0|0:0,0:0:0:0:
413,341,190610,6,0,P|477:303|480:239,2,140,0|8|0,0:0|0:0|0:0,0:0:0:0:
308,208,191818,5,8,0:0:0:0:
350,137,192019,1,0,0:0:0:0:
309,64,192221,1,0,0:0:0:0:
230,92,192422,2,0,L|78:84,2,140
220,176,193429,1,8,0:0:0:0:
84,174,193832,6,0,P|153:213|146:277,1,140,2|10,0:0|0:0,0:0:0:0:
318,284,194637,2,0,P|394:255|518:300,1,210,2|2,0:0|0:0,0:0:0:0:
256,192,195442,12,0,196650,0:0:0:0:
80,312,197053,6,0,P|36:204|53:174,2,140,4|8|0,0:0|0:0|0:0,0:0:0:0:
246,279,198261,5,8,0:0:0:0:
328,264,198462,1,0,0:0:0:0:
305,181,198664,1,0,0:0:0:0:
367,123,198865,2,0,P|294:95|238:129,2,140
453,112,199872,1,8,0:0:0:0:
443,280,200275,6,0,L|416:349,1,70
332,340,200677,2,0,L|360:267,1,70,8|0,0:0|0:0,0:0:0:0:
271,274,201080,1,0,0:0:0:0:
205,323,201281,2,0,P|112:333|56:291,1,140
60,143,202087,5,0,0:0:0:0:
114,80,202288,1,8,0:0:0:0:
200,73,202489,2,0,L|335:123,1,140
407,91,203093,1,8,0:0:0:0:
459,249,203496,6,0,P|383:237|336:305,2,140,0|8|0,0:0|0:0|0:0,0:0:0:0:
334,361,204704,5,8,0:0:0:0:
258,320,204905,1,0,0:0:0:0:
267,237,205107,1,0,0:0:0:0:
185,212,205308,2,0,L|96:102,2,140
232,145,206315,1,8,0:0:0:0:
391,87,206717,6,0,L|467:123,1,70,2|0,0:0|0:0,0:0:0:0:
447,204,207120,2,0,L|375:168,1,70,10|0,0:0|0:0,0:0:0:0:
354,250,207523,1,0,0:0:0:0:
278,286,207724,2,0,P|207:307|133:287,1,140,2|2,0:0|0:0,0:0:0:0:
256,192,208328,12,4,209939,0:0:0:0:
